#TITLE:Don't Bother Me;
#SUBTITLE:;
#ARTIST:Tashannie;
#TITLETRANSLIT:;
#SUBTITLETRANSLIT:;
#ARTISTTRANSLIT:;
#GENRE:;
#CREDIT:;
#MUSIC:Don't Bother Me.ogg;
#BANNER:Don't Bother Me.png;
#BACKGROUND:Don't Bother Me-BG.png;
#CDTITLE:;
#SAMPLESTART:21.187;
#SAMPLELENGTH:13.534;
#SELECTABLE:YES;
#OFFSET:-0.255;
#BPMS:0.000=110.000;
#STOPS:;
#BGCHANGES:;
#FGCHANGES:;

//--------------- dance-single - Alex ----------------
#NOTES:
     dance-single:
     Alex:
     Beginner:
     1:
     0,0,0,0,0:
0000
0000
0000
0000
,
0000
0000
0000
0000
,
0010
0000
0000
0000
,
1000
0000
0000
0000
,
0001
0000
0000
0000
,
1000
0000
0000
0000
,
1000
0000
0000
0000
,
0010
0000
0000
0000
,
0100
0000
0000
0000
,
0100
0000
0000
0000
,
0001
0000
0000
0000
,
0001
0000
0000
0000
,
1000
0000
0000
0000
,
1000
0000
0000
0000
,
0010
0000
0000
0000
,
0010
0000
0000
0000
,
1000
0000
0000
0000
,
0001
0000
0000
0000
,
1001
0000
0000
0000
,
0010
0000
0000
0000
,
0100
0000
0000
0000
,
0001
0000
0000
0000
,
1001
0000
0000
0000
,
1000
0000
0000
0000
,
0010
0000
0000
0000
,
0010
0000
0000
0000
,
1000
0000
0000
0000
,
0001
0000
0000
0000
,
0001
0000
0000
0000
,
0100
0000
0000
0000
,
0110
0000
0000
0000
,
0010
0000
0000
0000
,
0010
0000
0000
0000
,
1000
0000
0000
0000
,
0001
0000
0000
0000
,
0001
0000
0000
0000
,
1000
0000
0000
0000
,
0010
0000
0000
0000
,
0100
0000
0000
0000
,
0100
0000
0000
0000
,
0001
0000
0000
0000
,
0001
0000
0000
0000
,
1000
0000
1000
0000
,
0001
0000
0001
0000
,
0100
0000
0000
0000
;

//--------------- dance-single - Alex ----------------
#NOTES:
     dance-single:
     Alex:
     Easy:
     3:
     0,0,0,0,0:
0000
0000
0000
0000
,
0000
0000
0000
0000
,
0001
0000
1000
0000
,
0001
0000
1000
0000
,
0010
0000
0010
0000
,
0100
0000
0001
0000
,
1000
1000
1000
0000
,
0001
0001
0001
0000
,
0100
0100
0100
0000
,
0010
0010
0010
0000
,
1001
0000
0001
0000
,
1000
0000
1000
0000
,
0010
0000
0100
0000
,
0010
0010
0010
0000
,
1000
0000
0001
0000
,
0010
0000
0001
0000
,
0100
0000
0010
0000
,
1000
0001
1000
0000
,
0001
0000
1000
0000
,
0001
0000
1001
0000
,
0010
0000
0100
0000
,
0010
0000
0110
0000
,
0100
0100
0100
0000
,
0001
0000
1000
0000
,
0010
0010
0010
0000
,
1000
0000
1000
0000
,
0001
0001
0001
0000
,
0100
0000
0001
0000
,
1000
1000
1000
0000
,
0010
0000
0100
0000
,
1001
0000
0001
0000
,
1000
0010
1000
0000
,
0001
0000
0100
0000
,
0110
0000
0000
0000
,
1000
0000
0001
0000
,
1000
0000
1000
0000
,
0001
0000
0100
0000
,
0001
0010
0001
0000
,
1000
0000
1000
0000
,
0010
0000
0010
0000
,
1000
0000
0001
0000
,
1000
1000
1000
0000
,
1001
0000
1001
0000
,
0110
0000
0110
0000
,
1001
0000
0000
0000
;

//--------------- dance-single - Alex ----------------
#NOTES:
     dance-single:
     Alex:
     Medium:
     5:
     0,0,0,0,0:
0000
0000
0000
0000
,
0000
0000
0000
0000
,
0100
0001
1000
0010
,
1000
1000
0001
0001
,
0010
0100
0010
0001
,
0100
0010
1000
0000
,
0001
0100
0001
1000
,
0010
1000
0001
1000
,
1000
0001
0010
0001
,
0100
0010
0100
0001
,
1000
0010
1000
0000
0001
0000
0000
0000
,
0100
0010
0100
0000
0001
0000
0000
0000
,
0010
0001
0100
0010
,
1000
0000
1001
0000
,
0001
1000
0001
0000
1000
0000
0000
0000
,
0010
0100
0010
0000
0100
0000
0000
0000
,
0001
0010
0001
0100
,
0010
0000
0110
0000
,
0010
0010
1000
0001
,
1000
1000
0001
0001
,
1000
0010
1000
0001
,
0100
0000
0010
0000
0100
0001
0100
0000
,
1001
0001
0010
0001
,
0001
1000
0010
0000
,
1000
0001
0100
0010
,
0100
0001
0010
0000
,
0001
1000
0100
1000
,
1000
0001
1000
0000
,
0001
0100
0010
0100
,
0001
1000
0001
0000
,
1000
1000
0001
0001
,
1000
0000
0010
0000
1000
0010
1000
0000
,
0001
0010
0001
0100
,
0010
1000
0001
1001
,
1000
0100
1000
0000
1000
0000
0000
0000
,
0001
0100
0001
0000
0001
0000
0000
0000
,
1000
1000
0010
0100
,
0001
0000
1001
0000
,
0001
0010
0001
0000
1000
0000
0000
0000
,
0010
0100
0010
0000
0100
0000
0000
0000
,
0001
1000
0001
0100
,
0010
0000
1001
0000
,
0110
0110
0110
0110
,
1001
1001
1001
1001
,
1001
0000
0000
0000
;

//--------------- dance-single - Alex ----------------
#NOTES:
     dance-single:
     Alex:
     Hard:
     8:
     0,0,0,0,0:
0000
0000
0000
0000
,
0000
0000
0000
0000
,
0001
0010
0001
0000
0100
0010
0100
0000
,
0001
0010
0100
1000
0001
0100
0010
0000
,
1000
0100
1000
0000
0001
0100
0001
0000
,
1000
0010
1000
0001
0010
0100
1000
0000
,
0001
0100
0010
0100
0001
0100
0010
0100
,
0001
0010
0100
0010
0001
0100
0010
0000
,
1000
0100
0010
0001
1000
0010
0100
0001
,
0010
0000
0100
0000
1000
0000
0001
0000
0100
0000
0010
0000
0000
1000
0000
0000
,
0001
0000
0100
0001
0000
0100
0000
0010
0000
0000
1000
0000
0100
0000
1000
0100
,
0000
0000
1000
0010
0000
0100
0000
0001
0000
0010
0001
0000
0000
0000
0100
0001
,
0100
0000
0010
1000
0000
0001
0000
0100
0000
0000
0010
0100
0000
0001
0000
1000
,
0000
0000
0000
0000
0001
0000
0000
0000
1000
0000
0001
0000
0000
1000
0000
0000
,
0001
0000
0100
0010
0000
0100
0000
0001
0000
0000
1000
0000
0100
0000
0010
0001
,
0000
0000
0100
0010
0000
0100
0000
0001
0000
1000
0010
0000
0000
0000
0010
1000
,
0010
0000
1000
0001
0000
0100
0000
0001
0000
0000
1000
0000
0010
0100
0000
0001
,
0000
0010
0000
0001
1000
0010
0110
0000
,
0100
0001
0100
0000
0001
1000
0001
0000
,
0010
0001
0100
0010
0100
0001
1000
0000
,
1000
0010
0010
0000
1000
0001
1000
0000
,
0001
0001
0010
0001
0100
0001
1001
0000
,
0001
1000
0010
1000
0001
1000
0100
0010
,
0001
0100
0010
0100
0001
1000
1010
0000
,
0010
0000
1000
0000
0001
0000
0010
0000
0000
0000
0001
0000
0100
0000
0010
0100
,
0010
0000
0100
0000
0001
1000
0100
0000
,
1000
0001
1000
0010
1000
0001
0010
0001
,
0100
0010
1000
0100
0000
1000
0001
1000
,
0000
0000
0010
0000
0000
0000
0000
0000
0100
0001
0100
0001
0100
0000
0001
0000
,
0000
1000
0010
1000
0000
0001
0010
0000
,
0001
0000
0100
0000
0010
0000
0100
0000
0001
0000
1000
0010
1000
0000
0001
1000
,
0001
0000
0100
0001
0000
0001
0000
0100
0000
0010
1000
0000
0000
0000
0001
0010
,
0001
0000
0100
0001
0000
0000
1000
0010
0000
0000
0100
0001
0000
1000
0000
0010
,
0000
0000
0100
0000
0000
0000
0001
0000
1000
0000
0001
0000
0000
0100
0000
0000
,
0010
0000
1000
0001
0000
1000
0000
0010
0000
0000
0100
0000
0001
0000
0010
0001
,
0000
0000
0100
0010
0000
0100
0000
0001
0000
1000
0010
0000
0000
0000
1000
0001
,
1000
0000
0001
1000
0000
0010
0000
0100
0000
0000
0001
0000
0010
0001
0000
0010
,
0000
0000
0001
0000
1000
0000
0100
0000
1000
0000
0010
0000
0000
1000
0000
0000
,
0001
0000
0100
0001
0000
1000
0000
0010
0000
0000
1000
0000
0001
0000
1000
0100
,
0000
0000
1000
0010
0000
1000
0000
0001
0000
0100
0001
0000
0000
0000
0010
0001
,
0010
0000
0001
0100
0000
0010
0000
1000
0000
0000
0001
0000
1000
0001
0000
1000
,
0000
0010
0000
0100
0000
0001
0000
1000
,
0100
1000
1010
0010
1000
0001
1001
0001
,
0100
0010
0110
0100
0001
0010
0011
0001
,
1000
0000
0000
0000
;
