#TITLE:DJ Otada;
#SUBTITLE:;
#ARTIST:Banya Production;
#TITLETRANSLIT:;
#SUBTITLETRANSLIT:;
#ARTISTTRANSLIT:;
#GENRE:;
#CREDIT:;
#MUSIC:DJ Otada.ogg;
#BANNER:DJ Otada.png;
#BACKGROUND:DJ Otada-BG.png;
#CDTITLE:;
#SAMPLESTART:5.725;
#SAMPLELENGTH:10.500;
#SELECTABLE:YES;
#OFFSET:-0.100;
#BPMS:0.000=180.000;
#STOPS:;
#BGCHANGES:;
#FGCHANGES:;

//--------------- dance-single - Alex ----------------
#NOTES:
     dance-single:
     Alex:
     Beginner:
     1:
     0,0,0,0,0:
0000
0000
0000
0000
,
0000
0000
0000
0000
,
0000
0000
0000
0000
,
0000
0000
0000
0000
,
0000
1000
0000
0000
,
0000
0010
0000
0000
,
0000
1000
0000
0000
,
0000
0001
0000
0000
,
0000
1000
0000
1000
,
0000
1000
0000
0000
,
0000
0001
0000
0000
,
0000
0010
0000
0000
,
0000
0001
0000
0000
,
0000
0100
0000
0000
,
0000
0010
0000
0010
,
0000
0010
0000
0000
,
0000
0100
0000
0000
,
0000
1001
0000
0000
,
0000
1001
0000
0000
,
0000
0010
0000
0000
,
0000
1000
0000
0000
,
0000
0001
0000
0000
,
0000
0100
0000
0000
,
0000
0100
0000
0000
,
0000
0010
0000
0010
,
0000
0010
0000
0000
,
0000
1001
0000
0000
,
0000
0001
0000
0000
,
0000
1000
0000
0000
,
0000
0100
0000
0000
,
0000
1000
0000
0000
,
0000
0001
0000
0000
,
0000
1000
0000
0000
,
0000
0010
0000
0000
,
0000
1000
0000
0000
,
0000
0000
0000
0000
,
0000
1001
0000
0000
,
0000
0010
0000
0000
,
0000
1000
0000
0000
,
0000
0100
0000
0000
,
0000
0001
0000
0000
,
0000
0001
0000
0000
,
0000
0100
0000
0000
,
0000
0100
0000
0000
,
0000
0010
0000
0000
,
0000
1000
0000
0000
,
0000
0001
0000
0000
,
0000
0100
0000
0000
,
0000
0001
0000
0000
,
0000
1000
0000
0000
,
0000
0010
0000
0000
,
0000
1000
0000
0000
,
0000
0100
0000
0000
,
0000
1001
0000
0000
,
0000
0110
0000
0000
,
0000
0001
0000
0000
,
0000
0001
0000
0000
,
0000
1000
0000
1000
,
0000
1000
0000
0000
,
0000
1001
0000
0000
,
0000
0010
0000
0000
,
0000
1000
0000
0000
,
0000
0001
0000
0000
,
0000
0100
0000
0000
,
0000
0001
0000
0001
,
0000
0001
0000
0000
,
0000
1000
0000
1000
,
0000
0010
0000
0010
,
0000
0000
0000
0100
,
0000
0000
0000
1000
,
0000
0000
0000
0001
,
0000
0000
0000
0000
,
0000
1001
0000
0000
;

//--------------- dance-single - Alex ----------------
#NOTES:
     dance-single:
     Alex:
     Easy:
     4:
     0,0,0,0,0:
0000
0000
0000
0000
,
0000
0000
0000
0000
,
0000
0000
0000
0000
,
0000
0000
0000
0000
,
0000
0001
0000
1000
,
0000
0001
0100
0001
,
0000
1000
0010
1000
,
0000
0010
0100
0010
,
0000
0100
0001
0100
,
0010
0110
0000
1001
,
0000
0010
0000
1000
,
0000
0100
1000
0100
,
0000
1000
0001
1000
,
0000
0001
0100
0001
,
0000
1000
1000
0010
,
0010
0110
0000
1001
,
0000
0220
0000
0330
,
0000
1001
0000
1001
,
0000
0110
0000
0110
,
0000
0100
0100
0100
,
0000
0001
0001
0001
,
0000
1000
1000
1000
,
0000
0010
0010
0010
,
0000
1000
1000
0001
,
0001
0100
0100
0200
,
0300
2002
0000
3003
,
0000
0010
0010
0100
,
0100
0002
0000
0003
,
0000
1000
1000
0001
,
0001
0200
0000
0300
,
0000
0010
0010
1000
,
1000
0002
0000
0003
,
0000
1000
1000
0010
,
0010
1000
1000
0001
,
0001
2002
0000
3003
,
0000
0000
0000
0000
,
0000
1000
0100
1000
,
0000
0001
0000
0100
,
0000
0010
0100
0010
,
0000
1000
0000
0001
,
0000
0010
0001
0010
,
0000
0001
0000
0100
,
0000
0010
0010
0110
,
0000
1000
1000
1001
,
0000
0001
0000
1000
,
0000
0010
0000
1000
,
0000
0001
0100
0001
,
0100
0010
0100
0010
,
0000
1000
1000
0100
,
0000
1000
0001
0100
,
0000
0010
0010
0010
,
0000
0100
0100
0001
,
0000
1000
0001
1000
,
0000
2002
0000
3003
,
0000
0220
0000
0330
,
0000
0101
0000
1010
,
0000
1100
0000
0011
,
0000
0100
0100
0100
,
0100
0010
0010
0010
,
0010
2002
0000
3003
,
0000
0001
0000
0100
,
0000
0010
0100
0010
,
0000
1000
0100
1000
,
0000
0001
0100
0001
,
0000
1000
1000
0010
,
0010
1000
1000
0001
,
0000
0100
0100
0010
,
0000
1000
1000
0001
,
0000
1001
0000
1000
,
0000
1010
0000
0010
,
0010
1000
1000
0001
,
0001
0100
0100
0110
,
0000
1001
0000
0000
;

//--------------- dance-single - Alex ----------------
#NOTES:
     dance-single:
     Alex:
     Medium:
     6:
     0,0,0,0,0:
0000
0000
0000
0000
,
0000
0000
0000
0000
,
0000
0000
0000
0000
,
0000
0000
0000
0000
,
0000
1001
0000
0110
,
0000
0010
0100
0001
,
0000
1000
0100
0010
,
0000
0000
0001
0100
0001
0100
0001
0000
,
0000
1000
1000
0001
,
0001
0100
0010
2000
,
3000
1001
0000
0110
,
0000
0100
0001
0010
,
0000
0001
1000
0001
,
0000
0000
1000
0100
1000
0100
1000
0000
,
0000
0001
0100
0010
,
1000
0001
0010
0100
,
1000
2002
0000
3003
,
0000
0001
0001
1000
,
1000
0010
0010
0100
,
0110
0010
1000
0100
,
0010
0100
0100
1000
,
0010
0100
0001
0010
,
0100
0000
1000
0001
1000
0001
1000
0000
,
0001
0000
0100
0001
0100
0001
0100
0000
,
0010
1000
1010
0101
,
0000
0000
0022
0000
0000
0000
0000
0033
,
0000
0101
0100
0010
,
1000
0002
0000
0103
,
0000
0100
0010
1000
,
0100
0020
0000
0031
,
0000
0001
1000
0010
,
1000
0002
0000
1003
,
0000
1000
1000
0100
,
0100
1000
0010
1000
,
0001
0000
2002
0000
0000
0000
0000
3003
,
0000
0110
0110
0110
,
0110
0010
1000
0001
,
0001
0000
0100
0000
0100
0000
0010
0100
,
0010
1000
0100
0010
,
0100
0000
1000
0000
0001
0000
1000
0010
,
1000
0001
0010
0001
,
0100
0110
0110
0101
,
0101
0000
0001
1000
0001
0000
1000
0000
,
0010
1000
1010
0100
,
0101
0000
0001
0000
0001
0000
0100
0010
,
0100
0000
0001
0000
1000
0000
0010
1000
,
0010
0000
1000
0000
0001
0000
1000
0100
,
1000
0001
0100
1000
,
0100
0001
0001
1000
,
1000
0010
0010
0100
,
0100
0001
0010
0100
,
1000
0001
0100
0010
,
1000
0001
0001
1000
,
1000
2002
0000
0000
,
3003
0220
0000
0000
,
0330
0101
0101
1010
,
1010
1001
1001
0110
,
0110
0010
1000
0001
,
0100
0010
0100
0001
,
1000
2002
0000
3003
,
0000
1001
0000
0110
,
0000
0010
0100
0001
,
0000
1000
0001
0100
,
0000
0000
0001
0100
0001
0100
0001
0000
,
0000
1000
0010
1000
,
0001
0100
0100
0020
,
0030
1000
0001
0020
,
0030
0001
1000
1010
,
1000
0001
0100
0101
,
0001
1000
0010
0110
,
0100
0101
0001
1001
,
1000
1100
1000
1001
,
0110
1001
0000
0000
;

//--------------- dance-single - Alex ----------------
#NOTES:
     dance-single:
     Alex:
     Hard:
     8:
     0,0,0,0,0:
0000
0000
0000
0000
,
0000
0000
0000
0000
,
0000
0000
0000
0000
,
0000
0000
0000
0000
,
0000
0000
2002
3003
0000
0001
0200
0000
,
0300
0010
1000
0100
1000
0010
2000
0000
,
3000
0001
1000
0010
0100
0001
0020
0000
,
0030
0000
0000
0000
0004
4000
0000
0000
0000
0000
0000
0000
3003
0000
0000
0000
,
0000
0001
1000
0010
0100
0001
0010
0100
,
1000
0001
0100
0010
0100
0001
2000
0000
,
3000
0000
2002
3003
0000
0001
0200
0000
,
0300
0010
1000
0100
1000
0010
2000
0000
,
3000
0001
0100
0010
1000
0001
0020
0000
,
0030
0000
0000
0000
0040
0400
0000
0000
0000
0000
0000
0000
0330
0000
0000
0000
,
0000
0010
0001
0100
0010
0100
0001
0010
,
0100
1000
0001
1000
0010
1000
0001
0100
,
0010
1000
2002
0000
0000
0000
3003
0000
,
0000
0000
1001
0000
0001
0100
0010
1000
,
0001
0000
1001
0000
1000
0100
1000
0001
,
1000
0001
0001
0100
,
0100
0000
0010
1000
0010
1000
0001
0000
,
0001
1000
1000
0100
,
0100
0000
1000
0001
1000
0001
0100
0010
,
0200
0300
0001
0010
0100
1000
0001
0010
,
0100
0000
1000
0000
0001
0000
0000
0000
0100
0000
0000
0010
0200
0000
0000
0000
,
0300
0000
0001
1000
0010
0000
0100
0001
,
1000
0000
0010
0001
0100
0010
0100
0001
,
1000
0010
0200
0000
0000
0000
0300
0000
,
0000
0000
0001
1000
0010
1000
0001
0100
,
0001
1000
0200
0000
0000
0000
0300
0000
,
0000
0000
0010
0001
0100
0010
0100
0001
,
1000
0010
0200
0000
0000
0000
0300
0000
,
0000
0000
0001
1000
0010
1000
0001
0010
,
0001
1000
0010
0000
0010
0000
0100
0000
,
0100
0000
2002
0000
0000
0000
0000
3003
,
0000
1001
0000
1001
,
0000
0000
0001
1000
0010
0000
0100
0001
,
1000
0100
0010
0000
0001
0000
0200
0000
,
0300
0000
0010
1000
0010
0000
1000
0001
,
0010
0001
1000
0000
0001
0000
0200
0000
,
0300
0000
0001
0010
0001
0000
1000
0010
,
0100
0001
1000
0000
0001
0000
0100
0000
,
0110
0000
0010
1000
0100
1000
0020
0000
,
1030
1010
0101
1010
,
0101
0000
0001
0100
0010
0100
0001
0000
,
1000
0000
0001
0010
0001
1000
0010
0000
,
0100
0000
0001
1000
0100
1000
0001
0000
,
0100
0000
0010
1000
0001
0000
0010
0001
,
1000
1010
1010
0101
,
0101
0011
0011
1100
,
1100
0000
1000
0100
1000
0100
1000
0000
,
0010
0000
0100
0001
0100
0001
0010
0100
,
1000
0001
0100
0010
0100
0001
1000
0010
,
0100
0001
2002
0000
0000
0000
0000
0000
,
3003
0110
0000
0110
,
0000
1001
0000
0110
,
0110
0011
0011
1100
,
1100
0000
0001
0100
0010
0100
0001
0100
,
0010
0100
0001
0010
0100
1000
0001
0010
,
0100
1000
2002
0000
0000
0000
0000
0000
,
3003
0000
2002
3003
0000
0001
0200
0000
,
0300
0010
1000
0100
0010
0001
0200
0000
,
0300
0001
0001
0100
0010
1000
0002
0000
,
0003
0000
0000
0000
4000
0004
0000
0000
0000
0000
0000
0000
3003
0000
0000
0000
,
0000
0001
1000
0010
0100
0001
0010
0100
,
1000
0001
0100
0010
0100
0001
2000
0000
,
3000
0000
0001
0010
0100
1000
0002
0000
,
0003
0000
1000
0010
1000
0010
1000
0001
,
0100
0000
0010
1000
0001
0000
0010
0001
,
1000
0000
0010
0100
0010
0000
1000
0001
,
0010
0001
0100
0010
0100
0001
0010
0100
,
1000
0001
0100
0010
1000
0001
1001
0000
,
0110
1001
0000
0000
;

//--------------- dance-single - Alex ----------------
#NOTES:
     dance-single:
     Alex:
     Challenge:
     12:
     0,0,0,0,0:
0000
0000
0000
0000
,
0000
0000
1000
0010
1000
0001
0000
1001
,
0000
0110
0000
1001
,
0011
1001
1010
2002
,
3003
0000
1001
0001
0100
0010
1010
0100
,
0001
0010
0011
0001
0101
0100
0110
0000
,
0010
1000
1100
1000
1001
0001
0101
0000
,
0100
0000
0110
0000
0010
1000
0100
0010
0001
1000
0010
0100
0002
0000
0000
0000
,
0103
0000
0010
0100
0010
0000
1010
0000
1000
0000
1001
0000
0001
0000
0101
0000
,
0100
0000
0110
0000
0010
1000
0100
0010
0001
0100
0010
0100
0001
0100
0001
0010
,
0001
1000
0001
1000
0010
0000
1000
0000
1001
0000
0001
0000
0100
0000
0010
0000
,
0110
0100
0001
0010
0011
0001
1000
0010
,
1010
1000
0001
0100
0110
0010
0100
0001
,
0011
0000
0001
0000
1000
0001
1000
0010
1000
0001
1000
0010
0200
0000
0000
0000
,
0310
0000
1000
0001
0100
0000
0110
0000
0100
0000
0101
0000
0001
0000
1001
0000
,
1000
0000
1010
0000
0010
1000
0100
1000
0010
1000
0001
1000
0010
1000
0001
0010
,
0100
1000
0001
0100
0020
0000
0000
0000
0030
0000
0100
0000
0100
0000
0001
1000
,
0001
0000
1000
0000
1010
0000
0010
0100
0001
0000
0100
0010
0100
0000
0001
0000
,
1001
0000
0000
0000
0011
0000
0001
0100
0010
0000
0100
0001
1000
0000
0001
0000
,
1001
0000
0000
0000
1000
0000
0010
1000
0002
0003
0100
0001
2000
3000
0001
0010
,
0002
0003
0100
0010
0200
0300
0001
1000
0020
0030
0100
0001
2000
3000
0001
0010
,
0002
0003
0100
0010
0200
0300
0001
1000
0020
0030
0100
0001
2000
3000
0100
0010
,
0002
0003
0100
0010
1000
0000
1001
0000
0001
0000
0101
0000
0100
0000
0110
0000
,
0010
1000
0100
0010
0001
0000
0101
0000
0001
0000
1001
0000
1000
0000
1010
0000
,
0010
1000
0001
0100
0010
0000
0000
0000
1001
0000
0000
0010
0220
0000
0000
0000
,
0330
0000
0001
0100
0010
0100
0001
0010
,
0100
1000
1001
0001
0100
0010
1000
0100
,
0010
0001
0202
0303
2020
3030
2200
3300
,
0022
0033
0101
0001
0100
0010
1000
0010
,
0100
0001
0022
0033
0202
0303
0220
0330
,
2020
3030
1000
0010
0100
0001
1000
0100
,
0010
0001
0202
0303
2002
3003
2020
3030
,
2200
3300
1000
0001
0100
0010
0100
0001
,
1000
0010
0100
0101
0001
1001
1000
1010
,
0010
0110
0202
0000
0000
0000
0000
0303
,
0000
0000
0000
0000
0001
0000
0010
0000
0100
0000
1000
0000
0001
0010
0100
1000
,
0001
0100
0010
1000
0001
0000
0100
0000
0010
0000
0100
0000
0001
0000
1000
0000
,
0010
0000
0100
0001
1000
0000
0001
0000
0100
0000
1000
0000
0100
0000
0001
0000
,
1000
0000
0010
0100
0001
0000
1000
0000
0001
0000
0010
0000
1000
0000
0010
0000
,
0001
0000
1000
0010
1000
0000
0001
0000
0100
0000
0010
0000
0100
0000
0001
0000
,
0010
0000
0100
1000
0001
0000
0100
0000
1000
0000
0100
0000
0001
0000
1000
0000
,
0010
1000
2002
3003
2020
3030
2200
3300
,
0022
0000
0033
0000
0001
0100
0010
0100
0001
0000
1000
0000
0020
0000
0000
0030
,
0200
0000
0000
0300
0011
0000
0000
0000
0101
0000
0000
0000
0010
1000
0010
1000
,
0010
1000
0001
0100
0010
0000
1000
0010
1000
0001
0100
0000
0100
0000
0001
0010
,
0100
1000
0001
0000
1000
0000
0010
1000
0001
0100
0010
0000
0100
0000
0001
0010
,
0001
0100
0010
0000
0100
0000
0001
1000
0010
0100
0001
0000
1000
0000
0001
1000
,
0001
0100
0001
0000
1000
0000
0010
1000
0100
1000
0010
0000
0100
0001
0010
0100
,
1000
0001
0100
0010
1000
0001
1000
0001
0100
0001
0100
0010
0100
0010
1000
0010
,
1000
0100
1000
0100
1000
0001
0100
0010
0100
0001
0010
0100
1000
0001
0010
0001
,
1000
0010
1000
0001
1000
0100
0010
0001
0100
0010
0100
0001
0010
0100
1000
0001
,
0100
0001
1000
0010
0220
0000
0330
0000
0202
0000
0303
0000
0022
0000
0033
0000
,
2002
3003
2020
3030
2200
3300
0110
0010
,
0100
0010
1010
0100
0001
1000
1001
0001
,
0010
0001
0101
0100
0010
1000
1010
0010
,
1000
0000
0100
0000
1000
0001
0100
0010
1000
0001
0010
0100
1000
0001
1000
0001
,
0100
0001
1000
0010
1000
0100
0010
0100
1000
0001
0100
0010
0100
0001
0010
0001
,
0010
0001
0100
0010
0100
0010
1000
0001
0100
0010
1000
0001
0010
0100
1000
0001
,
0100
0001
1000
0010
0100
0001
1000
0100
0010
0001
0100
0010
0100
0001
0010
0100
,
1000
0001
0100
0010
2020
0000
0000
0000
0000
0000
0000
0000
0000
0000
0000
0000
,
3030
0000
1001
0001
0100
0010
0110
0100
,
0001
1000
1010
0010
0110
0100
0101
0001
,
0010
0100
1100
1000
1001
0001
0101
0100
,
0010
0000
1010
0000
1000
0010
0100
0001
0010
0100
1000
0001
2000
0000
0000
0000
,
3010
0000
0100
0001
1000
0000
1001
0000
0001
0000
0101
0000
0100
0000
0110
0000
,
0010
0000
1010
0000
1000
0010
0100
0001
0010
0100
1000
0001
0100
0000
0010
0000
,
0100
0000
0001
0000
1000
0001
1000
0001
0100
0001
1000
0010
0100
0000
0001
0000
,
0010
0000
0100
0000
1000
0100
1000
0100
1000
0001
1000
0001
0100
0000
0010
0000
,
0100
0000
0001
0100
0001
0000
1000
0000
0010
0000
1000
0010
1000
0000
0001
0000
,
0100
0000
0010
0100
0001
0000
1000
0000
0001
0000
0010
0100
1000
0001
0100
0010
,
1000
0001
0010
0001
1000
0010
1000
0001
0100
0001
1000
0010
0100
0001
0010
0100
,
1000
0001
0100
0010
1000
0001
0100
0001
1000
0010
1000
0001
1001
0000
0000
0000
,
0110
1111
0000
0000
;
