#TITLE:Dignity;
#SUBTITLE:;
#ARTIST:Crash;
#TITLETRANSLIT:;
#SUBTITLETRANSLIT:;
#ARTISTTRANSLIT:;
#GENRE:;
#CREDIT:;
#MUSIC:Dignity.ogg;
#BANNER:Dignity.png;
#BACKGROUND:Dignity-BG.png;
#CDTITLE:;
#SAMPLESTART:70.330;
#SAMPLELENGTH:13.801;
#SELECTABLE:YES;
#OFFSET:-0.215;
#BPMS:0.000=195.000;
#STOPS:;
#BGCHANGES:;
#FGCHANGES:;

//--------------- dance-single - Alex ----------------
#NOTES:
     dance-single:
     Alex:
     Beginner:
     2:
     0,0,0,0,0:
0000
0000
0000
0000
,
0000
0000
0000
0000
,
0010
0000
0000
0000
,
0001
0000
0000
0000
,
0100
0000
0000
0000
,
0010
0000
0000
0000
,
1000
0000
0000
0000
,
1000
0000
0000
0000
,
0001
0000
0001
0000
,
1000
0000
1000
0000
,
0010
0000
0000
0000
,
1000
0000
0000
0000
,
0001
0000
0000
0000
,
1000
0000
0000
0000
,
0100
0000
0000
0000
,
1000
0000
0000
0000
,
0001
0000
0001
0000
,
0100
0000
0100
0000
,
0010
0000
0000
0000
,
1000
0000
0000
0000
,
0001
0000
0000
0000
,
1000
0000
1000
0000
,
1000
0000
0000
0000
,
0001
0000
0000
0000
,
1000
0000
0000
0000
,
0010
0000
0010
0000
,
0010
0000
0000
0000
,
1000
0000
0000
0000
,
0001
0000
0000
0000
,
1000
0000
0000
0000
,
0001
0000
0000
0000
,
1001
0000
0000
0000
,
0110
0000
0000
0000
,
1001
0000
0000
0000
,
0001
0000
0001
0000
,
0001
0000
0000
0000
,
1000
0000
1000
0000
,
1000
0000
0000
0000
,
0001
0000
0001
0000
,
0001
0000
0000
0000
,
0100
0000
0100
0000
,
0100
0000
0000
0000
,
0010
0000
0010
0000
,
0010
0000
0000
0000
,
1000
0000
1000
0000
,
1000
0000
0000
0000
,
1001
0000
0000
0000
,
0110
0000
0000
0000
,
1001
0000
0000
0000
,
0110
0000
0000
0000
,
1100
0000
0000
0000
,
0011
0000
0000
0000
,
0101
0000
0000
0000
,
1010
0000
0000
0000
,
1001
0000
0000
0000
,
0000
0000
0000
0000
,
0000
0000
0000
0000
,
0110
0000
0000
0000
,
0010
0000
0000
0000
,
1000
0000
0000
0000
,
0001
0000
0000
0000
,
1000
0000
0000
0000
,
1000
0000
0000
0000
,
0100
0000
0000
0000
,
1000
0000
0000
0000
,
0001
0000
0000
0000
,
0001
0000
0000
0000
,
1000
0000
0000
0000
,
1000
0000
0000
0000
,
0010
0000
0000
0000
,
1000
0000
0000
0000
,
0001
0000
0000
0000
,
1000
0000
0000
0000
,
1001
0000
0000
0000
,
0000
0000
0000
0000
,
0100
0000
0100
0000
,
0100
0000
0000
0000
,
0001
0000
0000
0000
,
1000
0000
0000
0000
,
0001
0000
0001
0000
,
0001
0000
0000
0000
,
1000
0000
0000
0000
,
0100
0000
0000
0000
,
1001
0000
0000
0000
,
0000
0000
0000
0000
,
0110
0000
0000
0000
;

//--------------- dance-single - Alex ----------------
#NOTES:
     dance-single:
     Alex:
     Easy:
     5:
     0,0,0,0,0:
0000
0000
0000
0000
,
0000
0000
0000
0000
,
0001
0100
0010
0100
,
0001
1000
0100
0100
,
1000
0010
1000
0001
,
0010
0010
0001
0001
,
0100
0010
0100
0001
,
1000
0100
0010
0100
,
1000
0001
0100
0010
,
0100
0100
0001
0001
,
1000
0001
0010
0100
,
1000
0001
0100
0010
,
1000
0100
0010
0100
,
1000
1000
0010
0010
,
1000
0001
0010
0001
,
0100
0010
0100
0100
,
0001
0010
0100
1000
,
0001
1000
0010
0100
,
1001
0000
0000
0110
,
0110
0000
0000
1001
,
1001
0000
0000
0110
,
0220
0000
0330
0000
,
1001
0000
0000
0011
,
0011
0000
0000
1100
,
1100
0000
0000
1010
,
2020
0000
3030
0000
,
1000
0010
1000
0001
,
0100
0010
0100
0001
,
0010
0100
1000
0001
,
0100
0010
0100
0001
,
1001
0000
0000
1001
0000
0000
0220
0000
,
0000
0000
0330
0000
,
0011
0000
0000
0011
0000
0000
2002
0000
,
0000
0000
3003
0000
,
1000
0001
0100
0010
,
0110
0000
0000
1010
0000
0000
1100
0000
,
1000
0001
1000
0001
,
0010
0001
0100
0010
,
0100
0100
0001
0001
,
1001
0000
0000
0110
0000
0000
1001
0000
,
0001
0010
0100
1000
,
0001
1000
0010
1000
,
1010
0010
0100
0001
,
0011
0000
0000
0011
0000
0000
1100
0000
,
1000
1000
0001
0001
,
0100
0010
0100
0001
,
0011
0000
0000
0101
0000
0000
0110
0000
,
0000
1010
0000
0000
1000
0000
0001
0000
,
1001
0000
0000
0011
0000
0000
1001
0000
,
0000
1100
0000
0000
1000
0000
0010
0000
,
1010
0000
0000
0110
0000
0000
0101
0000
,
0000
0011
0000
0000
0001
0000
1000
0000
,
1010
0000
0000
1001
0000
0000
0011
0000
,
0000
0101
0000
0000
0100
0000
0100
0000
,
0220
0000
0000
0000
,
0000
0000
0000
0000
,
0330
0000
0000
0000
,
1000
1000
0001
0001
,
0100
0010
0100
0001
,
0010
0010
0001
0001
,
1000
0100
0010
0001
,
1000
0010
1000
0001
,
0010
0001
0100
0100
,
0001
0010
0100
1000
,
0001
0100
0010
1000
,
1100
0100
1000
0010
,
1010
1000
0001
0100
,
0110
0100
0001
0010
,
0011
0001
1000
0010
,
1010
1000
1000
0001
,
0100
0010
0100
0001
,
0010
0100
1000
0001
,
0100
0010
0100
0001
,
2002
0000
0000
0000
,
3003
0000
1001
0000
,
0001
1000
0010
1000
,
0001
0010
0100
1000
,
0001
0100
0010
0010
,
0100
0001
1000
1000
,
0001
0010
0001
1000
,
0100
0010
0001
1000
,
0010
0010
1000
1000
,
0001
0100
0010
0100
,
2002
0000
3003
0000
,
1001
0000
0000
0110
0000
0000
1001
0000
;

//--------------- dance-single - Alex ----------------
#NOTES:
     dance-single:
     Alex:
     Medium:
     8:
     0,0,0,0,0:
0000
0000
0000
0000
,
0000
0000
0000
0000
,
0001
0000
1000
0000
0010
0000
1000
0010
,
1000
0001
0100
0010
0100
0000
0100
0000
,
0001
0010
0100
1000
0001
0100
0010
1000
,
0100
1000
0001
0100
,
0010
0100
0010
0100
0010
0000
1000
0100
,
1000
0100
1000
0001
1000
0000
0001
0100
,
0010
0100
0001
0100
0000
0100
0001
1000
,
0001
0001
1000
1000
,
0001
1000
0010
1000
0001
0010
0001
0000
,
0100
0001
0010
0100
1000
0001
0100
0010
,
1000
0100
1000
0100
2000
0000
3000
0000
,
0001
0100
0001
0100
0001
0200
0000
0300
,
0010
1000
0001
1000
0010
0000
1000
0001
,
0010
0100
1000
0001
1000
0000
0001
0000
,
0100
0010
0100
0001
0010
0100
1000
0001
,
1000
0001
0100
0010
,
0110
0000
0000
1001
0000
0000
0011
0000
,
0101
0000
0000
0110
0000
0000
1010
0000
,
1100
0000
0000
0110
0000
0000
1001
0000
,
0001
1000
0010
0100
0002
0000
0003
0000
,
1001
0000
0000
1001
0000
0000
0101
0000
,
0110
0000
0000
1010
0000
0000
1100
0000
,
0110
0000
0000
0011
0000
0000
0101
0000
,
0010
0100
0010
0100
0020
0000
0030
0000
,
1000
0010
1000
0000
0010
1000
0010
0000
,
1000
0100
1000
0001
1000
0100
1000
0000
,
0001
0100
0001
0000
0100
0001
0100
0000
,
0010
1000
0001
0010
0100
1000
0001
1000
,
0001
0100
0000
0100
0010
0000
0010
0200
,
0000
0300
0000
0000
,
0001
0010
0000
0010
0001
0000
0001
2000
,
0000
0000
0000
3000
0000
0000
0000
0000
,
0001
1000
0000
1000
0010
0000
0010
0000
,
0100
0001
0000
0001
1000
0000
1000
0000
,
0001
1000
0010
1000
0001
0000
0001
0010
,
0100
1000
0001
0100
0010
0000
0100
0000
,
0001
1000
0000
1000
0001
0000
1000
0000
,
0100
1000
0000
1000
0100
0000
1000
0000
,
0010
1000
0010
1000
0001
0000
1000
1000
,
0001
0100
0010
0100
0001
0000
1000
0000
,
0001
0010
0000
0010
0001
0000
1000
0000
,
0010
1000
0000
1000
0010
0000
1000
0000
,
0001
1000
0100
1000
0001
0000
0001
1000
,
0010
0100
0001
0010
0100
1000
0001
0000
,
0100
0001
0000
0001
0100
0000
0010
0000
,
1000
0100
0000
0100
1000
0000
0001
0000
,
1000
0010
0000
0010
1000
0000
0001
0000
,
0010
0001
0000
0001
0010
0000
0001
0000
,
0100
0010
0000
0010
0100
0000
0001
0000
,
1000
0100
0000
0100
1000
0000
1000
0000
,
0001
1000
0000
1000
0001
0000
1000
0000
,
0010
1000
0000
1000
0010
0000
0100
0000
,
2002
0000
0000
0000
,
0000
0000
0000
0000
0000
3003
0000
0000
,
0000
0000
0000
0000
,
0001
0010
0100
1000
0001
0100
0010
0000
,
1000
0100
0010
0001
1000
0010
0100
0000
,
0001
0010
0001
0100
0001
0000
0100
0001
,
0100
0010
1000
0001
0010
0100
1000
0000
,
0001
0100
0010
0100
0001
0100
0010
0000
,
1000
0100
0010
0001
1000
0010
1000
0000
,
0001
0010
0100
1000
0001
0100
0010
0000
,
0100
0001
0100
0000
0101
0000
1010
0000
,
0010
1000
0010
1000
0010
1000
0010
0000
,
1000
0100
0010
0100
1000
0100
0010
0000
,
0001
0100
0010
0100
0001
0100
0010
0000
,
0100
0001
0010
0001
1000
0001
0100
0000
,
0001
1000
0100
1000
0001
1000
0100
0000
,
1000
0010
1000
0001
0010
0100
1000
0000
,
0001
0100
0010
0100
0001
0010
0100
0000
,
1000
0001
0100
0010
1000
0100
0010
0001
,
2002
0000
0000
3003
,
1001
0000
0110
1001
,
0001
0100
0010
0100
0001
0000
0001
1000
,
0100
0010
0001
1000
0010
0000
1000
0010
,
1000
0001
1000
0001
0200
0000
0300
0000
,
0001
0010
0100
1000
0001
2000
0000
3000
,
0010
1000
0010
1000
0010
0000
1000
0100
,
0010
0001
1000
0010
0100
0000
0001
0000
,
0010
0001
0100
0001
0010
0100
1000
0001
,
0100
0010
0100
0001
1000
0100
0010
0001
,
2000
0000
3000
0000
,
0001
1000
0000
1000
0001
0000
0001
0200
,
0000
0000
0000
0000
,
0300
0000
0000
0000
;

//--------------- dance-single - Alex ----------------
#NOTES:
     dance-single:
     Alex:
     Hard:
     10:
     0,0,0,0,0:
0000
0000
0000
0000
,
0000
0000
0000
0000
,
0001
1000
0010
1000
0001
0010
0100
1000
,
0001
0000
0100
0001
0100
0000
0010
0100
0010
0000
0000
0000
0110
0000
0000
0000
,
0010
1000
0100
0010
0100
1000
0001
1000
,
0010
0000
1000
0010
1000
0000
0001
0100
0001
0000
0000
0000
0101
0000
0000
0000
,
0001
0010
0100
1000
0001
1000
0010
0100
,
0100
0001
0010
0001
1000
0000
0010
1000
,
0001
0000
0010
0000
0100
0000
1000
0000
0001
0000
0100
0000
0001
0000
0100
0001
,
0100
0000
0010
0000
1000
0000
0100
1000
0100
0000
1000
0000
0010
0000
0000
0000
,
1000
0000
0010
0000
1000
0000
0001
0000
1000
0010
0000
0000
0100
0000
0001
0100
,
0001
0000
0100
0000
0010
0000
1000
0010
1000
0000
0001
0000
1000
0000
0000
0000
,
0001
0010
0100
1000
1001
0000
0110
0000
,
0010
0100
0001
0100
0010
1010
0000
1000
,
0001
0000
0010
0000
0001
0000
0100
0000
0001
0000
0100
0000
0010
0000
1000
0100
,
0010
0000
0001
0000
1000
0000
0010
0100
0001
0000
1000
0000
0001
0000
0000
0000
,
0010
0000
0001
0000
0100
0000
0001
0000
0100
0000
0010
0000
1000
0000
0100
1000
,
0010
0000
1000
0000
0001
0000
1000
0001
1000
0000
0001
0000
0100
0000
0001
0000
,
0101
0000
0001
1000
0000
1000
0001
0100
,
0101
0000
0001
0010
0000
0010
0001
1000
,
1010
0000
0010
1000
0000
1000
0001
0100
,
0010
0100
0010
0100
0010
0000
0100
0000
0001
0100
0001
0100
0001
0000
1000
0000
,
1001
0000
0010
0100
0000
0100
0001
1000
,
1100
0000
0100
1000
0000
1000
0001
0100
,
0101
0000
0001
0100
0000
0100
0010
0100
,
0001
1000
0001
1000
0001
0000
1000
0000
0010
1000
0010
1000
0010
0000
1000
0000
,
0010
0000
1000
0000
0001
0000
0100
0000
0010
0100
0010
0000
0100
0000
0001
0000
,
1000
0000
0100
0000
0010
0000
0001
0000
1000
0001
1000
0000
0001
0000
0100
0000
,
0010
0000
0100
0000
0001
0000
0010
0000
0001
0010
0001
0000
0100
0000
0001
0000
,
0100
0000
0010
0000
1000
0000
0100
0000
0010
0001
1000
0000
0001
0000
0100
0000
,
0001
0101
0000
0100
0110
0000
0010
2020
,
0000
0000
0000
3030
0000
0000
0000
0000
,
0001
1001
0000
1000
1001
0000
0001
0202
,
0000
0000
0000
0303
0000
0000
0000
0000
,
1001
0001
0010
0100
1000
0001
0100
0010
,
1000
1010
0000
0001
0101
0000
0100
0110
,
0010
0000
1000
0000
0100
0000
0010
0000
0001
0000
1000
0000
0010
0000
0100
0001
,
0100
0000
0001
0000
1000
0000
0001
0010
0001
0000
1000
0000
0010
0000
0100
0000
,
0001
0100
0010
0100
0001
0010
0100
1000
,
0001
1001
0000
1000
1001
0000
0001
0100
,
0101
0000
0001
0000
1000
0000
0010
0000
1000
0000
0001
0000
0010
0000
0001
1000
,
0010
0000
0100
0000
0001
0000
1000
0100
0010
0000
0001
0000
0100
0000
0010
0000
,
0100
0001
0010
0100
1000
0001
0100
0010
,
1000
1100
0000
1000
1010
0000
0010
0100
,
0110
0000
0100
0000
0001
0000
0010
0000
0001
0000
1000
0000
0010
0000
1000
0100
,
1000
0000
0001
0000
0100
0000
0001
0100
0001
0000
0100
0000
0010
0000
0100
0000
,
0100
0101
0000
0010
1010
0000
1000
1001
,
0000
0001
0101
0000
0100
0010
0100
0001
,
0010
0110
0000
1000
1100
0000
0001
0011
,
0000
0100
0101
0000
0010
1000
0001
0010
,
0100
1100
0000
1000
1001
0000
0001
0011
,
0000
1000
1010
0000
0010
0100
0001
0100
,
0001
0011
0000
1000
1100
0000
1000
1010
,
0000
0010
0110
0000
0100
0001
1000
0010
,
0220
0000
0000
0000
,
0000
0330
0000
0000
,
1000
0001
1000
0001
1000
0001
1000
0001
1000
0001
1000
0001
1000
0000
0000
0000
,
0001
0000
0010
0000
0100
0000
1000
0000
0001
1000
0001
0000
0100
0000
0001
0000
,
1000
0000
0010
0000
1000
0000
0001
0000
0010
0001
0010
0000
0001
0000
0100
0000
,
0010
0000
0100
0000
0001
0000
1000
0000
0100
0010
0001
0000
1000
0000
0010
0000
,
1000
0000
0001
0000
0010
0000
0100
0000
1000
0100
1000
0000
0001
0000
0100
0000
,
0010
0000
0100
0000
0001
0000
1000
0000
0010
1000
0010
0000
1000
0000
0001
0000
,
0010
0000
0001
0000
0100
0000
0001
0000
1000
0100
1000
0000
0001
0000
0100
0000
,
0010
0000
0100
0000
0001
0000
0010
0000
0100
1000
0100
0000
1000
0000
0010
0000
,
1000
0000
0001
0000
0010
0000
0001
0000
0100
0001
0100
0000
0001
0000
1000
0000
,
0010
1000
0010
1000
0010
1000
0010
0000
1000
0000
0001
0000
0010
0000
0100
0000
,
1000
0100
1000
0100
1000
0100
1000
0000
0001
0000
0100
0000
0010
0000
0100
0000
,
0001
0010
0001
0010
0001
0010
0001
0000
0100
0000
0100
0000
0001
0000
0001
0000
,
1000
0010
1000
0010
1000
0010
1000
0000
0001
0000
1000
0000
0010
0000
1000
0000
,
0001
0100
0001
0100
0001
0100
0001
0100
0001
0000
0100
0000
0010
0000
0100
0000
,
0001
1000
0001
1000
0001
1000
0001
0000
1000
0000
0001
0000
0100
0000
0010
0000
,
0100
0001
0100
0001
0100
0001
0100
0000
0001
0000
1000
0000
0010
0000
1000
0000
,
0001
1000
0001
1000
0001
1000
0001
0000
1000
0000
0010
0000
1000
0000
0001
0000
,
2002
0000
0000
3003
,
0001
1000
0010
0100
0001
1000
0100
0010
,
0011
0000
0001
0000
0100
0000
0010
0000
0100
0010
0100
0000
0001
0000
1000
0000
,
0010
0000
1000
0000
0001
0000
0010
0000
0001
0010
0001
0000
0100
0000
0010
0000
,
0100
0010
0100
0010
0100
0010
0100
0000
0001
0000
1000
0000
0100
0000
0010
0000
,
0001
1000
0001
1000
0001
1000
0001
0000
1000
0000
0010
0000
1000
0000
0001
0000
,
0011
0000
0001
0000
0100
0000
0010
0000
0100
0010
0100
0000
0001
0000
1000
0000
,
0100
0000
0010
0000
0001
0000
1000
0000
0010
1000
0010
0000
1000
0000
0001
0000
,
0010
0000
0001
0000
1000
0000
0010
0000
1000
0010
1000
0000
0001
0000
0100
0000
,
0010
0000
0100
0000
0001
0000
1000
0000
0100
0010
0001
0000
0100
0000
0010
0000
,
2002
0000
3003
0000
,
1001
1001
0000
0110
0110
0000
1001
2002
,
0000
0000
0000
0000
,
3003
0000
0000
0000
;

//--------------- dance-single - Alex ----------------
#NOTES:
     dance-single:
     Alex:
     Challenge:
     14:
     0,0,0,0,0:
0000
0000
0000
0000
,
0000
0000
0000
0000
,
1000
0000
0010
0000
0100
0000
0001
0000
0010
0001
0010
0000
0001
0000
0100
0000
,
0010
0100
0001
0010
0100
1000
0001
1000
0010
0000
1000
0000
0001
0000
0100
0000
,
0010
0100
0001
0100
0001
0010
0001
1000
0001
1000
0010
1000
0010
1000
0001
1000
,
0001
0100
0001
0010
0100
1000
0001
0100
0010
0000
1000
0000
0100
0000
0010
0000
,
0001
0000
1000
0000
0001
0000
0100
0000
0010
0100
0010
0000
0100
0000
0001
0000
,
1000
0000
0100
0000
0010
0000
0001
0000
1000
0010
1000
0000
0001
0000
0100
0000
,
0010
0100
0001
0010
0001
1000
0010
1000
0001
1000
0100
0010
0001
1000
0010
0100
,
0001
0010
0100
1000
0001
0010
0100
1000
0010
0100
0001
0100
0010
0000
0100
0000
,
0001
0000
1000
0000
0001
0000
0100
0000
0010
0100
0010
0000
0100
0000
0001
0000
,
0010
0000
0100
0000
1000
0000
0001
0000
1000
0001
1000
0000
0001
0000
0100
0000
,
0010
1000
0100
0010
0001
1000
0010
0100
0001
0000
1000
0000
0001
0000
0010
0000
,
0001
1000
0010
0100
0001
0010
0100
1000
0001
1000
0010
1000
0001
1000
0001
0000
,
1000
0000
0100
0000
0010
0000
0100
0000
1000
0010
1000
0000
1000
0000
0001
0000
,
1000
0000
0010
0000
1000
0000
0001
0000
0010
0001
0010
0000
0001
0000
0100
0000
,
0010
0100
0001
0010
0100
1000
0001
1000
0010
1000
0001
1000
0001
0000
1000
0000
,
0010
1000
0001
0010
0100
1000
0001
0100
0001
0100
0010
0100
0001
0000
1000
0000
,
1001
0000
0010
0110
0000
0100
0101
0001
,
1001
0000
1000
1010
0000
0010
1010
1000
,
1100
0000
0010
0011
0000
0100
0001
0101
,
0001
0100
0010
0100
0001
0010
0100
1000
0001
1000
0001
0100
0001
0100
0010
0000
,
0110
0000
0100
0101
0000
0001
1001
1000
,
1010
0000
0010
1010
0000
1000
1001
0001
,
0011
0000
0001
0101
0000
0100
0010
0110
,
0100
0001
0010
0001
0100
0001
0010
0001
0100
0010
0100
0001
2000
0000
3000
0000
,
0001
0010
0001
0100
0001
0010
0100
1000
0001
1000
0010
1000
0001
1000
0010
1000
,
0100
0010
0001
1000
0010
0100
0001
0010
0100
1000
0001
0100
0010
0000
0100
0000
,
0001
0010
0100
1000
0001
1000
0010
1000
0100
0010
0100
1000
0001
1000
0010
1000
,
0001
0010
0100
1000
0001
0100
0010
0100
0001
0010
0100
1000
0001
1000
0010
0100
,
0001
0101
0000
0100
0110
0000
0110
2002
,
0000
0000
3003
0000
,
0011
0101
0000
0110
1010
0000
1100
0110
,
2002
0000
3003
0000
,
1001
0001
0100
0010
0100
0001
1000
0100
,
0010
0011
0000
0001
0101
0000
0100
0010
,
0110
0000
0100
0001
0100
0000
0001
0000
1000
0000
0010
1000
0010
0000
1000
0000
,
0001
0000
0010
0000
0100
0000
1000
0000
0001
0100
0010
1000
0100
0000
0010
0000
,
0011
0001
0100
0010
0100
0001
1000
0010
,
0100
0101
0000
1001
0011
0000
0001
0100
,
0110
0000
0010
1000
0100
0000
0010
0000
0001
0000
0001
1000
0001
0000
0001
0000
,
1000
0000
1000
0000
0001
0000
0100
0000
0010
0100
0001
1000
0100
0000
0010
0000
,
0011
0001
0100
0010
0100
0001
1000
0010
,
1000
1010
0000
0110
0101
0000
0001
1000
,
1001
0000
0001
0010
0001
0000
0100
0000
0010
0000
0100
0001
0100
0000
0001
0000
,
0010
0000
0100
0000
1000
0000
0001
0000
1000
0010
1000
0001
1000
0000
0001
0000
,
0101
0100
0010
1010
1000
0001
0011
0001
,
0100
0110
0100
0001
0101
0001
1001
1000
,
1010
0010
1000
1001
0001
0100
0110
0010
,
0100
0101
0001
1000
1001
0001
0101
0100
,
0110
0010
1000
1100
0100
1000
1001
0001
,
0100
0110
0010
0100
0101
0001
0011
0001
,
1001
1000
0010
1010
1000
0001
0101
0100
,
0010
0110
0100
0001
0011
0001
0101
0100
,
0100
0010
0100
0010
0100
0010
0100
0010
0100
0010
0100
0010
0100
0010
0100
0010
,
0100
0010
1000
0010
1000
0010
1000
0010
1000
0010
1000
0010
1000
0010
1000
0020
,
2000
0000
0000
3030
,
0010
1000
0001
0100
0010
1000
0001
0010
0100
1000
0001
0010
0001
1000
0010
1000
,
0001
1000
0100
0010
0001
1000
0010
0100
0001
0010
0001
0100
0001
0010
0100
1000
,
0001
1000
0100
0010
0001
1000
0010
1000
0001
0010
0001
0100
0001
0010
0100
1000
,
0001
0100
0010
1000
0100
0010
0001
1000
0010
0100
0001
0010
0100
0000
1000
0000
,
0010
1000
0010
1000
0010
0100
0001
0010
0001
0100
0001
0010
0100
1000
0001
1000
,
0010
1000
0001
1000
0001
0100
0001
0010
0100
1000
0001
1000
0010
1000
0001
0010
,
0001
0100
0001
0010
0100
0010
0001
0100
0010
0100
0001
1000
0100
0010
0001
1000
,
0010
1000
0001
1000
0010
1000
0001
0010
0100
0000
0001
0000
1000
0000
0010
0000
,
1000
0010
1000
0001
1000
0010
0100
0001
0100
0001
0100
0001
0010
0100
0010
0100
,
0010
0001
0100
0001
0100
0010
0100
0010
1000
0010
1000
0010
1000
0010
1000
0001
,
1000
0001
1000
0001
0100
0001
0100
0001
0100
0010
1000
0100
1000
0010
1000
0001
,
0100
0001
0010
0100
1000
0001
1000
0010
1000
0001
0010
0001
0100
0001
0010
0100
,
0010
0001
1000
0010
0100
0010
1000
0100
0010
0001
1000
0001
0010
0100
1000
0001
,
0100
0010
0100
0001
0010
0001
1000
0010
1000
0001
0010
0100
1000
0001
0100
0010
,
1000
0100
0010
0100
1000
0001
1000
0001
0100
0001
0100
0010
1000
0001
0010
0100
,
1000
0001
0100
0001
0010
0001
1000
0010
1000
0001
1000
0010
1000
0100
0010
0002
,
2000
0000
0000
0000
,
3003
0000
1001
1001
,
0001
0000
0100
0000
0010
0000
0100
0000
0001
0100
0001
0000
0010
0000
0100
0000
,
1000
0000
0010
0000
1000
0000
0001
0000
1000
0010
1000
0000
0001
0000
1000
0000
,
0100
0010
0001
1000
0010
0100
0001
0010
0100
0000
1000
0000
0001
0000
0100
0000
,
0010
1000
0100
0010
0100
1000
0001
0100
0010
0000
0100
0000
0001
0000
0010
0000
,
0001
0000
0001
0000
1000
0000
0001
0000
1000
0010
1000
0000
0001
0000
1000
0000
,
0100
0000
0010
0000
0001
0000
0100
0000
0010
0100
0010
0000
0100
0000
0001
0000
,
0010
0001
0100
0001
0010
0100
1000
0001
1000
0001
1000
0001
0100
0001
0100
0010
,
0100
0001
0010
0001
1000
0001
0100
0001
0100
0010
1000
0100
0010
0001
1000
0020
,
0200
0000
0330
0000
,
0011
1001
0000
1010
1001
0000
0110
2002
,
0000
0000
0000
0000
,
3003
0000
0000
0000
;
