#TITLE:Destination;
#SUBTITLE:;
#ARTIST:SHK;
#TITLETRANSLIT:;
#SUBTITLETRANSLIT:;
#ARTISTTRANSLIT:;
#GENRE:;
#CREDIT:;
#MUSIC:Destination.ogg;
#BANNER:Destination.png;
#BACKGROUND:Destination-BG.png;
#CDTITLE:;
#SAMPLESTART:77.232;
#SAMPLELENGTH:12.708;
#SELECTABLE:YES;
#OFFSET:-0.117;
#BPMS:0.000=150.000
,159.000=75.000
,160.000=18.750
,162.000=37.500
,165.500=1200.000
,174.500=150.000
;
#STOPS:174.500=0.115;
#BGCHANGES:;
#FGCHANGES:;

//--------------- dance-single - Alex ----------------
#NOTES:
     dance-single:
     Alex:
     Beginner:
     2:
     0,0,0,0,0:
0000
0000
0000
0000
,
0000
0000
0000
0000
,
0000
0000
0000
0000
,
0000
0000
0000
0000
,
0000
0110
0000
0000
,
0000
0010
0000
0000
,
0000
1000
0000
0000
,
0000
0001
0000
0001
,
0000
0001
0000
0000
,
0000
1000
0000
0000
,
0000
0010
0000
0000
,
0000
0200
0000
0000
,
0300
1001
0000
0000
,
0000
0001
0000
0000
,
0000
1000
0000
0000
,
0000
0010
0000
0010
,
0000
0010
0000
0000
,
0000
0010
0000
0000
,
0000
0100
0000
0000
,
0000
0002
0000
0000
,
0003
1001
0000
0000
,
0000
1000
0000
0000
,
0000
0001
0000
0001
,
0000
0001
0000
0000
,
0000
1000
0000
0000
,
0000
0010
0000
0000
,
0000
1000
0000
1000
,
0000
1000
0000
0000
,
0000
1001
0000
0000
,
0000
0010
0000
0000
,
0000
0100
0000
0100
,
0000
0100
0000
0000
,
0000
0001
0000
0000
,
0000
0001
0000
0000
,
0000
1000
0000
1000
,
0000
2000
0000
0000
,
3000
1001
0000
0000
,
0000
0110
0000
0000
,
0000
1001
0000
0000
,
0000
0110
0000
0000
,
0000
0000
0000
0000
,
0000
0000
0000
0000
,
0000
0000
0000
0000
,
0000
0000
0000
1001
,
0000
0000
0000
0001
,
0000
0000
0000
1000
,
0000
1000
0000
1000
,
0000
0000
0000
0010
,
0000
0000
0000
1000
,
0000
0000
0000
0100
,
0000
0100
0000
0200
,
0000
0000
0300
1001
,
0000
0000
0000
0010
,
0000
0000
0000
0001
,
0000
0001
0000
0001
,
0000
0000
0000
1000
,
0000
0000
0000
0010
,
0000
0000
0000
1000
,
0000
1000
0000
2000
,
0000
0000
3000
1001
,
0000
0000
0000
0001
,
0000
0000
0000
1000
,
0000
0000
0000
0100
,
0000
0000
0000
0100
,
0000
0000
0000
1000
,
0000
0000
0000
0010
,
0000
0000
0000
0010
,
0000
0010
0000
0010
;

//--------------- dance-single - Alex ----------------
#NOTES:
     dance-single:
     Alex:
     Easy:
     4:
     0,0,0,0,0:
0000
0000
0000
0000
,
0000
0000
0000
0000
,
0000
0000
0000
0000
,
0000
0220
0000
0000
,
0330
1001
0000
0001
,
0000
1000
0000
0001
,
0100
0001
0000
1000
,
0000
0100
0000
1000
,
0010
1000
0000
0010
,
0000
1000
0000
0001
,
1000
0001
0000
0100
,
0000
0010
0100
0010
,
0100
0010
0000
1000
,
0000
0001
0000
1000
,
0100
1000
0000
0001
,
0000
0100
0000
0010
,
0100
0010
0000
1000
,
0000
0001
0000
0010
,
0001
0010
0000
0001
,
0000
2002
0000
0000
,
3003
0001
1000
0001
,
0000
1000
0010
1000
,
0000
0001
0100
0001
,
0000
0110
0000
0110
,
0000
0010
0100
0001
,
0000
1000
0100
0010
,
0000
0001
1000
0001
,
1000
0020
0000
0000
,
0030
1000
0001
1000
,
0000
0001
0100
0001
,
0000
1000
0100
1000
,
0000
1001
0000
1001
,
0000
0001
0100
0001
,
0000
0100
0010
0100
,
0000
0010
1000
0010
,
0000
1001
0000
1001
,
0000
0001
0000
1000
,
0000
0001
1000
0001
,
0000
1000
0000
0001
,
0000
1000
0001
0200
,
0300
0000
0000
0000
,
0000
0000
0000
0000
,
0000
0000
0000
0000
,
0000
0000
0000
0001
,
1000
0001
0000
1000
,
0010
1000
0000
0001
,
0100
0001
0000
0101
,
0000
0101
0000
0100
,
0010
0100
0000
0001
,
1000
0001
0000
1000
,
0010
1000
0010
0200
,
0000
0000
0300
0001
,
0010
0001
0000
1000
,
0100
1000
0000
0010
,
0100
0010
0000
1001
,
0000
0110
0000
0010
,
0100
0001
0000
1000
,
0100
0010
0000
0001
,
1000
0001
1000
0020
,
0000
0000
0030
1001
,
0000
0110
0000
0010
,
1000
0100
0000
1100
,
0000
1100
0000
0001
,
0100
0001
0000
0110
,
0000
0110
0000
0001
,
1000
0001
0000
1010
,
0000
1010
0000
0010
,
0010
0100
0100
0020
,
0000
0000
0000
0030
;

//--------------- dance-single - Alex ----------------
#NOTES:
     dance-single:
     Alex:
     Medium:
     5:
     0,0,0,0,0:
0000
0000
0000
0000
,
0000
0000
0000
0000
,
0000
0000
0000
0000
,
0000
0220
0000
0000
,
0330
1001
0001
1000
,
0010
0100
0001
0010
,
0001
1000
1000
0001
,
0100
0010
0100
0001
,
0000
1000
0100
0010
,
0100
1000
0001
1000
,
0010
0010
1000
0001
,
0010
0011
0000
1001
,
0000
0001
0100
1000
,
0100
0001
0100
1000
,
1000
0010
0001
0010
,
1000
0010
0001
1000
,
0000
0001
0001
0100
,
0100
0010
1000
0100
,
0010
0001
1000
0010
,
0100
2002
0000
0000
,
3003
0110
0010
1000
,
0100
1100
1100
0011
,
0011
0001
0100
0010
,
0100
0000
0001
0100
0001
0000
1000
0100
,
1000
0001
0100
0010
,
1000
1010
1010
0101
,
0101
0001
0010
0100
,
1000
2002
0000
0000
,
3003
0110
0010
0100
,
0001
1001
1001
0110
,
0110
1010
1010
0101
,
0101
0000
0001
1000
0001
0000
1000
0001
,
1000
0001
0100
0010
,
1000
1100
1100
0011
,
0011
0001
0100
0010
,
0100
1001
1001
1001
,
1001
0002
1003
2000
,
3010
0000
0020
0000
0130
0000
0100
0001
,
0100
0002
0013
2000
,
3010
0002
0103
1001
,
0000
0000
0000
0000
,
0000
0000
0000
0000
,
0000
0000
0000
0000
,
0000
0000
0000
1001
,
0001
0100
0010
1010
,
1010
0101
0101
0001
,
0100
0000
0010
0000
0100
0000
0001
0100
,
0001
0000
1000
0100
1000
0000
0010
0000
,
1000
0001
0100
0101
,
0101
0110
0110
0010
,
1000
0001
0100
0220
,
0000
0000
0330
1001
,
0001
0100
0010
1010
,
1010
1100
1100
0011
,
0011
0000
0110
0000
0110
0000
1000
0010
,
1000
0000
0001
0100
0001
0000
1000
0000
,
0001
0100
0010
0110
,
0110
1001
1001
0001
,
1000
0010
0100
0101
,
0101
0110
0110
0010
,
1000
0010
0010
1000
,
1000
0000
0001
0100
0001
0000
1000
0000
,
0100
0010
0100
1000
,
0010
0000
0100
0010
0100
0000
0001
0000
,
1000
0010
1000
0001
,
0001
0000
0010
0001
0010
0000
0001
0000
,
0100
0010
0100
1001
,
0011
1001
1100
2002
,
0000
0000
0000
3003
;

//--------------- dance-single - Alex ----------------
#NOTES:
     dance-single:
     Alex:
     Hard:
     9:
     0,0,0,0,0:
0000
0000
0000
0000
,
0000
0000
0000
0000
,
0000
0000
0000
0000
,
0000
2002
0000
0000
,
3003
0000
1001
0000
0110
0000
0010
0100
,
0001
0000
1000
0100
0010
0000
0001
0100
,
0010
0100
0101
0000
1010
0000
0010
1000
,
0100
0000
1000
0010
1000
0001
1000
0010
,
1000
0000
1001
0000
0110
0000
0010
1000
,
0100
0000
1000
0001
0100
0000
0001
0010
,
0100
1000
1001
0000
0110
0000
0010
1000
,
0001
0000
0010
0001
0100
0010
0100
0001
,
1000
0100
1100
0000
0011
0000
1100
0000
,
0011
0000
0001
0100
0010
1000
0100
0010
,
0001
1000
1001
0000
0110
0000
1001
0000
,
0110
0000
0010
0010
1000
1000
0001
0010
,
0001
0100
0101
0000
0110
0000
1010
0000
,
1100
0000
1000
0100
0010
0100
1000
0001
,
0100
0010
0110
0000
0101
0000
0011
0000
,
1010
2002
0000
0000
,
3003
0000
0001
1000
0010
1000
0001
0100
,
0001
0000
0010
0000
0100
0000
0000
0100
1000
0000
0000
1000
0010
0000
0000
0010
,
0100
0000
0000
0100
0001
0000
0010
0000
0001
0000
0200
0000
0300
0000
0010
0000
,
1000
0000
0001
0000
0010
0001
0010
0001
0020
0000
0030
0000
0001
1000
0001
1000
,
0002
0003
1000
0010
1000
0001
1000
0100
,
0010
0000
0001
0000
0100
0000
0000
0010
0100
0000
0000
0100
0001
0000
0000
0001
,
1000
0000
0000
1000
0010
0000
1000
0000
0001
0000
0200
0000
0300
0000
0001
0000
,
1000
0010
0220
0000
0000
0000
0000
0000
,
0330
0000
0010
1000
0100
0010
0001
0100
,
0010
0000
0100
0000
0001
0000
0000
0001
0100
0000
0000
0100
0010
0000
0000
0010
,
1000
0000
0000
1000
0100
0000
0000
1000
0010
0000
0000
0010
0100
0000
0000
0100
,
0001
0000
0000
0001
0010
0000
0001
0000
0100
0000
0010
0000
0100
0000
0001
0000
,
2000
3000
0001
1000
0010
1000
0001
0010
,
0001
0000
0100
0000
0010
0000
0000
0010
1000
0000
0000
1000
0001
0000
0000
0001
,
0100
0000
0000
0100
0010
0000
1000
0000
0001
0000
0200
0000
0300
0000
0001
0000
,
1000
0100
1100
0000
0011
0000
1100
0000
,
0011
0000
0001
0100
0020
0030
1000
0001
,
0200
0300
0001
0010
0002
0003
1000
0010
,
1000
0001
1000
0100
2000
3000
0001
0100
,
0002
0003
1000
0010
0200
0300
1001
0000
,
0000
0000
0000
0000
0000
0000
0000
0000
1000
0001
0100
0010
1000
0001
0010
0100
,
1000
0001
0100
0010
1000
0001
1001
0000
0000
0000
0000
0000
0000
0000
0000
0000
,
0000
0000
0000
0000
,
0000
0000
0000
0000
0000
0000
0001
1000
,
0010
0000
0100
0000
0001
0000
0010
0000
0001
0000
1000
0000
0010
0000
0000
1000
,
0010
0000
0000
0010
0100
0000
0000
0100
0001
0000
0000
0001
0010
0000
0001
0000
,
0100
0000
0020
0000
0030
0000
1000
0000
0001
0000
0100
0000
0001
1000
0001
1000
,
0002
0000
0003
0000
1000
0100
1000
0100
2000
0000
3000
0000
0010
0000
1000
0000
,
0010
0000
0100
0000
0001
0000
0010
0000
0001
0000
1000
0000
0001
0000
0000
0001
,
1000
0000
0000
1000
0010
0000
0000
0010
0100
0000
0000
0100
0001
0000
0010
0000
,
0001
0200
0300
0010
1000
0001
2002
0000
,
0000
0000
0000
0000
3003
0000
0001
1000
,
0100
0000
1000
0000
0001
0000
0100
0000
0001
0000
0010
0000
0100
0000
0000
1000
,
0010
0000
0000
0010
0100
0000
0000
0100
0001
0000
0000
1000
0001
0000
0000
0001
,
0100
0000
0000
1000
0010
0000
0000
0010
0001
0000
0000
0001
0100
0000
1000
0000
,
0100
0001
0010
1000
0020
0030
0001
0100
,
0001
0000
0010
0000
0100
0000
1000
0000
0001
0000
0100
0000
0010
0000
0000
0010
,
1000
0000
0000
1000
0100
0000
0000
0100
0001
0000
0000
0001
0100
0000
1000
0000
,
0010
0200
0300
0001
1000
0010
1010
0000
,
0101
0000
1010
0000
0101
0000
0001
0010
,
0011
0000
0001
1000
1001
0000
0001
0100
,
0101
0000
0001
1000
0010
1000
0001
1000
,
1100
0000
1000
0010
1010
0000
0010
0100
,
0110
0000
0100
0001
0010
0100
1000
0001
,
0101
0000
0001
1000
1001
0000
1000
0010
,
1010
0000
0010
0100
0001
0010
0001
1000
,
1010
0000
0010
0100
0101
0000
0001
0010
,
0100
1000
0001
0100
0010
0100
2002
0000
,
0000
0000
0000
3003
;

//--------------- dance-single - Alex ----------------
#NOTES:
     dance-single:
     Alex:
     Challenge:
     12:
     0,0,0,0,0:
0000
0000
0000
0000
,
0000
0000
0000
0000
,
0000
0000
0000
0000
,
0000
2002
0000
0000
,
3003
0000
0001
1000
0010
0100
0001
0010
,
0100
0000
1000
0100
1000
0000
0001
0000
0100
0000
0010
0100
0001
0000
0010
0000
,
0001
0000
1000
0010
0100
0000
0001
0000
0010
0000
0100
0000
0010
0000
0001
0000
,
0100
0000
0010
0100
0001
0000
1000
0000
0001
0000
0100
0010
0100
0001
0010
0100
,
1000
0001
1001
0001
0100
0010
1000
0100
,
0010
0000
0001
1000
0010
0000
0100
0000
0001
0000
1000
0001
0100
0000
0001
0000
,
0010
0000
0001
0100
0010
0000
0100
0000
0001
0000
0010
0000
0100
0000
1000
0000
,
0001
0000
0100
0000
0010
1000
0100
0010
0001
0100
0010
0100
0001
0010
0100
1000
,
0001
1000
0001
0100
0001
0000
0100
0010
0100
0000
0001
0000
1000
0000
0100
1000
,
0100
0000
1000
0000
0010
0000
0100
0001
0100
0000
0001
1000
0001
0000
1000
0010
,
1000
0000
0010
0000
1001
0000
0001
0100
0001
0000
0100
0000
0010
0000
1000
0100
,
0010
0000
0001
0000
0100
0000
0010
0100
0001
0000
0010
0001
0010
0000
0001
1000
,
0010
0000
0100
0000
1001
0000
0001
1000
0001
0000
1000
0000
0100
0000
1000
0100
,
1000
0000
0010
0000
0100
0000
0001
0010
0001
0000
0100
0001
0100
0000
0010
0100
,
0010
0000
1000
0000
1001
0000
0001
0100
0010
0000
1000
0000
0010
0000
0100
0001
,
1000
0000
0001
0000
1000
0001
1000
0001
1000
0001
1000
0001
0100
0010
0100
0010
,
0200
0000
0300
0000
0010
1000
0010
0100
0001
0010
0100
1000
0001
0100
0010
0100
,
0010
1000
0001
0010
0200
0300
1000
0010
0200
0300
0001
1000
0020
0030
1000
0001
,
0020
0030
0001
0100
0010
0100
0001
0010
0100
0000
2000
0000
0000
0000
0010
0000
,
0001
0000
3100
0000
0001
1000
0010
0100
0002
0000
0000
0003
1000
0100
0010
0001
,
0200
0000
0000
0300
0010
0100
0001
0010
0001
0100
0010
0100
0001
0010
0100
1000
,
0010
0100
0001
1000
0020
0030
1000
0001
0200
0300
0001
0010
0002
0003
1000
0010
,
2000
3000
0100
0010
0001
0100
0010
0100
0002
0003
0200
0000
0000
0000
0010
0000
,
0001
0000
0010
0300
0001
1000
0010
0100
0001
0010
0100
1000
0001
0100
0010
2000
,
0020
0000
3030
0000
0100
0001
0100
0001
0010
0100
1000
0001
0100
0010
0100
0001
,
0010
0100
1000
0001
0200
0300
0001
1000
0020
0030
1000
0100
0020
0030
0001
0100
,
0002
0003
0010
0001
0020
0030
0001
1000
0020
0030
0100
0001
2000
3000
0100
0010
,
0002
0003
0100
0010
0100
0001
0010
0100
1000
0010
1000
0100
0010
0001
0100
0010
,
0200
0000
0000
0300
0001
0010
0100
1000
0001
1000
0010
1000
0100
0010
0100
1000
,
0001
0100
0010
0100
0002
0003
1000
0010
2000
3000
0001
0010
0002
0003
0100
0001
,
0200
0300
0010
1000
0100
0010
0001
0100
0020
0030
0200
0000
0000
0000
0001
0000
,
0010
1300
1001
M00M
0110
0MM0
1100
MM00
,
0011
0000
00MM
0000
0001
0000
0100
0000
0110
0000
0000
0100
0001
0000
1000
0000
,
1001
0000
0000
0000
0001
0000
1000
0000
1010
0000
0000
0000
0010
1000
0001
0100
,
0010
0100
0001
0000
1000
0000
0100
0000
1100
0000
0000
0100
1000
0000
0010
0000
,
1010
0000
0010
0100
0101
0000
1111
MMMM
,
0000
0000
0000
0000
0000
0000
0000
0000
0000
0000
0000
0000
0000
0000
0000
0000
2000
0010
0001
3100
0002
0100
0010
0103
0020
1000
0100
1030
2000
0001
0100
3001
,
0002
0010
0100
0013
0200
0010
0001
0310
2000
0100
0001
3100
1001
0000
0000
0000
0000
0000
0000
0000
0000
0000
0000
0000
0000
0000
0000
0000
0000
0000
0000
0000
,
0000
0000
0000
0000
,
0000
0000
0000
0000
0000
0000
0000
0000
0000
0000
MMMM
0000
0001
1000
0010
0100
,
0001
0010
0100
1000
0001
1000
0010
1000
0001
0100
0001
0010
0200
0300
1000
0010
,
2000
3000
0001
0100
0002
0003
0010
0001
0200
0300
0010
1000
0100
0010
0001
0100
,
0020
0030
2000
0000
0000
0000
0010
0000
0001
0000
3010
0000
0010
1000
0100
0010
,
0002
0000
0000
0003
0100
0010
0100
0001
0020
0000
0000
0030
0001
1000
0010
0100
,
0001
0010
0100
0010
0001
0100
0010
0100
0001
1000
0010
1000
0002
0003
1000
0100
,
2000
3000
0010
0100
0020
0030
0100
0001
0200
0300
0001
0010
0100
1000
0001
0100
,
0020
0030
2000
0000
0000
0000
0001
0000
0100
0000
3001
0000
1000
0001
1000
0001
,
0100
0001
0100
0010
0100
0010
1000
0100
0020
0000
0000
0030
0001
0100
0010
0100
,
0001
0010
0100
1000
0001
0100
0010
1000
0100
0010
0001
1000
0002
0003
0100
0010
,
2000
3000
0001
0010
0200
0300
1000
0010
2000
3000
0001
0100
0002
0003
0100
0010
,
0200
0300
0010
1000
0020
0030
1000
0100
2000
3000
0001
0100
0001
0010
0001
0100
,
0010
0100
0001
0010
0100
1000
0010
0100
0002
0000
0000
0003
1000
0100
0010
0100
,
1000
0001
1000
0010
1000
0001
0010
0001
0100
0010
0100
0001
2000
3000
0001
0100
,
0002
0003
0010
0001
0200
0300
0010
1000
0200
0300
0010
0001
0100
0010
0100
0001
,
0020
0030
0002
0000
0000
0000
0100
0000
0010
0000
0103
0000
1001
0000
M00M
0000
,
0110
0MM0
1001
M00M
0110
0MM0
0010
1000
,
1001
0000
0000
0001
0100
0000
0001
0000
0101
0000
0000
0000
0100
0000
0010
0000
,
0110
0000
0000
0000
0010
1000
0100
0010
0001
1000
0010
0000
1000
0000
0001
0000
,
1001
0000
0000
0001
0100
0000
0010
0000
1010
0000
0000
0000
1000
0000
0100
0000
,
1100
0000
0000
0000
0100
1000
0010
0100
0001
0010
0100
0000
1000
0000
0001
0000
,
1001
0000
0000
0001
0100
0000
0001
0000
0101
0000
0000
0000
0100
0000
0010
0000
,
0110
0000
0000
0000
0010
1000
0100
0010
0001
1000
0010
0000
0100
0000
0001
0000
,
0101
0000
0000
0001
1000
0000
0001
0000
0101
0000
0000
0000
0100
0010
0100
0001
,
0010
0100
1000
0001
0100
0010
1000
0100
0010
0001
0100
0010
0220
0000
0000
0000
,
0000
0000
0000
0330
;
