#TITLE:Deja Vu;
#SUBTITLE:;
#ARTIST:Som2;
#TITLETRANSLIT:;
#SUBTITLETRANSLIT:;
#ARTISTTRANSLIT:;
#GENRE:;
#CREDIT:;
#MUSIC:Deja Vu.ogg;
#BANNER:Deja Vu.png;
#BACKGROUND:Deja Vu-BG.png;
#CDTITLE:;
#SAMPLESTART:66.260;
#SAMPLELENGTH:16.228;
#SELECTABLE:YES;
#OFFSET:-0.325;
#BPMS:0.000=115.000;
#STOPS:;
#BGCHANGES:;
#FGCHANGES:;

//--------------- dance-single - Alex ----------------
#NOTES:
     dance-single:
     Alex:
     Beginner:
     1:
     0,0,0,0,0:
0000
0000
0000
0000
,
0000
0000
0000
0000
,
0000
0000
0000
0000
,
0000
0000
0000
0000
,
0010
0000
0000
0000
,
0010
0000
0000
0000
,
1000
0000
0000
0000
,
0001
0000
0000
0000
,
1001
0000
0000
0000
,
0010
0000
0000
0000
,
1000
0000
0000
0000
,
0100
0000
0000
0000
,
0100
0000
0000
0000
,
1000
0000
0000
0000
,
0001
0000
0000
0000
,
1000
0000
0000
0000
,
1001
0000
0000
0000
,
1000
0000
0000
0000
,
1000
0000
0000
0000
,
0001
0000
0000
0000
,
0001
0000
0000
0000
,
0100
0000
0000
0000
,
0010
0000
0000
0000
,
0010
0000
0000
0000
,
1001
0000
0000
0000
,
0001
0000
0000
0000
,
0001
0000
0000
0000
,
0100
0000
0000
0000
,
1000
0000
0000
0000
,
0010
0000
0000
0000
,
0010
0000
0000
0000
,
1001
0000
0000
0000
,
0001
0000
0001
0000
,
0001
0000
0000
0000
,
1000
0000
1000
0000
,
1000
0000
0000
0000
,
0010
0000
0010
0000
,
0010
0000
0000
0000
,
0100
0000
0000
0000
,
1001
0000
0000
0000
,
0010
0000
0010
0000
,
0010
0000
0000
0000
,
1000
0000
1000
0000
,
1000
0000
0000
0000
,
0001
0000
0001
0000
,
0001
0000
0000
0000
,
1000
0000
0000
0000
,
0100
0000
0000
0000
,
1001
0000
0000
0000
;

//--------------- dance-single - Alex ----------------
#NOTES:
     dance-single:
     Alex:
     Easy:
     2:
     0,0,0,0,0:
0000
0000
0000
0000
,
0000
0000
0000
0000
,
0000
0000
0000
0000
,
0000
0000
0000
0000
,
1000
0000
0001
0000
,
1000
0000
1000
0000
,
0001
0000
0100
0000
,
0020
0000
0030
0100
,
0100
0000
0000
0001
,
0001
0000
0000
1000
,
1000
0000
0001
0000
,
2000
0000
3000
0000
,
0010
0000
0100
0000
,
0010
0000
0010
0000
,
1000
1000
0001
0001
,
1001
0000
0000
0010
,
0010
0000
0000
1000
,
1000
0000
0000
0001
,
0001
0000
0100
0000
,
0002
0000
0003
0000
,
1000
0000
0001
0000
,
1000
0000
0010
0010
,
0010
0000
0010
0000
,
2002
0000
3003
0000
,
0001
0000
1000
0000
,
0001
0000
0001
0000
,
1000
0000
0010
0000
,
0010
0000
0100
0100
,
0100
0000
0001
0000
,
1000
0000
0001
0000
,
0010
0000
0001
0000
,
2002
0000
3003
0000
,
1000
1000
1000
0000
,
0001
0001
0001
0000
,
0100
0000
0010
0000
,
0200
0000
0300
0000
,
0010
0010
0010
0000
,
1000
1000
1000
0000
,
0001
0000
1000
0000
,
0002
0000
0003
0000
,
0100
0100
0100
0000
,
0001
0001
0001
0000
,
1000
0000
0001
0000
,
0020
0000
0030
0000
,
0001
0001
0001
0000
,
1000
1000
1000
0000
,
0010
0000
0100
0000
,
0020
0000
0030
0000
,
1001
0000
0000
0000
;

//--------------- dance-single - Alex ----------------
#NOTES:
     dance-single:
     Alex:
     Medium:
     5:
     0,0,0,0,0:
0000
0000
0000
0000
,
0000
0000
0000
0000
,
0000
0000
0000
0000
,
0000
0000
0000
0000
,
0001
0010
0100
0010
,
0002
0000
1003
0000
,
1000
0010
0100
0001
,
2002
0000
3003
0000
,
0001
0001
1000
1000
,
0010
0100
0010
0100
,
0001
1000
0100
0010
,
0100
1000
0001
0000
,
0100
0010
0100
0001
,
0010
0100
0010
0001
,
0100
0010
1000
0001
,
0022
0000
0033
0000
,
0001
0001
0100
0100
,
0010
1000
0001
1000
,
0100
0010
0100
1000
,
1000
0001
0100
0000
,
0001
0001
1000
0010
,
1000
0000
0001
0000
1000
0000
0001
0100
,
0001
0010
0100
1000
,
2020
0000
3030
1000
,
1001
0000
0001
0000
0100
0000
0010
0100
,
0010
0000
1000
0000
0001
0000
0010
0001
,
0010
0000
0001
0000
0100
0000
0010
1000
,
0010
0000
1000
0000
0001
0000
1000
0100
,
1000
0000
0001
0000
0100
0000
0010
0100
,
0010
0000
0100
0000
0001
0000
1000
0001
,
1000
0001
0100
0010
,
0220
0000
0330
0000
,
1001
0001
0001
1000
,
1000
0000
0010
0000
1000
0000
0001
0100
,
0010
0100
0001
1000
,
0100
0010
0002
0003
,
1000
0010
1000
0001
,
0001
0000
0100
0000
0010
0000
1000
0010
,
1000
0001
0100
0010
,
0220
0000
0330
0000
,
0100
0100
0001
0001
,
1000
0000
0010
0000
1000
0000
0001
0010
,
0001
0100
0010
0100
,
0001
1000
0200
0300
,
1000
1000
0001
0001
,
1000
0000
0010
0000
1000
0000
0001
0100
,
0001
0010
0100
1000
,
0001
0000
0000
0001
0000
0000
0002
0000
0000
0000
0000
0000
0003
0000
0000
0000
,
1001
0000
0000
0000
;

//--------------- dance-single - Alex ----------------
#NOTES:
     dance-single:
     Alex:
     Hard:
     8:
     0,0,0,0,0:
0000
0000
0000
0000
,
0000
0000
0000
0000
,
0000
0000
0000
0000
,
0000
0000
0000
0000
,
1001
0000
0001
0100
0010
0100
0001
1000
,
0020
0030
1000
0001
0100
0001
1000
0100
,
2000
3000
0001
0100
0010
0100
0001
1000
,
2002
0000
0000
0000
3003
0001
1000
0020
,
0030
0100
0001
0100
0001
0010
0100
2000
,
3000
0001
1000
0010
1000
0001
0010
0002
,
0003
0000
0100
0000
0010
0000
0100
0000
0001
0000
0000
1000
0000
0000
0001
0000
,
1000
0001
0100
0020
0030
0100
0001
2000
,
3000
0000
0001
0000
0010
0000
0100
0000
1000
0000
0000
0001
0000
0000
0100
0000
,
0010
0000
0000
0100
0000
0000
2002
0000
0000
0000
0000
0000
3003
0000
0000
0000
,
0000
0000
0001
0000
1000
0000
0010
0000
1000
0000
0001
0100
0000
0100
0001
0000
,
0020
0000
0000
0000
0030
0001
0100
0020
,
0030
1000
0001
0100
0001
1000
0100
2000
,
3000
0001
0100
0010
0100
0001
1000
0020
,
0030
0000
1000
0000
0001
0000
0010
0001
0000
0000
1000
0000
0000
0000
0001
0000
,
0100
0000
0000
0001
0000
0000
2000
0000
0000
0000
3010
0000
0100
0000
0002
0000
,
0003
0000
1000
0000
0100
0000
0010
0001
0000
0000
0100
0000
0001
0000
0100
0000
,
0010
0000
0000
1000
0000
0000
0001
0000
0200
0000
0000
0000
0320
0000
0000
0000
,
2030
0000
0000
0000
3001
0000
0010
0000
0001
0000
0100
0010
0000
0000
0100
0000
,
2002
0000
3003
0011
,
1001
0000
0000
0000
0010
0000
0100
0000
0001
0000
0100
0010
0000
0010
0100
0000
,
0002
0003
0011
0110
,
1010
0000
0000
0000
0010
0000
1000
0000
0100
0000
1000
0010
0000
0000
1000
0000
,
0001
0000
0000
0100
0000
0000
0001
0000
1000
0000
0010
0000
0100
0000
0001
0000
,
0020
0000
0000
0000
0031
0000
0000
0000
0001
0000
1000
0010
0000
0010
1000
0000
,
0000
1001
0000
0101
0000
0010
0100
0001
,
1000
0000
0000
0001
0000
0000
0100
0000
0010
0000
0100
0000
0001
0000
1000
0000
,
2020
0000
0000
0000
3030
1000
0001
0100
,
0000
0100
0001
1000
0000
0010
1000
0001
,
0000
0010
0001
1000
0000
0010
0100
0001
,
0100
0000
0000
0000
0001
0000
1000
0000
0100
0000
1000
0100
0000
0000
1000
0000
,
0010
0000
1000
0010
0000
0010
1000
0000
1000
0000
0001
0000
0100
0000
0001
0000
,
0000
0010
0001
0100
0000
0010
1000
0001
,
0000
1000
0001
0100
0000
0001
1000
0100
,
1000
0000
0001
0100
0000
0100
0001
0000
1000
0000
0000
0001
0000
0000
0202
0000
,
0000
0000
0303
0000
0000
0010
0100
0001
,
0000
1000
0010
1000
0000
0001
0010
0001
,
0000
1000
0100
0010
0000
0001
1000
0010
,
1000
0000
0000
0000
0001
0000
0010
0000
0001
0000
0000
0100
0000
0000
0010
0000
,
1000
0000
0001
1000
0000
1000
0001
0000
0100
0000
0001
0000
0010
0000
0001
0000
,
0000
0100
0010
0100
0000
0001
1000
0010
,
0000
1000
0001
0100
0000
0001
1000
0100
,
1000
0000
0001
1000
0000
1000
0010
0000
0100
0000
0000
0001
0000
0000
1000
0000
,
1001
0000
0000
0110
0000
0000
2002
0000
0000
0000
0000
0000
3003
0000
0000
0000
,
1001
0000
0000
0000
;
