#TITLE:Dance With Me;
#SUBTITLE:;
#ARTIST:Banya;
#TITLETRANSLIT:;
#SUBTITLETRANSLIT:;
#ARTISTTRANSLIT:;
#GENRE:;
#CREDIT:;
#MUSIC:Dance With Me.ogg;
#BANNER:Dance With Me.png;
#BACKGROUND:Dance With Me-BG.png;
#CDTITLE:;
#SAMPLESTART:39.398;
#SAMPLELENGTH:12.520;
#SELECTABLE:YES;
#OFFSET:-0.115;
#BPMS:0.000=122.000;
#STOPS:;
#BGCHANGES:;
#FGCHANGES:;

//--------------- dance-single - Alex ----------------
#NOTES:
     dance-single:
     Alex:
     Beginner:
     1:
     0,0,0,0,0:
0000
0000
0000
0000
,
0000
0000
0000
0000
,
0000
0000
0000
0000
,
0000
0000
0000
0000
,
0010
0000
0000
0000
,
0100
0000
0000
0000
,
0010
0000
0000
0000
,
1000
0000
0000
0000
,
1000
0000
0000
0000
,
0001
0000
0000
0000
,
0100
0000
0000
0000
,
1001
0000
0000
0000
,
0010
0000
0000
0000
,
1000
0000
0000
0000
,
0001
0000
0000
0000
,
1000
0000
0000
0000
,
0100
0000
0000
0000
,
1000
0000
0000
0000
,
0001
0000
0001
0000
,
0001
0000
0000
0000
,
1001
0000
0000
0000
,
0010
0000
0000
0000
,
1000
0000
0000
0000
,
0100
0000
0000
0000
,
1000
0000
0000
0000
,
1000
0000
0000
0000
,
0001
0000
0001
0000
,
0001
0000
0000
0000
,
0110
0000
0000
0000
,
0100
0000
0000
0000
,
0001
0000
0000
0000
,
1000
0000
0000
0000
,
0010
0000
0000
0000
,
1000
0000
0000
0000
,
0100
0000
0100
0000
,
0100
0000
0000
0000
,
1001
0000
0000
0000
,
1000
0000
0000
0000
,
0010
0000
0000
0000
,
1000
0000
0000
0000
,
0001
0000
0000
0000
,
0100
0000
0000
0000
,
0010
0000
0010
0000
,
0010
0000
0000
0000
,
1000
0000
0000
0000
,
0010
0000
0000
0000
,
1000
0000
0000
0000
,
0100
0000
0000
0000
,
0001
0000
0000
0000
,
0001
0000
0000
0000
,
1000
0000
0000
0000
,
1001
0000
0000
0000
;

//--------------- dance-single - Alex ----------------
#NOTES:
     dance-single:
     Alex:
     Easy:
     2:
     0,0,0,0,0:
0000
0000
0000
0000
,
0000
0000
0000
0000
,
0000
0000
0000
0000
,
0000
0000
0000
0000
,
0001
0000
0001
0000
,
1000
0000
0000
0000
,
0010
0000
0010
0000
,
0100
0000
0000
0000
,
1000
0000
0001
0000
,
1000
0000
0000
0000
,
0001
0000
0100
0000
,
0020
0000
0030
0000
,
1001
0000
0100
0000
,
0100
0000
0100
0000
,
0001
0000
1000
0000
,
0001
1000
0001
0000
,
1000
0000
0001
0000
,
1000
0000
1000
0000
,
0010
0000
0010
0000
,
0110
0110
0000
0000
,
1001
0000
0100
0000
,
0200
0000
0300
0000
,
0001
1000
0001
1000
,
0001
0000
0000
0000
,
1000
0000
1000
0000
,
2000
0000
3000
0000
,
0010
0100
0010
0100
,
0010
0000
0000
0000
,
1001
0000
0010
0000
,
0010
0000
0010
0000
,
1000
0000
0001
0000
,
1000
0100
1000
0000
,
0001
0000
0001
0000
,
0100
0000
0100
0000
,
0001
0000
1000
0000
,
1010
1010
0000
0000
,
1001
0000
1000
0000
,
2000
0000
3000
0000
,
0001
0010
0001
0010
,
0001
0000
0000
0000
,
1000
0000
0001
0000
,
2000
0000
3000
0000
,
0010
0100
0010
0100
,
0110
0000
0110
0000
,
0100
0000
0100
0000
,
0001
0000
0000
0000
,
1000
0000
0001
0000
,
1000
0000
0000
0000
,
0010
0000
0100
0000
,
0010
0000
0000
0000
,
0100
0000
0001
0000
,
0100
0100
0000
1001
;

//--------------- dance-single - Alex ----------------
#NOTES:
     dance-single:
     Alex:
     Medium:
     4:
     0,0,0,0,0:
0000
0000
0000
0000
,
0000
0000
0000
0000
,
0000
0000
0000
0000
,
0000
0000
0000
0000
,
0001
1000
0001
0000
,
1000
0010
1000
0000
,
0001
0010
0100
1000
,
0010
0000
1001
0000
,
0001
0100
0001
0000
,
1000
0100
1000
0000
,
0001
1000
0001
0100
,
0220
0000
0000
0000
0000
0330
0000
0000
,
0000
0100
0010
0100
,
0001
0000
1000
0200
0000
0000
0300
0000
,
0000
1000
0001
0010
,
0001
1000
0010
0010
,
0000
1000
0001
0100
,
0001
0000
0100
0010
0200
0000
0300
0000
,
0000
0001
1000
0100
,
1000
0010
1000
0000
0000
0000
0001
0000
,
1001
0000
1000
0100
,
2000
0000
3010
0000
,
0010
1000
0001
0010
,
0002
0000
0003
0000
,
1001
0000
0001
1000
,
0200
0000
1300
0000
,
1000
1000
0001
1000
,
2020
0000
0000
0000
0000
3030
0000
0000
,
0010
1000
0001
0100
,
0001
0000
1000
0100
2000
0000
0000
3000
,
0000
0001
1000
0001
,
0010
0001
0101
0000
,
0000
0100
0010
0100
,
0001
0000
1000
0100
2000
0000
0000
3000
,
0000
0001
1000
0010
,
1000
0000
2002
0000
0000
3003
0000
0000
,
1001
0000
0001
0010
,
0002
0000
0103
0000
,
0100
0010
0100
0001
,
2000
0000
3000
0000
,
1001
0000
0001
1000
,
0020
0000
0130
0000
,
0001
1000
0100
1000
,
0001
1000
0001
1000
0002
0000
0003
0000
,
1000
0010
1000
0000
,
0001
0010
0001
0000
,
1000
0100
0010
0001
,
1000
0000
1001
0000
,
0001
0010
0001
0000
,
0100
0010
0100
0000
,
0001
1000
0100
1000
,
0001
0000
1000
0000
0000
0010
0200
0000
,
0300
0000
0000
0000
;

//--------------- dance-single - Alex ----------------
#NOTES:
     dance-single:
     Alex:
     Hard:
     7:
     0,0,0,0,0:
0000
0000
0000
0000
,
0000
0000
0000
0000
,
0000
0001
1000
0010
1000
0001
0100
0001
,
1000
0100
0020
0000
0000
0030
0000
0000
,
1001
0000
0000
0000
0000
0000
0010
0000
1000
0000
0001
0100
0000
0000
0000
0000
,
0001
0010
0100
1000
0002
0000
0003
0000
,
1000
0000
0001
1000
0010
0200
0000
0300
,
0010
1000
0001
0010
0001
1000
0000
0000
,
1001
0000
0000
0000
0000
0000
0001
0000
1000
0000
0010
1000
0000
0000
0000
0000
,
0001
1000
0100
0010
0200
0000
0000
0300
,
1000
0000
0001
1000
0010
0100
0000
0000
,
2002
0000
3003
0000
,
1001
0000
0001
0100
0010
0100
0001
1000
,
0100
0000
0100
0020
0000
0000
0030
0000
,
0000
0001
0100
0010
0100
0002
0000
0003
,
0000
1000
0100
0010
0001
1000
0020
0000
,
0030
1000
0001
1000
0010
0000
0000
0110
,
0000
0000
0100
0000
0001
0000
1000
0000
0100
0000
0000
0020
0000
0000
0031
0000
,
0000
0000
0001
0100
0001
0000
1000
0010
,
0100
0001
1001
0000
0000
0001
1000
0010
,
0100
0000
0001
0010
0100
0000
1000
0010
,
0000
0010
2000
0000
3000
0000
0001
0100
,
0000
0100
0001
0010
0100
0010
0001
2000
,
3000
0020
0000
0030
0000
0100
0001
1000
,
0100
0000
1100
0000
1000
0000
0010
1000
,
0000
0002
0000
0003
0000
0000
1000
0100
,
0000
0100
1000
0010
0100
0001
0010
0100
,
0000
0000
1000
0001
2000
0000
0000
0000
0000
0000
3000
0000
0000
0000
0000
0000
,
1001
0000
0001
1000
0010
0000
0010
1000
,
0100
0000
0000
0000
0010
0000
0001
0000
0100
0000
0000
0020
0000
0000
0000
0030
,
0000
0100
0100
0001
1000
0100
1000
0010
,
0000
0010
1000
0001
0000
0001
2000
0000
,
3000
0000
0001
0000
1000
0000
0010
0000
1000
0000
0000
0001
0000
0000
0100
0000
,
0010
0000
0100
0000
0001
0000
0010
0000
0100
0000
0000
2000
0000
0000
3010
0000
,
0000
0000
1000
0001
0100
0100
0001
1000
,
0100
1000
0002
0000
0000
0003
1000
0010
,
1000
0000
0001
0100
0001
0000
0010
0100
,
0000
0100
0020
0000
0000
0030
0000
1001
,
0000
0001
1000
0010
1000
0001
0010
0002
,
0003
2000
0000
0000
3000
0001
1000
0010
,
0100
0000
0001
0100
0001
0000
0010
0001
,
0000
0001
2000
0000
3000
0000
0000
1001
,
0000
0001
1000
0100
1000
0001
1000
0000
,
0010
1000
0001
1000
2002
0000
3003
0000
,
0001
0000
0000
0000
1000
0000
0100
0000
1000
0000
0010
0200
0000
0000
0300
0000
,
0001
0010
0100
1000
0020
0000
0030
0000
,
0000
0000
1000
0001
0100
0001
0000
0001
,
1000
0010
1000
0001
0010
0001
0000
0000
,
1001
0000
0000
0000
0000
0000
0001
0000
1000
0000
0001
0200
0000
0000
0300
0000
,
0001
0010
0001
1000
0200
0000
0000
0300
,
0000
0000
1000
0010
1000
0001
0000
0100
,
0110
0000
1001
0000
0000
0110
0110
0000
;
