#TITLE:D Gang;
#SUBTITLE:;
#ARTIST:Banya;
#TITLETRANSLIT:;
#SUBTITLETRANSLIT:;
#ARTISTTRANSLIT:;
#GENRE:;
#CREDIT:;
#MUSIC:D Gang.ogg;
#BANNER:D Gang.png;
#BACKGROUND:D Gang-BG.png;
#CDTITLE:;
#SAMPLESTART:44.878;
#SAMPLELENGTH:12.217;
#SELECTABLE:YES;
#OFFSET:-0.128;
#BPMS:0.000=150.000;
#STOPS:;
#BGCHANGES:;
#FGCHANGES:;

//--------------- dance-single - Alex ----------------
#NOTES:
     dance-single:
     Alex:
     Beginner:
     1:
     0,0,0,0,0:
0000
0000
0000
0000
,
0000
0000
0000
0000
,
0000
0000
0000
0000
,
0000
0000
0000
0000
,
1000
0000
0000
0000
,
0010
0000
0000
0000
,
1000
0000
0000
0000
,
0001
0000
0000
0000
,
0001
0000
0000
0000
,
0100
0000
0000
0000
,
0100
0000
0000
0000
,
0001
0000
0000
0000
,
0010
0000
0000
0000
,
1000
0000
0000
0000
,
1000
0000
0000
0000
,
0100
0000
0000
0000
,
0200
0000
0300
0000
,
0010
0000
0000
0000
,
0200
0000
0300
0000
,
0010
0000
0000
0000
,
1001
0000
0000
0000
,
0001
0000
0000
0000
,
0001
0000
0000
0000
,
1000
0000
0000
0000
,
1000
0000
0000
0000
,
0010
0000
0000
0000
,
0200
0000
0000
0000
,
0300
0000
0000
0000
,
0001
0000
0000
0000
,
0001
0000
0000
0000
,
1000
0000
0000
0000
,
0010
0000
0000
0000
,
1000
0000
0000
0000
,
1000
0000
0000
0000
,
0010
0000
0000
0000
,
1000
0000
0000
0000
,
0001
0000
0000
0000
,
1000
0000
0000
0000
,
0100
0000
0000
0000
,
0100
0000
0000
0000
,
0002
0000
0003
0000
,
1000
0000
1000
0000
,
1000
0000
0000
0000
,
0001
0000
0001
0000
,
0001
0000
0000
0000
,
0100
0000
0100
0000
,
0100
0000
0000
0000
,
0010
0000
0010
0000
,
0010
0000
0000
0000
,
1000
0000
1000
0000
,
1000
0000
0000
0000
,
0010
0000
0010
0000
,
0010
0000
0000
0000
,
1001
0000
0000
0000
,
1001
0000
0000
0000
,
0220
0000
0000
0000
,
0000
0000
0000
0000
,
0330
0000
0000
0000
;

//--------------- dance-single - Alex ----------------
#NOTES:
     dance-single:
     Alex:
     Easy:
     3:
     0,0,0,0,0:
0000
0000
0000
0000
,
0000
0000
0000
0000
,
0000
0000
0000
0000
,
0000
0000
0000
0000
,
0100
0000
0010
0000
,
0100
0000
0000
0000
,
0010
0000
1000
0000
,
0010
0000
0000
0000
,
1000
0000
0001
0000
,
1000
0000
0000
0000
,
0001
0000
0100
0000
,
0001
0000
0000
0000
,
0100
0000
0010
0000
,
0100
0000
0000
0000
,
0001
0000
1000
0000
,
0001
0000
1000
0000
,
1001
0000
1001
0000
,
0220
0000
0330
0000
,
0110
0000
0110
0000
,
2002
0000
3003
0000
,
0001
0001
0001
0000
,
1000
0000
0001
0000
,
1000
1000
1000
0000
,
0010
0000
1000
0000
,
0200
0000
0300
0000
,
2000
0000
3000
0000
,
0001
0000
1000
0000
,
2002
0000
3003
0000
,
0001
0000
1000
0000
,
0001
0000
0000
0000
,
1000
0000
0010
0000
,
1000
0000
0000
0000
,
0001
0000
0100
0000
,
0001
0000
0000
0000
,
0010
0000
0100
0000
,
0010
0000
0000
0000
,
0001
0000
1000
0000
,
0001
0000
0000
0000
,
1000
0000
0100
0000
,
1000
0000
0001
0000
,
2002
0000
3003
0000
,
0001
0001
0001
0000
,
2002
0000
3003
0000
,
0010
0010
0010
0000
,
0220
0000
0330
0000
,
0100
0100
0100
0000
,
0220
0000
0330
0000
,
0001
0001
0001
0000
,
2002
0000
3003
0000
,
1000
1000
1000
0000
,
2020
0000
3030
0000
,
0010
0010
0010
0000
,
2002
0000
3003
0000
,
0001
1000
0001
0000
,
1000
0001
1000
0000
,
2002
0000
0000
3003
,
0001
0000
0001
0000
0000
1000
0000
0000
,
0001
0000
0000
0000
;

//--------------- dance-single - Alex ----------------
#NOTES:
     dance-single:
     Alex:
     Medium:
     6:
     0,0,0,0,0:
0000
0000
0000
0000
,
0000
0000
0000
0000
,
0000
0000
0000
0000
,
0000
0000
0000
0000
,
0001
0100
0010
1000
,
0100
0000
0010
0100
0000
0000
0000
0000
,
1000
0001
0100
0010
,
0100
0000
0001
1000
0000
0000
0000
0000
,
0001
1000
0100
1000
,
0001
0000
1000
0010
0000
0000
0000
0000
,
1000
0001
0010
0001
,
1000
0000
0010
0100
0000
0000
0000
0000
,
0001
0010
0100
1000
,
0001
0000
0100
0001
0000
0000
0000
0000
,
1000
0010
1000
0001
,
1000
0100
1000
0000
0001
0100
0001
0000
,
1001
0000
0000
1001
0000
0000
0000
0000
,
0010
0100
0001
1000
,
1100
0000
0000
1100
0000
0000
0000
0000
,
1000
1000
0010
0010
,
0110
0100
0001
1000
,
0100
0010
0100
0000
,
1000
0001
0100
0010
,
0100
0001
1000
0000
,
0002
0000
0103
0000
,
0200
0000
0310
0000
,
2000
0000
3010
0000
,
2002
0000
0000
3003
,
0001
0001
1000
1000
,
0010
0000
0100
0010
0000
0000
0000
0000
,
0100
0001
0010
0100
,
1000
0000
0001
1000
0000
0000
0000
0000
,
0001
1000
0010
1000
,
0001
0000
0100
0001
0000
0000
0000
0000
,
0100
0010
0100
0001
,
1000
0000
0100
1000
0000
0000
0000
0000
,
0001
1000
0010
1000
,
0001
0000
0010
0001
0000
0000
0000
0000
,
0100
0010
0100
0001
,
1000
0100
1000
0000
0001
0100
0001
0000
,
2002
0000
3003
0000
,
0001
1000
0001
1000
,
0010
0000
0100
0010
0000
0000
0000
0000
,
0100
0100
0001
0001
,
1000
0000
0010
1000
0000
0000
0000
0000
,
0001
0010
0100
1000
,
0001
0000
0100
0001
0000
0000
0000
0000
,
0100
0100
0001
0001
,
1000
0000
0010
1000
0000
0000
0000
0000
,
0001
1000
0100
1000
,
0001
0000
1000
0001
0000
0000
0000
0000
,
0100
0010
0100
0001
,
0010
0000
0100
1000
0000
0000
0000
0000
,
0001
0100
0010
0100
,
0001
1000
0010
0100
,
2002
0000
0000
3003
,
1001
0000
1001
0000
0000
0110
0000
0000
,
1001
0000
0000
0000
;

//--------------- dance-single - Alex ----------------
#NOTES:
     dance-single:
     Alex:
     Hard:
     9:
     0,0,0,0,0:
0000
0000
0000
0000
,
0000
0000
0000
0000
,
0000
0000
0000
0000
,
0000
0000
0000
0000
,
0001
1000
0001
0100
0001
0010
0100
1000
,
0010
0100
0001
1000
0000
0000
0000
0000
,
0001
1000
0100
1000
0001
1000
0001
0100
,
0010
0100
0001
0010
0000
0000
0000
0000
,
0001
1000
0100
0010
0001
1000
0010
1000
,
0001
0010
0100
1000
0000
0000
0000
0000
,
0010
1000
0100
1000
0010
0100
0001
0010
,
0001
0100
0010
0100
0000
0000
0000
0000
,
0001
0010
0100
0010
0001
1000
0010
0100
,
0001
1000
0100
0010
0000
0000
0000
0000
,
1000
0001
0100
0001
1000
0010
0100
0001
,
0010
0100
1000
0001
,
1000
0010
1000
0010
0000
0000
0100
0001
0100
0001
0000
0000
0000
0000
0000
0000
,
1000
0001
0010
0000
0001
1000
0100
0010
,
0001
0100
0001
0100
0000
0010
0100
0010
0100
0000
0000
0000
0000
0000
0000
0000
,
0010
0001
1000
0000
0001
0100
0010
0100
,
0001
1000
0010
1000
0010
0100
0010
0000
,
0100
0001
0010
0100
1000
0000
0000
0000
,
0001
1000
0100
1000
0001
1000
0001
0000
,
0100
0010
0100
0001
0010
0000
0000
0000
,
0002
0000
1003
0000
,
0020
0000
0130
0000
,
0002
0013
2000
3100
,
2002
0000
0000
3003
,
0001
1000
0010
0100
0001
1000
0100
0010
,
0001
1000
0010
1000
0000
0000
0000
0000
,
0001
0010
0001
0100
0010
0100
0001
0010
,
0100
0010
0001
0100
0000
0000
0000
0000
,
0010
1000
0100
1000
0010
1000
0001
1000
,
0010
1000
0001
0100
0000
0000
0000
0000
,
0001
0010
0100
1000
0001
0010
0001
1000
,
0010
0100
0001
1000
0000
0000
0000
0000
,
0001
1000
0100
0010
0001
1000
0010
0100
,
0001
1000
0001
0100
0000
0000
0000
0000
,
0001
0010
0100
1000
0001
0100
0010
1000
,
0100
0010
0001
0100
,
0220
0000
0330
0000
,
0100
0001
0100
0001
0010
0100
1000
0001
,
1000
0010
1000
0001
0000
0000
0000
0000
,
1000
0100
0010
0100
1000
0001
0100
0010
,
0100
0001
1000
0010
0000
0000
0000
0000
,
1000
0001
0010
0100
1000
0001
0100
0010
,
1000
0100
0010
0001
0000
0000
0000
0000
,
0100
0100
0001
0001
1000
0010
1000
0001
,
0010
0100
1000
0001
0000
0000
0000
0000
,
1000
0010
0100
0010
1000
0001
0010
0001
,
0100
0010
0100
0001
0000
0000
0000
0000
,
1000
0100
0010
0001
1000
0010
1000
0001
,
0010
0100
1000
0001
0000
0000
0000
0000
,
0100
0100
0001
0001
1000
0010
1000
0001
,
0010
0100
1000
0001
0000
0000
0000
0000
,
1000
0000
0001
0000
1000
0000
0001
0000
0100
0000
0010
0000
,
0100
0000
0110
0000
0000
1001
0000
0000
,
0220
0000
0000
0330
;
