#TITLE:Csikos Post;
#SUBTITLE:;
#ARTIST:Banya;
#TITLETRANSLIT:;
#SUBTITLETRANSLIT:;
#ARTISTTRANSLIT:;
#GENRE:;
#CREDIT:;
#MUSIC:Csikos Post.ogg;
#BANNER:Csikos Post.png;
#BACKGROUND:Csikos Post-BG.png;
#CDTITLE:;
#SAMPLESTART:32.068;
#SAMPLELENGTH:13.028;
#SELECTABLE:YES;
#OFFSET:-0.110;
#BPMS:0.000=180.000;
#STOPS:;
#BGCHANGES:;
#FGCHANGES:;

//--------------- dance-single - Alex ----------------
#NOTES:
     dance-single:
     Alex:
     Beginner:
     1:
     0,0,0,0,0:
0000
0000
0000
0000
,
0000
0000
0000
0000
,
0000
0000
0000
0000
,
0000
0000
0000
0000
,
0100
0000
0100
0000
,
0100
0000
0000
0000
,
1001
0000
0000
0000
,
0001
0000
0000
0000
,
1000
0000
0000
0000
,
0010
0000
0000
0000
,
0001
0000
0000
0000
,
0001
0000
0000
0000
,
1000
0000
0000
0000
,
0100
0000
0000
0000
,
1000
0000
0000
0000
,
0010
0000
0000
0000
,
1000
0000
1000
0000
,
1000
0000
0000
0000
,
0001
0000
0000
0000
,
0100
0000
0000
0000
,
0001
0000
0001
0000
,
0001
0000
0000
0000
,
1000
0000
1000
0000
,
1000
0000
0000
0000
,
0110
0000
0000
0000
,
0100
0000
0000
0000
,
0010
0000
0000
0000
,
1000
0000
0000
0000
,
0001
0000
0000
0000
,
1000
0000
0000
0000
,
0010
0000
0000
0000
,
0010
0000
0000
0000
,
0100
0000
0100
0000
,
0100
0000
0000
0000
,
0001
0000
0000
0000
,
1000
0000
0000
0000
,
0001
0000
0001
0000
,
0001
0000
0000
0000
,
1000
0000
0000
0000
,
0010
0000
0000
0000
,
1001
0000
0000
0000
,
0000
0000
0000
0000
,
1001
0000
0000
0000
,
0000
0000
0000
0000
,
0110
0000
0000
0000
,
0000
0000
0000
0000
,
0110
0000
0000
0000
,
0000
0000
0000
0000
,
1000
0000
0000
0000
,
0001
0000
0000
0000
,
1000
0000
0000
0000
,
0010
0000
0000
0000
,
1000
0000
0000
0000
,
0100
0000
0000
0000
,
1000
0000
0000
0000
,
0001
0000
0000
0000
,
0001
0000
0000
0000
,
1000
0000
0000
0000
,
0010
0000
0000
0000
,
0010
0000
0000
0000
,
0100
0000
0000
0000
,
0100
0000
0000
0000
,
0001
0000
0000
0000
,
0001
0000
0000
0000
,
1000
0000
1000
0000
,
1000
0000
0000
0000
,
0010
0000
0000
0000
,
0100
0000
0000
0000
,
0001
0000
0001
0000
,
0001
0000
0000
0000
,
0001
0000
0000
0000
,
1000
0000
0000
0000
,
0010
0000
0000
0000
,
1000
0000
0000
0000
,
0100
0000
0000
0000
,
1000
0000
0000
0000
;

//--------------- dance-single - Alex ----------------
#NOTES:
     dance-single:
     Alex:
     Easy:
     4:
     0,0,0,0,0:
0000
0000
0000
0000
,
0000
0000
0000
0000
,
0000
0000
0000
0000
,
0000
0000
0000
0000
,
1000
1000
0001
0001
,
1000
0001
2000
3000
,
0001
0000
1000
0000
,
0001
1000
0001
0000
,
1000
0000
0010
0000
,
1000
0010
1000
0000
,
0001
0000
0010
0000
,
0001
0010
0001
0000
,
0100
0100
0010
0010
,
1000
0001
1000
0000
,
1001
0000
1001
0000
,
0110
0000
0110
0000
,
0100
0100
0100
0000
,
0001
0001
0001
0000
,
1010
0000
1010
0000
,
0101
0000
0101
0000
,
0100
0100
0100
0000
,
0010
0010
0010
0000
,
1000
1000
0010
0010
,
1000
0010
2000
3000
,
0001
0000
0010
0000
,
0001
0010
0001
0000
,
0100
0000
0010
0000
,
0100
0001
1000
0000
,
0001
0000
1000
0000
,
0100
1000
0100
0000
,
1000
1000
0001
0001
,
1000
0001
1000
0000
,
1001
0000
1001
0000
,
1010
0000
1010
0000
,
0010
0010
0010
0000
,
0100
0100
0100
0000
,
0101
0000
0101
0000
,
1010
0000
1010
0000
,
1000
1000
0010
0010
,
1000
0010
1000
0000
,
2002
0000
0000
0000
,
3003
0000
0000
0000
,
0220
0000
0000
0000
,
0330
0000
0000
0000
,
2020
0000
0000
0000
,
3030
0000
0000
0000
,
0202
0000
0000
0000
,
0303
0000
0000
0000
,
1000
1000
1000
0000
,
0001
0001
0001
0000
,
1000
1000
1000
0000
,
0010
0010
0010
0000
,
1000
1000
1000
0000
,
0100
0100
0100
0000
,
0001
0001
0001
0000
,
0010
0010
0010
0000
,
0001
1000
0001
0000
,
1000
0100
1000
0000
,
0001
0100
0001
0000
,
0100
0010
0100
0000
,
0001
0010
0001
0000
,
1000
0010
1000
0000
,
0001
0001
1000
0000
,
0010
0010
0100
0000
,
0110
0000
0110
0000
,
1010
0000
1010
0000
,
1000
1000
1000
0000
,
0001
0001
0001
0000
,
0011
0000
0011
0000
,
0101
0000
0101
0000
,
0100
0100
0100
0000
,
0001
0001
0001
0000
,
1000
1000
1000
0000
,
0001
0001
0001
0000
,
0100
0100
0010
0010
,
1000
0001
1000
1001
;

//--------------- dance-single - Alex ----------------
#NOTES:
     dance-single:
     Alex:
     Medium:
     6:
     0,0,0,0,0:
0000
0000
0000
0000
,
0000
0000
0000
0000
,
0000
0000
0000
0000
,
0000
0000
0000
0000
,
0001
0001
1000
1000
,
0001
1000
0001
0100
,
0110
0000
0010
1000
0010
0000
0010
0000
,
0001
1000
0001
0000
,
0001
0100
0010
0100
,
0001
0000
1000
0000
0100
1000
0100
0000
,
1100
0000
1000
0010
1000
0000
1000
0000
,
0001
0100
0010
0000
,
0100
0001
0010
0100
,
1000
0000
0001
1000
0001
0000
1000
0000
,
1001
0110
1001
0000
,
0110
1001
0110
0000
,
0010
0000
0100
0001
0100
0000
0001
0000
,
1000
0000
0100
1000
0100
0000
1000
0000
,
1001
0110
1001
0000
,
0110
1001
0110
0000
,
1000
0001
1000
0000
0001
0000
0100
0000
,
0010
0100
0001
1000
,
0001
0010
0001
0000
0001
1000
0001
0000
,
1000
0010
0100
0001
,
1001
0000
1000
0100
1000
0000
0001
0000
,
1000
0010
1000
0000
,
0001
0010
0100
1000
,
0001
0000
0100
0000
0010
0100
0010
0000
,
0110
0000
0100
0001
0100
0000
0001
0000
,
1000
0001
1000
0000
,
0010
1000
0001
0100
,
0010
0000
1000
0100
1000
0000
0001
0000
,
1001
0110
1001
0000
,
0110
1001
0110
0000
,
1000
0000
0001
0010
0001
0000
1000
0000
,
0010
0000
1000
0010
1000
0000
0001
0000
,
0101
1010
0101
0000
,
1100
0011
1100
0000
,
1000
0001
1000
0000
0001
0000
0100
0000
,
0010
0000
0100
0001
0100
0000
0001
0000
,
0011
0000
0000
0000
,
1100
0000
0000
0000
,
1010
0000
0000
0000
,
0101
0000
0000
0000
,
1001
0000
0000
0000
,
0110
0000
0000
0000
,
0011
0000
1100
0000
,
1001
1001
1001
0000
,
0001
1000
0010
0100
,
0001
0000
1000
0000
0100
1000
0100
1000
,
0100
1000
0001
0100
,
0010
0000
0100
0000
0001
0010
0001
0010
,
0001
1000
0001
1000
,
0010
0000
1000
0000
0001
1000
0001
1000
,
0001
0000
1000
0000
0100
1000
0100
1000
,
0100
0000
1000
0000
0010
0100
0010
0100
,
0010
0100
0001
0010
,
0001
0000
1000
0000
0001
1000
0001
1000
,
0001
1000
0010
1000
,
0001
0000
1000
0000
0100
0010
0100
0010
,
0100
1000
0001
0001
,
0010
0000
0001
0000
0100
0010
0100
0010
,
0100
0000
0001
0000
1000
0100
1000
0100
,
1000
0000
0001
0000
0100
0010
0100
0000
,
1001
0110
1001
0000
,
0101
1010
0101
0000
,
0100
0000
0001
0100
0001
0000
1000
0000
,
0100
0000
1000
0100
1000
0000
0001
0000
,
1001
0110
1001
0000
,
1100
0011
1100
0000
,
0010
0001
0010
0000
0001
0000
1000
0000
,
0010
1000
0010
1000
0010
0000
1000
0000
,
0001
1000
0001
0000
1000
0000
0100
0000
,
1000
0100
1000
0100
1000
0000
0001
0000
,
0100
0010
0100
0000
0001
0000
1000
0000
,
0010
0100
0010
0100
0010
0000
1001
0000
;

//--------------- dance-single - Alex ----------------
#NOTES:
     dance-single:
     Alex:
     Hard:
     8:
     0,0,0,0,0:
0000
0000
0000
0000
,
0000
0000
0000
0000
,
0000
0000
0000
0000
,
0000
0000
0000
0000
,
0010
0100
0010
0000
0100
0001
0100
0000
,
0001
1000
0010
0100
0001
0000
1000
0000
,
0001
0000
0100
0001
0100
0000
0001
0000
,
1000
0100
0010
0001
2000
0000
3000
0000
,
0001
1000
0001
0000
1000
0010
1000
0000
,
0001
0100
0001
0000
1000
0001
1000
0000
,
1010
0000
1000
0001
0010
0000
0001
0000
,
1000
0010
0100
0001
0020
0000
0030
0000
,
0001
1000
0001
1000
0001
1000
0001
1000
,
0001
0000
1000
0010
1000
0000
0001
0000
,
0101
1010
1100
0000
,
0110
0011
0101
0000
,
0001
0000
0100
0010
0100
0001
0100
0000
,
0001
0000
1000
0100
0010
0001
1000
0000
,
0011
0101
0110
0000
,
1010
1100
1010
0000
,
0010
1000
0010
0000
1000
0001
1000
0010
,
1000
0001
0100
0010
0100
0000
0101
0000
,
0001
0100
0001
0000
1000
0100
1000
0000
,
0001
1000
0001
1000
0001
0000
0100
0000
,
0110
0000
0010
1000
0001
0000
0010
0000
,
0001
1000
0010
0100
0002
0000
0003
0000
,
1000
0100
1000
0000
0001
0100
0001
0000
,
1000
0010
1000
0000
0001
0010
0001
0000
,
1001
0000
0001
0100
0001
0000
0100
0000
,
0010
1000
0100
0010
0002
0000
0003
0000
,
1000
0001
0010
0001
1000
0010
1000
0001
,
0100
0000
0001
1000
0001
0000
1000
0000
,
1001
0110
1001
0000
,
0101
1010
0101
0000
,
0001
0000
1000
0100
1000
0001
1000
0000
,
0010
0000
0100
0001
0010
0001
0100
0000
,
0101
0110
0101
0000
,
0011
1001
1100
0000
,
1000
0001
1000
0000
0010
1000
0010
1000
,
0010
1000
0001
1000
0001
0000
0100
0000
,
1001
0000
0000
0000
,
0110
0000
0000
0000
,
1001
0000
0000
0000
,
0011
0000
0000
0000
,
1100
0000
0000
0000
,
1010
0000
0000
0000
,
0101
0000
0110
0000
,
1010
1100
1001
0110
,
0010
0100
0001
0100
0010
0100
0001
0010
,
0100
1000
0001
1000
0020
0030
0200
0300
,
0001
0010
0001
1000
0010
1000
0001
0100
,
0001
1000
0100
1000
0002
0003
2000
3000
,
0001
0010
0100
1000
0001
0010
0100
1000
,
0001
1000
0010
1000
0002
0003
2000
3000
,
0001
1000
0100
1000
0002
0003
0200
0300
,
0010
1000
0001
0010
0002
0003
0200
0300
,
0010
1000
0100
0010
0001
1000
0010
0100
,
0001
0010
0100
1000
0020
0030
0200
0300
,
0001
1000
0001
0100
0001
1000
0010
1000
,
0001
1000
0100
0010
0002
0003
0020
0030
,
0001
0100
0001
0100
0010
0100
0001
0100
,
0001
1000
0100
1000
0002
0003
2000
3000
,
0010
1000
0100
1000
0020
0030
0200
0300
,
0001
0010
0100
1000
0002
0003
2000
3000
,
1001
0110
1001
0000
,
0011
1100
1001
0000
,
0001
0000
0100
0001
0100
0001
0100
0000
,
0010
0000
1000
0100
0010
0001
1000
0000
,
1001
0110
1001
0000
,
0011
1100
0011
0000
,
0001
0010
0001
0000
1000
0010
1000
0001
,
1000
0010
1000
0001
0100
0000
0001
0000
,
1000
0100
0010
0000
0001
0100
0010
0100
,
0001
0010
0100
1000
0001
0000
1000
0000
,
0001
0100
0001
0000
1000
0100
1000
0010
,
1000
0001
0100
0010
0100
0000
2002
0000
,
0000
0000
3003
0000
;

//--------------- dance-single - Alex ----------------
#NOTES:
     dance-single:
     Alex:
     Challenge:
     10:
     0,0,0,0,0:
0000
0000
0000
0000
,
0000
0000
0000
0000
,
0000
0000
0000
0000
,
0000
0000
0000
0000
,
0001
1000
1001
0000
0001
0100
0101
0000
,
0100
0010
0100
0001
0010
0000
0011
0000
,
1100
0000
1000
0010
1000
0001
1000
0010
,
1000
0001
0010
0100
2000
3000
0002
0003
,
0100
0001
0100
0001
1000
0010
1000
0001
,
0010
0100
1000
0001
0100
0010
1000
0000
,
1001
0000
1000
0001
1000
0010
1000
0001
,
0010
0100
1000
0001
0200
0300
0020
0030
,
0100
0001
0001
1000
0010
0010
1000
0001
,
0010
0000
0001
0100
0010
0000
1001
0000
,
0001
1000
0100
1000
0001
1000
0010
1000
,
0001
0001
0010
0010
0001
0001
0100
0100
,
0001
0010
0100
1000
0001
0100
0110
0000
,
0010
1000
0100
0010
0001
1000
0001
0000
,
0001
0001
1000
0010
1000
1000
0001
0100
,
0010
0010
0100
0100
0001
0010
0100
1000
,
0001
0100
0001
1000
0010
0100
0001
0010
,
0100
1000
0001
1000
1001
0000
0110
0000
,
0010
0100
0101
0000
0010
1000
1100
0000
,
0010
0001
0100
0010
0100
0000
1001
0000
,
0110
0000
0100
0001
0010
0100
1000
0001
,
1000
0010
1000
0001
0020
0030
0002
0003
,
0100
0100
0001
1000
0010
0010
1000
0001
,
0010
0100
1000
0001
0100
0010
1000
0000
,
1001
0000
0001
1000
0100
1000
0001
0100
,
0010
0100
0001
0010
0200
0300
2000
3000
,
0001
1000
0010
1000
0001
0010
0001
1000
,
0010
0000
0100
0001
1000
0000
1001
0000
,
0001
0001
1000
1000
0010
0100
0001
1000
,
0100
0100
0010
0010
0001
0100
0010
0100
,
0001
0010
0100
1000
0001
1000
0010
0000
,
1000
0001
0010
0100
1000
0000
1001
0000
,
0001
1000
0001
0001
0100
0100
0001
0010
,
0100
0100
1000
1000
0010
1000
0001
0100
,
0010
1000
0001
0000
0010
0001
0100
0010
,
0100
0001
0010
0100
1000
0000
1001
0000
,
0001
1000
0010
1000
0001
0100
0001
1000
,
1100
0100
1000
0010
0100
0001
0010
0001
,
0101
0100
0010
0100
0001
0010
0100
1000
,
1001
0001
1000
0010
0100
0001
1000
0100
,
1100
1000
0010
0100
0001
0010
0001
1000
,
1010
0010
0100
0001
0010
0001
1000
0001
,
0101
0100
0010
0100
1001
0100
1000
0010
,
1010
0010
0110
0100
0101
0001
1000
0010
,
0110
0100
0001
1000
0100
0010
0001
1000
,
0010
0000
0100
0000
0001
0000
0010
0000
0100
1000
0100
1000
0100
1000
0100
1000
,
0100
1000
0010
1000
0001
0010
0010
0001
,
1000
0000
0010
0000
0100
0000
0100
0000
0001
1000
0001
1000
0001
1000
0001
1000
,
0001
1000
0001
0100
0001
0010
0010
0001
,
0100
0000
0010
0000
0100
0000
0001
0000
1000
0100
1000
0100
1000
0100
1000
0100
,
1000
0000
0010
0000
1000
0000
0001
0000
0100
0010
0100
0010
0100
0010
0100
0010
,
0100
0000
0001
0000
0010
0000
0001
0000
0100
0001
0100
0001
0100
0001
0100
0001
,
0100
0001
0010
0100
1000
0001
0010
0001
,
1000
0000
0010
0000
1000
0000
0001
0000
1000
0001
1000
0001
1000
0001
1000
0001
,
1000
0001
0100
0001
1000
0010
0100
0001
,
1000
0000
0001
0000
0010
0000
0100
0000
1000
0010
1000
0010
1000
0010
1000
0010
,
1000
0001
0010
0001
0100
0001
0010
0100
,
0010
0000
0001
0000
0100
0000
0010
0000
0100
0001
0100
0001
0100
0001
0100
0001
,
0100
0000
0001
0000
1000
0000
0001
0000
0010
0001
0010
0001
0010
0001
0010
0001
,
0010
0000
0001
0000
0100
0000
0010
0000
1000
0001
1000
0001
1000
0001
1000
0000
,
1001
1001
1001
0000
,
0110
0110
0110
0000
,
0100
0001
0010
0100
1000
0001
0100
0000
,
0010
1000
0001
0010
0001
1000
0010
0000
,
1010
1010
1010
0000
,
0101
0101
0101
0000
,
0011
0001
0100
0010
0100
0001
0010
0100
,
1000
0001
1000
0010
0100
0000
1001
0000
,
1001
0001
1000
0010
0100
0001
0010
0001
,
1000
0010
1000
0100
1000
0000
1100
0000
,
1010
0010
1000
0001
0010
0100
1000
0001
,
1000
0001
1000
0001
1000
0001
1000
0001
1000
0000
0000
0000
2002
0000
0000
0000
,
0000
0000
3003
0000
;
