#TITLE:Crashday;
#SUBTITLE:;
#ARTIST:Crash;
#TITLETRANSLIT:;
#SUBTITLETRANSLIT:;
#ARTISTTRANSLIT:;
#GENRE:;
#CREDIT:;
#MUSIC:Crashday.ogg;
#BANNER:Crashday.png;
#BACKGROUND:Crashday-BG.png;
#CDTITLE:;
#SAMPLESTART:62.038;
#SAMPLELENGTH:8.932;
#SELECTABLE:YES;
#OFFSET:0.110;
#BPMS:0.000=220.000;
#STOPS:;
#BGCHANGES:;
#FGCHANGES:;

//--------------- dance-single - Alex ----------------
#NOTES:
     dance-single:
     Alex:
     Beginner:
     2:
     0,0,0,0,0:
0000
0000
0000
0000
,
0000
0000
0000
0000
,
0000
0000
0000
0000
,
0000
0000
0000
0000
,
0000
0000
0000
0000
,
1001
0000
0000
0000
,
0000
0000
0000
0000
,
0110
0000
0000
0000
,
0000
0000
0000
0000
,
0001
0000
0000
0000
,
1000
0000
0000
0000
,
0001
0000
0000
0000
,
0100
0000
0000
0000
,
0010
0000
0000
0000
,
0010
0000
0000
0000
,
0100
0000
0100
0000
,
0100
0000
0100
0000
,
1001
0000
0000
0000
,
0001
0000
0000
0000
,
1000
0000
1000
0000
,
1000
0000
0000
0000
,
0010
0000
0000
0000
,
1000
0000
0000
0000
,
0001
0000
0001
0000
,
0001
0000
0000
0000
,
2002
0000
0000
0000
,
3003
0000
0000
0000
,
0010
0000
0010
0000
,
0010
0000
0000
0000
,
0220
0000
0000
0000
,
0330
0000
0000
0000
,
0100
0000
0100
0000
,
0100
0000
0000
0000
,
1001
0000
0000
0000
,
0010
0000
0000
0000
,
1000
0000
0000
0000
,
0001
0000
0000
0000
,
0100
0000
0000
0000
,
0001
0000
0000
0000
,
0001
0000
0000
0000
,
1000
0000
0001
0000
,
1000
0000
0000
0000
,
0010
0000
0000
0000
,
1000
0000
0000
0000
,
0100
0000
0000
0000
,
0100
0000
0000
0000
,
1000
0000
0000
0000
,
0001
0000
0000
0000
,
0100
0000
0100
0000
,
0100
0000
0000
0000
,
0000
0000
0000
0000
,
1001
0000
0000
0000
,
0000
0000
0000
0000
,
0010
0000
0000
0000
,
1000
0000
0000
0000
,
0010
0000
0000
0000
,
0100
0000
0000
0000
,
0001
0000
1000
0000
,
0001
0000
1000
0000
,
0010
0000
0000
0000
,
1001
0000
0000
0000
,
0100
0000
0000
0000
,
0001
0000
0000
0000
,
1000
0000
0000
0000
,
0001
0000
0000
0000
,
1000
0000
0000
0000
,
0010
0000
0000
0000
,
0010
0000
0000
0000
,
1000
0000
0000
0000
,
0100
0000
0000
0000
,
0001
0000
0000
0000
,
0100
0000
0000
0000
,
1000
0000
0000
0000
,
0001
0000
0000
0000
,
0001
0000
0000
0000
,
1000
0000
1000
0000
,
0010
0000
0010
0000
,
0200
0000
0000
0300
,
0000
0000
0000
0000
,
0002
0000
0000
0003
,
0000
0000
0000
0000
,
2000
0000
0000
3000
,
0000
0000
0000
0000
,
0020
0000
0000
0030
,
0000
0000
0000
0000
,
1001
0000
0000
0000
,
0001
0000
0001
0000
,
0001
0000
0000
0000
,
0100
0000
0100
0000
,
0100
0000
0000
0000
,
0010
0000
0010
0000
,
0010
0000
0000
0000
,
0100
0000
0100
0000
,
0100
0000
0000
0000
,
0000
0000
0000
0000
,
0001
0000
0000
0000
,
1000
0000
0000
0000
,
1001
0000
0000
0000
,
0000
0000
0000
0000
,
0010
0000
0100
0000
,
0010
0000
0100
0000
,
0010
0000
0000
0000
;

//--------------- dance-single - Alex ----------------
#NOTES:
     dance-single:
     Alex:
     Easy:
     5:
     0,0,0,0,0:
0000
0000
0000
0000
,
0000
0000
0000
0000
,
0000
0000
0000
0000
,
0000
0000
0000
0000
,
0000
0000
0000
0000
,
1001
0000
0000
0000
,
0010
0000
0000
0010
0000
0000
0010
0000
,
1001
0000
0000
0000
,
0220
0000
0330
0000
,
0001
0100
0001
0000
,
1000
0000
0010
0000
,
1000
0010
1000
0000
,
0001
0000
1000
0000
,
0001
1000
0001
0000
,
0100
0000
0010
0000
,
0100
0000
0000
0100
0000
0000
0100
0000
,
0010
0000
0000
0010
0000
0000
0010
0000
,
1000
0010
1000
0010
,
1000
0001
1000
0000
,
0001
1000
0010
0100
,
0002
0000
0003
0000
,
0100
0001
0000
0001
,
0100
0000
0010
0000
,
1000
0010
1000
0001
,
0200
0000
0300
0000
,
2002
0000
0000
0000
,
0000
0000
3003
0100
,
0100
0001
0100
0000
,
0010
1000
0010
1000
,
0002
0000
0000
0000
,
0000
0000
0003
1000
,
1000
0000
0001
0000
,
1000
0000
0001
0000
,
0100
0010
0100
0001
,
0020
0000
0030
0000
,
0001
1000
0010
1000
,
0001
0000
1001
0000
,
0001
1000
0100
1000
,
0020
0000
0030
0000
,
0100
0001
0100
0010
,
0100
0000
0110
0000
,
0010
1000
0001
0010
,
0002
0000
0003
0000
,
1000
0001
1000
0001
,
0100
0000
0101
0000
,
0001
0100
0010
0100
,
0002
0000
0003
0000
,
1000
0100
0010
0001
,
0100
0000
0110
0000
,
2002
0000
3003
0000
,
0001
0000
0000
0001
0000
0000
0001
0000
,
1001
0000
1001
0000
,
0110
0000
0110
0000
,
0010
0100
0010
0000
,
1000
0000
0001
0000
,
1000
0100
1000
0000
,
0001
0000
0100
0000
,
0001
0100
0001
0000
,
1000
0010
1000
0000
,
0010
0000
0000
0010
0000
0000
1000
0000
,
1000
0000
0000
0001
0000
0000
1000
0000
,
0001
0100
0001
0000
,
1000
0010
1000
0000
,
0001
0010
0001
0000
,
1000
0100
1000
0000
,
0001
0100
0001
0000
,
1000
0010
0100
0000
,
0001
0010
0100
0000
,
1000
0001
1000
0000
,
0001
0100
0001
0000
,
1000
0010
0100
0000
,
0001
1000
0001
0000
,
0100
0010
0200
0300
,
0010
0100
0010
0000
,
0100
0001
0100
0000
,
0001
1000
0001
0000
,
1000
0010
1000
0001
,
0200
0000
0300
0020
,
0000
0030
1000
0001
,
0020
0000
0030
0002
,
0000
0003
1000
0100
,
2000
0000
3000
0020
,
0000
0030
1000
0001
,
0020
0000
0030
0002
,
0000
0003
0100
0010
,
0100
0001
0100
0000
,
1001
0000
0110
0000
,
0010
1000
0100
0000
,
1100
0000
0011
0000
,
0001
1000
0010
0000
,
0110
0000
1001
0000
,
0001
1000
0001
1000
,
0010
0100
0010
0100
,
0020
0000
0000
0000
,
0030
0000
0000
0000
,
0200
0000
0000
0300
,
0001
0000
0000
1000
0000
0000
0001
0000
,
0200
0000
0000
0000
,
0300
0000
0000
0000
,
0010
0000
0000
0010
0000
0000
0100
0000
,
0100
0000
0000
0100
0000
0000
0010
0000
,
1001
0000
0000
0000
;

//--------------- dance-single - Alex ----------------
#NOTES:
     dance-single:
     Alex:
     Medium:
     8:
     0,0,0,0,0:
0000
0000
0000
0000
,
0000
0000
0000
0000
,
0000
0000
0000
0000
,
0000
0000
0000
0000
,
0000
0000
0000
0000
0000
0000
0001
1000
,
0002
0003
0000
0000
,
1000
0000
0000
0001
0000
0000
0100
0000
,
0220
0000
0330
0000
,
2002
0000
0000
3003
,
1000
0001
0100
0010
,
1000
0010
1000
0000
0001
0010
0001
0000
,
1000
0100
1000
0010
,
0100
0001
0100
0000
0001
0010
0001
0000
,
1000
0001
0100
0010
,
1000
0010
1000
0000
0001
0100
0001
0000
,
0101
0000
0000
1010
0000
0000
0100
0000
,
1001
0000
0000
0110
0000
0000
1001
0000
,
0001
0100
0010
0100
,
0001
0010
0100
1000
0001
0000
1000
0000
,
0010
1000
0010
0100
0010
1000
0010
0000
,
0200
0000
0010
0310
,
1000
0001
1000
0001
0000
0001
0100
0000
,
0010
0100
0001
1000
,
0100
1000
0100
1000
0000
1000
0010
0000
,
0100
0001
0100
0010
,
2000
0010
0010
0010
,
3020
0000
0000
0130
,
0100
0001
1000
0001
,
0100
0000
0010
0000
0100
0001
1000
0001
,
0020
0000
0000
0000
,
0000
0000
0000
0031
,
0001
0100
0010
0100
,
0001
0000
1000
0000
0010
0100
0010
0000
,
1001
0000
0110
0000
,
0001
1000
1100
0000
,
1000
0100
0010
0001
,
0100
0010
0100
0000
,
1001
0000
0110
0000
,
0010
1000
1001
0000
,
0001
0010
0100
0010
,
0001
0100
0020
0030
,
0101
0000
1010
0000
,
0001
1000
1100
0000
,
1000
0001
0100
0010
,
0100
0001
1000
0000
,
1010
0000
0101
0000
,
0001
0010
0011
0000
,
0001
0100
0010
0100
,
0001
1000
0100
0010
,
2002
0000
0000
3003
,
1001
0000
0000
0010
0000
0000
1001
0000
,
0100
0000
0001
1000
0001
0000
0100
0010
,
0200
0000
0000
0300
,
0001
0000
1000
0000
0001
0100
0000
0100
,
0001
0000
0001
1000
0000
1000
0010
1000
,
0010
0000
1000
0000
0001
0010
0000
0010
,
0001
0000
0001
1000
0000
1000
0001
1000
,
0001
0100
0001
0000
1000
0010
1000
0000
,
0001
0010
0001
0000
1000
0100
1000
0000
,
1001
0000
0000
0010
0000
0000
1001
0000
,
0100
0000
0000
1001
0000
0000
0110
0000
,
0010
0100
0001
0000
0100
0000
0010
0000
,
1000
0010
1000
0000
0001
0000
0100
0000
,
0001
0010
0001
0000
0100
0000
0010
0000
,
1000
0100
0010
0000
0001
0000
1000
0000
,
0001
0100
0001
0000
0100
0000
0010
0000
,
1000
0010
1000
0000
0001
0000
0001
0000
,
1000
0100
1000
0000
0001
0000
0100
0000
,
0010
0100
0010
0000
0100
0000
0001
0000
,
0010
0001
0010
0000
0001
0000
1000
0000
,
0001
1000
0001
0000
1000
0000
0010
0000
,
1000
0010
1000
0000
0001
0000
0010
0000
,
0001
0010
0001
0000
0202
0000
0303
0000
,
0001
0100
0001
0000
1000
0000
0001
0000
,
1000
0010
1000
0000
0001
0000
1000
0000
,
0010
0100
0010
0000
0100
0000
0001
0000
,
1000
0100
0010
0001
0200
0000
0300
0000
,
0020
0000
0030
2000
0000
3000
0002
0000
,
0003
0200
0000
0300
0001
0000
1000
0000
,
0200
0000
0300
2000
0000
3000
0020
0000
,
0030
2000
0000
3000
0001
0000
0010
0000
,
0002
0000
0003
0200
0000
0300
0020
0000
,
0030
0200
0000
0300
0001
0000
0010
0000
,
0002
0000
0003
0200
0000
0300
0002
0000
,
0003
2000
0000
3000
0010
0000
1000
0000
,
0100
1000
0100
0000
1000
0000
0010
0000
,
1000
0001
0100
0010
,
0100
0001
0100
0000
0001
0000
0010
0000
,
0100
1000
0001
1000
,
0010
1000
0010
0000
1000
0000
0001
0000
,
0010
0001
1000
0010
,
0100
0001
0100
0000
0001
1000
0001
0000
,
1000
0010
1000
0000
0010
0100
0010
0100
,
0020
0000
0000
0000
,
0000
0000
0030
0000
,
0200
0000
0000
0300
,
0001
0000
0000
1000
0000
0000
0010
0100
,
0002
0000
0000
0000
,
0003
0000
0000
0000
0000
0000
1000
0001
,
1000
0000
0000
1001
0000
0000
0010
0000
,
1001
0000
0000
0100
0000
0000
1001
0000
,
0220
0000
0000
0000
,
0330
0000
0000
0000
;

//--------------- dance-single - Alex ----------------
#NOTES:
     dance-single:
     Alex:
     Hard:
     10:
     0,0,0,0,0:
0000
0000
0000
0000
,
0000
0000
0000
0000
,
0000
0000
0000
0000
,
0000
0000
0000
0000
,
0000
0000
0000
0000
0000
0000
0001
0100
,
0020
0030
0000
0000
,
0011
0000
0000
2200
0000
3300
1001
0000
,
0110
0000
0000
0000
,
4000
0004
0000
0000
0000
0000
0000
0000
0000
0000
0000
0000
3003
0000
0000
0000
,
0001
0100
0010
0100
0001
0010
0100
1000
,
0001
1000
0010
1000
0001
1000
0100
0010
,
0100
1000
0001
0100
0010
0100
0001
0010
,
0100
1000
0001
0100
0010
1000
0001
0010
,
0001
1000
0010
0100
0001
1000
0100
0010
,
0001
0100
0010
0100
0001
1000
0010
1000
,
2020
0000
3030
0202
0000
0303
0011
0000
,
0202
0000
0303
0220
0000
0330
1001
0000
,
0001
0100
0010
0100
0001
0010
0100
1000
,
0001
1000
0010
1000
0001
0000
1000
0000
,
0001
0100
0010
0100
0001
0010
0100
1000
,
1100
0011
1100
0011
,
0001
0100
0010
1000
0000
1000
0001
0010
,
0001
1000
0010
1000
0001
0000
0100
0000
,
0010
1000
0100
0010
0100
1000
0001
0100
,
0010
0100
0001
0010
0100
1000
0001
0000
,
1001
0000
0000
0000
4000
0004
0000
0000
0000
0000
0000
0000
0000
0000
0000
0000
,
0000
0000
0000
0000
3003
0000
0001
0100
,
0010
0100
0001
0010
0100
1000
0001
1000
,
0010
1000
0100
0010
0001
0100
0010
0000
,
0400
0040
0000
0000
0000
0000
0000
0000
0000
0000
0000
0000
0000
0000
0000
0000
,
0000
0000
0330
0110
,
0010
0100
0001
0010
0100
1000
0001
1000
,
0010
1000
0001
0010
0001
1000
0010
0000
,
1000
0010
0100
0001
0100
0010
1000
0001
,
1001
0110
1001
0110
,
0010
0100
0001
0010
0100
1000
0001
1000
,
0010
1000
0001
1000
0100
0010
0001
0000
,
0001
0100
0010
0100
0001
0010
0100
1000
,
1100
0011
1100
0011
,
0001
0100
0010
0100
0001
0010
0001
1000
,
0010
1000
0001
1000
0010
0100
0001
0000
,
1000
0100
0010
0001
0100
0010
0100
0001
,
0010
0100
0010
0001
0100
0010
0100
0001
,
0101
0110
0101
0110
,
0010
1000
0100
0010
0100
1000
0001
0000
,
1000
0001
1000
0001
0100
0001
1000
0010
,
1000
0001
0010
0001
1000
0010
0100
0001
,
0101
0110
0101
0110
,
1010
1100
0011
0110
,
2002
0000
0000
3003
,
0011
0000
0000
0101
0000
0000
1010
0000
,
1100
0000
0000
0000
4000
0004
0000
0000
0000
0000
0000
0000
0000
0000
0000
0000
,
0000
0000
0000
0000
0000
3003
0000
0000
,
0001
0100
0010
0100
0001
0100
0010
0100
,
0001
1000
0010
0100
0001
1000
0100
0000
,
1000
0010
1000
0001
1000
0010
1000
0001
,
0010
0001
0100
0010
0100
0001
1000
0000
,
0001
0100
0010
0100
0001
0010
0100
0010
,
0001
0100
0010
0100
0001
1000
0010
1000
,
2002
0000
3003
0220
0000
0330
0101
0000
,
2020
0000
3030
2200
0000
3300
0011
0000
,
0001
0100
0010
0100
0001
1000
0001
0100
,
0001
1000
0010
1000
0001
1000
0100
0010
,
0001
0100
0010
0100
0001
0010
0100
0010
,
0001
0100
1000
0100
0001
1000
0010
0001
,
0010
1000
0001
0010
0100
1000
0001
0100
,
0010
1000
0100
0010
0001
1000
0010
0100
,
0001
0010
0100
0010
0001
0100
0010
0100
,
0001
1000
0010
1000
0001
0010
0001
1000
,
0010
1000
0100
0010
0100
1000
0001
0100
,
0010
0100
0001
0010
0100
0010
0001
0100
,
0010
0100
0001
1000
0001
0100
0010
0100
,
0001
0010
0100
1000
2002
0000
3003
0000
,
0001
1000
0010
1000
0001
0010
0001
1000
,
0010
0100
0001
1000
0100
0010
0100
1000
,
0001
0100
0010
0100
0001
0010
0100
1000
,
0001
0100
0010
1000
0100
0010
0001
0100
,
0120
0000
0000
0000
0000
0030
2000
0000
0000
0000
0000
3000
0002
0000
0000
0000
,
0000
0003
0200
0000
0000
0000
0000
0300
0020
0000
0000
0000
0230
0000
0000
0000
,
0302
0000
0000
0000
0000
0003
2000
0000
0000
0000
0000
3000
0002
0000
0000
0000
,
0000
0003
2000
0000
0000
0000
0000
3000
0200
0000
0000
0000
2300
0000
0000
0000
,
3020
0000
0000
0000
0000
0030
0200
0000
0000
0000
0000
0300
0002
0000
0000
0000
,
0000
0003
0020
0000
0000
0000
0000
0030
0002
0000
0000
0000
2003
0000
0000
0000
,
3020
0000
0000
0000
0000
0030
0200
0000
0000
0000
0000
0300
0002
0000
0000
0000
,
0000
0003
2000
0000
0000
0000
0000
3000
0020
0000
0000
0000
2030
0000
0000
0000
,
3001
0010
0100
1000
0001
0100
0010
0100
,
0001
0010
0001
1000
0010
1000
0001
1000
,
0100
0010
0100
1000
0001
0100
0010
0100
,
0001
0010
0100
0010
0001
0100
0010
0100
,
0001
1000
0100
0010
0001
1000
0010
0100
,
0001
0010
0001
1000
0010
0100
0001
1000
,
0100
0001
0100
1000
0010
0001
0010
1000
,
0100
0001
0010
0100
1000
0010
0100
0001
,
0202
0000
0000
0000
,
0000
0000
0303
0000
,
2002
0000
0000
3003
,
0022
0000
0033
2200
0000
3300
0001
1000
,
2002
0000
0000
0000
,
0000
0000
0000
0000
3003
0000
0001
1000
,
1010
0000
1001
0110
0000
0101
1010
0000
,
1100
0000
0011
0101
0000
0110
1001
0000
,
2002
0000
0000
0000
,
3003
0000
0000
0000
;

//--------------- dance-single - ----------------
#NOTES:
     dance-single:
     :
     Challenge:
     14:
     0,0,0,0,0:
0000
0000
0000
0000
,
0000
0000
0000
0000
,
0000
0000
0000
0000
,
0000
0000
0000
0000
,
0000
0000
0000
0000
0000
0000
0010
1000
,
2200
0000
0000
3300
,
2002
0000
3003
0022
0000
0033
0110
0000
,
2200
0000
3300
0000
,
0100
0010
0100
0010
0100
0010
0100
0010
0100
0010
0100
0010
0100
0000
0000
0000
,
0010
0000
1000
0000
0001
0000
0010
0000
0001
0000
1000
0000
0010
1000
0010
0000
,
1000
0000
0001
0000
0100
0000
0010
0000
0100
0000
0001
0000
0010
0001
0010
0000
,
0001
0000
1000
0000
0010
0000
1000
0000
0001
0000
1000
0000
0100
1000
0100
0000
,
1000
0000
0001
0000
0100
0000
0010
0000
0100
0000
0001
0000
1000
0001
1000
0000
,
0001
0000
0010
0000
0100
0000
1000
0000
0001
0000
0100
0000
0010
0100
0010
0000
,
0100
0000
0001
0000
0010
0000
0001
0000
1000
0000
0010
0000
1000
0001
1000
0000
,
1001
0001
0100
0110
0100
0001
1001
1000
,
1010
0010
0100
0101
0001
0010
0011
0010
,
0001
0000
0100
0000
0001
0000
1000
0000
0001
0010
0001
0000
1000
0010
1000
0000
,
0001
0000
1000
0000
0100
0000
1000
0000
0010
0100
0010
0000
0100
0001
0100
0000
,
0001
0000
1000
0000
0010
0000
1000
0000
0001
0010
0001
0000
1000
0100
1000
0000
,
0001
0100
1000
0100
0001
0010
0100
1000
,
1010
0010
0100
0001
0101
0001
0100
0010
,
0100
0001
0100
0000
0001
0000
1000
0000
0010
1000
0010
0000
1000
0000
0100
0000
,
0010
0000
0100
0000
1000
0000
0010
0000
0100
0001
0100
0000
0001
1000
0001
0000
,
0010
0001
0100
0010
1000
0100
0010
0001
,
1001
0000
0000
0000
0001
0100
0001
0100
0001
0100
0001
0100
0001
0100
0001
0100
,
0010
0100
0010
0100
0010
0100
0010
0100
0010
0000
0000
0000
0110
0000
0000
0000
,
0010
1000
0100
0010
0001
0100
0010
0100
,
0001
0010
0100
1000
0001
1000
0010
0000
,
1000
0010
1000
0010
1000
0010
1000
0010
1000
0010
1000
0010
1000
0010
1000
0010
,
1000
0001
1000
0001
1000
0001
1000
0001
1000
0000
0000
0000
1001
0000
0000
0000
,
0110
0011
1100
0011
,
0001
0100
0010
0100
0001
1000
0010
1000
,
1001
0000
0001
0000
0100
0000
0010
0000
0100
0001
0100
0000
0001
0000
0010
0000
,
0100
0000
1000
0000
0010
0000
0100
0000
0001
0100
0001
0000
1000
0000
0010
0000
,
1010
0000
1000
0000
0001
0000
0100
0000
0010
0100
0010
0000
0100
0000
0001
0000
,
0010
0000
0100
0000
0010
0000
0001
0000
0100
0001
0100
0000
0001
0000
1000
0000
,
1100
0000
1000
0000
0010
0000
0100
0000
0001
1000
0001
0000
0100
0000
0001
0000
,
1000
0000
0010
0000
1000
0000
0001
0000
0010
0001
0010
0000
0001
0000
0100
0000
,
0010
0000
0100
0000
0001
0000
0010
0000
0100
1000
0100
0000
1000
0000
0010
0000
,
1000
0000
0001
0000
1000
0010
1000
0000
0001
0100
0001
0000
0100
0010
0100
0010
,
0100
0000
0001
0000
0100
0000
0010
0000
0100
0010
0100
0000
0001
0000
0010
0000
,
0100
0000
0010
0000
0001
0000
0100
0000
0001
0100
0001
0000
0100
0000
0010
0000
,
0100
0000
0001
0000
1000
0000
0010
0000
1000
0010
1000
0000
0001
0000
1000
0000
,
0010
0000
0100
0000
0001
0000
1000
0000
0100
1000
0100
0000
1000
0000
0010
0000
,
1010
0000
0010
0000
0100
0000
0001
0000
0010
0001
0010
0000
0001
0000
0100
0000
,
0010
0000
0100
0000
0001
0000
0010
0000
0100
0010
0100
0000
0100
0000
1000
0000
,
0001
0000
0100
0000
0001
0000
1000
0000
0010
0100
0010
0000
0100
0000
0001
0000
,
1001
0100
0001
1000
1001
0001
0100
0010
,
0220
0000
0000
0330
,
0011
0001
0100
0110
0100
0001
1001
1000
,
1001
0000
0000
0000
0001
0100
0001
0100
0001
0100
0001
0100
0001
0100
0001
0100
,
0010
0100
0010
0100
0010
0100
0010
0100
0010
0100
0010
0100
0010
0000
0000
0000
,
1000
0010
1000
0001
1000
0100
0010
0001
,
0100
0000
0010
0000
0100
0000
0001
0000
0010
0000
0100
0000
1000
0001
1000
0000
,
0001
0100
0010
0100
0001
0010
0001
1000
,
0010
0100
0001
1000
0100
0010
0001
0100
,
0001
0100
0001
0000
0100
0000
0010
0000
0100
0010
0100
0000
0001
0000
1000
0000
,
0001
0010
0001
0000
1000
0000
0010
0000
1000
0010
1000
0000
0010
0000
1000
0000
,
2002
0000
3003
0202
0000
0303
0110
0000
,
2200
0000
3300
0022
0000
0033
0110
0000
,
1000
0001
1000
0001
1000
0001
1000
0001
1000
0001
1000
0001
1000
0001
0010
0001
,
0010
0001
0010
0001
0010
0001
0010
0001
0010
0001
1000
0001
1000
0001
1000
0001
,
1000
0001
1000
0001
1000
0100
1000
0100
1000
0100
1000
0100
1000
0100
1000
0010
,
1000
0010
1000
0010
1000
0010
1000
0010
0100
0010
0100
0010
0100
0010
0100
0010
,
0100
0001
0100
0001
0100
0001
0100
0001
0100
0001
1000
0001
1000
0001
1000
0001
,
1000
0001
1000
0010
1000
0010
1000
0010
1000
0010
1000
0010
0100
0010
0100
0010
,
0100
0010
0100
0010
0100
0001
0100
0001
0100
0001
0010
0100
0010
0100
0010
0100
,
0010
0100
0010
0100
0010
0001
0100
0001
0100
0001
0100
0001
0100
0001
1000
0010
,
1000
0010
1000
0010
1000
0010
1000
0010
1000
0001
1000
0001
1000
0001
0100
0001
,
0100
0001
0100
0001
0100
0010
0100
0010
0100
0010
0100
0010
1000
0010
1000
0010
,
1000
0100
1000
0100
1000
0100
1000
0100
0010
0001
0010
0001
0010
0001
0010
0001
,
0100
0001
0100
0001
0100
0001
0100
0010
0200
0000
0000
0000
0300
0000
0000
0000
,
0001
1000
0001
1000
0001
1000
0010
1000
0010
1000
0010
1000
0010
0100
0010
0100
,
0010
0100
0001
0100
0001
0010
0001
0010
0001
0100
0001
0100
0001
1000
0001
1000
,
0001
1000
0010
1000
0010
1000
0010
1000
0010
0100
0010
0100
0010
0100
0001
0200
,
0002
0000
0000
0303
,
0002
0000
1003
0020
0000
1030
0002
0000
,
0103
0020
0000
0130
0001
0010
0100
1000
,
0002
0000
1003
0020
0000
1030
0002
0000
,
1003
0200
0000
1300
0010
1000
0001
0100
,
0200
0000
0310
2000
0000
3001
0020
0000
,
0031
0200
0000
0310
1000
0001
0010
0100
,
2000
0000
3001
0200
0000
0301
0020
0000
,
0031
2000
0000
3010
0100
0001
0100
0010
,
0100
0010
0100
0010
0100
0010
0100
0010
0100
0001
0100
0001
0100
0001
0100
0001
,
1000
0001
1000
0001
1000
0001
1000
0001
1000
0010
1000
0010
1000
0010
1000
0010
,
0100
0010
0100
0010
0100
0010
0100
0001
0100
0001
0100
0001
1000
0001
1000
0001
,
1000
0001
0010
0001
0010
0001
0010
0001
0100
0001
0100
0001
0100
0001
1000
0100
,
1000
0100
1000
0100
1000
0100
1000
0010
0100
0010
0100
0010
0100
0010
0100
0001
,
0010
0001
0010
0001
0010
0001
0010
0001
0100
0001
0100
0001
0100
0001
1000
0001
,
1000
0001
0100
0001
0100
0001
0100
0010
0100
0010
0100
0010
1000
0010
1000
0100
,
1000
0100
1000
0100
1000
0001
1000
0001
1000
0001
0100
0010
0100
0010
0100
0020
,
0200
0000
0000
0000
,
0330
0000
0000
0000
,
2002
0000
3003
0000
,
0022
0000
0033
2200
0000
3300
1000
0010
,
2020
0000
0000
0000
,
3030
0000
0000
0000
0000
0000
0010
0100
,
0101
0001
1000
1001
1000
0010
1010
0010
,
0110
0100
0001
0101
0001
1000
1001
0010
,
2002
0000
0000
0000
,
3003
0000
0000
0000
;
