#TITLE:Conga;
#SUBTITLE:;
#ARTIST:Queen Latin;
#TITLETRANSLIT:;
#SUBTITLETRANSLIT:;
#ARTISTTRANSLIT:;
#GENRE:;
#CREDIT:;
#MUSIC:Conga.ogg;
#BANNER:Conga.png;
#BACKGROUND:Conga-BG.png;
#CDTITLE:;
#SAMPLESTART:40.589;
#SAMPLELENGTH:14.446;
#SELECTABLE:YES;
#OFFSET:-0.125;
#BPMS:0.000=124.000;
#STOPS:;
#BGCHANGES:;
#FGCHANGES:;

//--------------- dance-single - Alex ----------------
#NOTES:
     dance-single:
     Alex:
     Beginner:
     1:
     0,0,0,0,0:
0000
0000
1001
0000
,
0000
0000
0000
0000
,
0000
0000
1001
0000
,
0000
0000
0000
0000
,
0000
0000
0000
0000
,
0110
0000
0000
0000
,
0100
0000
0000
0000
,
0001
0000
0000
0000
,
1000
0000
0000
0000
,
0010
0000
0000
0000
,
0001
0000
0000
0000
,
0001
0000
0000
0000
,
0100
0000
0000
0000
,
0010
0000
0000
0000
,
0010
0000
0000
0000
,
1000
0000
0000
0000
,
1000
0000
0000
0000
,
0001
0000
0000
0000
,
0001
0000
0000
0000
,
1000
0000
0000
0000
,
0000
0000
0000
0000
,
1001
0000
0000
0000
,
0010
0000
0000
0000
,
0100
0000
0000
0000
,
0001
0000
0000
0000
,
0001
0000
0000
0000
,
1000
0000
0000
0000
,
1000
0000
0000
0000
,
0010
0000
0000
0000
,
0110
0000
0000
0000
,
0000
0000
0000
0000
,
1001
0000
0000
0000
,
0000
0000
0000
0000
,
0001
0000
0000
0000
,
0001
0000
0000
0000
,
1000
0000
0000
0000
,
0010
0000
0000
0000
,
1000
0000
0000
0000
,
0100
0000
0000
0000
,
1000
0000
0000
0000
,
0001
0000
0000
0000
,
1001
0000
0000
0100
,
0100
0000
0000
0010
,
0010
0000
0000
1000
,
1000
0000
0000
0000
,
0001
0000
0000
0000
,
0001
0000
0000
0000
,
0100
0000
0000
0000
,
0001
0000
0000
0000
,
1001
0000
0000
0000
,
0000
0000
0000
0000
,
0110
0000
0000
0000
,
0000
0000
0000
0000
,
1001
0000
0000
0000
;

//--------------- dance-single - Alex ----------------
#NOTES:
     dance-single:
     Alex:
     Easy:
     3:
     0,0,0,0,0:
0000
0000
0100
0000
,
0100
0000
0010
0000
,
0010
0000
1000
0000
,
1000
0000
0001
0000
,
0001
0000
1000
1000
,
1000
0000
0001
0000
,
1000
0000
0001
0000
,
0100
0000
0010
0000
,
0100
0000
0001
0001
,
0001
0000
1000
0000
,
0001
0000
1000
0000
,
0010
0000
0100
0000
,
0001
0000
1000
1000
,
1000
0000
0010
0000
,
1000
0000
0100
0000
,
1000
0000
0001
0000
,
0010
0000
0001
0001
,
0001
0000
0100
0000
,
0001
0000
1000
0000
,
0100
0000
1000
1000
,
2000
0000
3000
0000
,
1001
0000
0010
0010
,
0010
0000
1000
1000
,
1000
0000
0001
0001
,
0001
0000
0100
0100
,
0100
0000
0010
0010
,
0010
0000
1000
1000
,
1000
0000
0100
0100
,
0100
0000
1000
1000
,
1001
0000
0001
0000
,
1000
0000
0001
0000
,
0100
0000
0010
0000
,
0010
0000
0100
0000
,
1001
0000
0010
0010
,
0010
0000
1000
1000
,
1000
0000
0001
0001
,
0001
0000
0100
0100
,
0100
0000
0001
0001
,
0001
0000
0010
0010
,
0010
0000
1000
1000
,
1000
0000
0001
0001
,
1001
0000
0000
1000
,
0010
0000
0000
0100
,
0001
0000
0000
1000
,
0001
0000
0000
0010
,
0100
0000
0001
0001
,
0001
0000
1000
1000
,
1000
0000
0010
0010
,
0010
0000
0100
0100
,
0200
0000
0300
0000
,
0002
0000
0003
0000
,
2000
0000
3000
0000
,
0020
0000
0000
0000
,
0030
0000
0000
0000
;

//--------------- dance-single - Alex ----------------
#NOTES:
     dance-single:
     Alex:
     Medium:
     5:
     0,0,0,0,0:
0000
0000
0001
0001
,
0001
0001
1000
1000
,
1000
1000
0010
0010
,
0010
0010
0100
0100
,
0100
0000
0100
0000
0001
1000
0001
1000
,
0001
0000
1000
0000
0001
0000
1000
0010
,
1000
0000
0001
0000
0010
0000
0001
0010
,
0001
0100
0010
0100
,
0100
0000
0001
0000
1000
0001
1000
0001
,
1000
0000
1000
0000
0001
0000
0010
0100
,
1000
0000
0001
0000
0100
0000
0010
0100
,
0001
1000
0100
1000
,
1000
0000
0010
0000
0100
0001
0100
0001
,
0100
0000
0010
0000
0010
0000
0100
0001
,
0100
0000
0001
0000
1000
0000
0100
1000
,
0100
1000
0010
0010
,
1000
0000
0001
0000
0010
0001
0010
0001
,
0010
0000
0001
0000
0100
0000
0010
0100
,
0010
0000
0100
0000
0001
0000
1000
0100
,
1000
0001
0100
0010
,
2002
0000
3003
0000
,
0001
0000
1000
0000
0001
0000
1000
0010
,
1000
0000
0001
0000
0100
0000
0010
0100
,
0010
0000
0100
0000
0001
0000
0010
0001
,
0010
0001
1000
0100
,
1001
0000
1000
0000
0010
0000
1000
0010
,
1000
0000
0001
0000
0010
0000
0001
0010
,
0001
0000
0100
0000
0100
0000
0001
1000
,
0001
1000
0010
1000
,
1001
0001
0100
1000
,
0100
0001
0100
1000
,
0010
0001
0010
1000
,
0010
0001
0010
1000
,
0001
0000
0001
0000
0100
0000
0010
1000
,
0100
0000
1000
0000
0001
0000
0010
0001
,
0010
0000
0001
0000
0100
0000
0010
0100
,
0010
0100
0001
1000
,
1001
0000
0001
0000
0100
0000
0010
1000
,
0100
0000
1000
0000
0001
0000
0010
0001
,
0010
0000
0001
0000
0100
0000
0010
0100
,
0010
1000
0001
0010
,
0011
0000
0001
1000
,
1001
0000
0010
0100
,
0110
0000
1000
0100
,
1100
0000
1000
0001
,
1001
0000
1000
0000
0001
0000
0100
0001
,
0100
0000
0001
0000
0001
0000
1000
0010
,
1000
0000
0001
0000
0010
0000
0100
1000
,
0100
0010
0001
0100
,
0110
0000
0000
0000
0010
1000
0010
1000
,
0020
0000
0030
0000
0100
0001
0100
0001
,
0200
0000
0300
0000
0001
1000
0001
1000
,
0002
0000
0003
0000
1000
0010
1000
0010
,
2000
0000
3000
0000
;

//--------------- dance-single - Alex ----------------
#NOTES:
     dance-single:
     Alex:
     Hard:
     8:
     0,0,0,0,0:
0000
0000
0000
0000
0001
1000
0010
0000
,
0100
0001
0011
0000
0001
1000
0100
0000
,
1000
0010
1010
0000
0010
1000
0001
0000
,
0010
0001
0101
0000
0100
0010
1000
0000
,
0001
1000
1100
0000
1000
0001
0100
0010
,
2000
0000
3001
0010
0100
1000
0002
0000
,
0103
0000
0010
1000
0100
0010
0200
0000
,
1300
0000
0000
0000
0001
0000
0100
0000
0010
0000
0000
0100
0000
0001
0000
1000
,
0000
0000
0000
0000
0001
0000
0010
0000
0100
0000
1000
0000
0001
0000
0000
1001
,
0000
0000
0001
1000
0010
0100
0002
0000
,
1003
0000
1000
0100
1000
0010
2000
0000
,
3001
0000
0000
0000
0001
0000
0100
0000
0010
0000
0000
0010
0000
1000
0000
0100
,
0000
0000
0000
0000
1000
0000
0001
0000
0100
0000
0010
0000
1000
0000
0000
1001
,
0000
0000
0001
0100
0010
0100
0002
0000
,
0013
0000
0001
1000
0100
1000
0020
0000
,
1030
0000
0000
0000
1000
0000
0001
0000
0010
0000
0000
0001
0000
1000
0000
0100
,
0000
0000
0000
0000
1000
0000
0001
0000
0100
0000
0010
0000
0100
0000
0000
1001
,
0000
0000
0001
0010
0001
0100
0020
0000
,
1030
0000
1000
0100
1000
0001
2000
0000
,
3001
0000
0000
0000
0001
0000
0100
0000
0010
0000
0000
0100
0000
0010
0000
2000
,
0000
0000
0000
0000
0000
3000
0000
0000
,
0001
0000
1000
0000
0100
0000
1000
0000
0001
0000
0000
0100
0000
0001
0000
1000
,
0000
0000
0010
0000
1000
0000
0001
0000
0010
0000
0000
0001
0000
0100
0000
0010
,
0000
0000
0100
0000
0001
0000
1000
0000
0100
0000
0000
0010
0000
0001
0000
0100
,
0000
0000
0010
0000
1000
0000
0001
0000
0010
0000
0000
0001
0000
0100
0000
0110
,
0000
0000
0010
0000
1000
0000
0100
0000
0010
0000
0000
0001
0000
1000
0000
0001
,
0000
0000
1000
0000
0001
0000
0100
0000
0010
0000
0000
1000
0000
0010
0000
1000
,
0000
0000
0001
0000
0010
0000
0001
0000
0100
0000
0000
0010
0000
0100
0000
0010
,
0000
0000
0100
0000
0001
0000
0010
0000
0001
0000
0000
1000
0000
0010
0000
1000
,
0000
1001
0010
1001
,
0100
0000
1001
0000
0001
0010
0001
0100
,
0010
1010
1000
1001
,
0001
0000
0011
0000
0001
1000
0010
0100
,
0001
0000
0001
0000
1000
0000
0100
0000
1000
0000
0000
0001
0000
1000
0000
0001
,
0000
0000
0100
0000
0010
0000
0100
0000
0001
0000
0000
0010
0000
0100
0000
1000
,
0000
0000
0001
0000
1000
0000
0010
0000
1000
0000
0000
0001
0000
1000
0000
0001
,
0000
0000
0100
0000
0001
0000
0010
0000
0001
0000
0000
0100
0000
0010
0000
1010
,
0000
0000
0010
0000
1000
0000
0100
0000
0010
0000
0000
0001
0000
1000
0000
0001
,
0000
0000
1000
0000
0010
0000
1000
0000
0001
0000
0000
0010
0000
0100
0000
1000
,
0000
0000
0001
0000
0100
0000
0010
0000
0100
0000
0000
0001
0000
0010
0000
0001
,
0000
0000
1000
0000
0010
0000
1000
0000
0001
0000
0000
1000
0000
0001
0000
0200
,
0000
0000
0000
0000
0301
0000
0000
0000
0001
0000
1000
0000
0010
1000
0000
0002
,
0000
0000
0000
0000
1003
0000
0000
0000
1000
0000
0100
0000
1000
0010
0000
2000
,
0000
0000
0000
0000
3001
0000
0000
0000
0001
0000
0010
0000
0001
0100
0000
0020
,
0000
0000
0000
0000
0130
0000
0000
0000
0100
0000
0001
0000
1000
0010
0000
1000
,
0000
0000
0001
0000
0010
0000
0100
0000
1000
0000
0000
0001
0000
0100
0000
0001
,
0000
0000
1000
0000
0010
0000
1000
0000
0001
0000
0000
1000
0000
0100
0000
1000
,
0000
0000
0001
0000
0010
0000
0001
0000
0100
0000
0000
0010
0000
0100
0000
0010
,
0000
0000
1000
0000
0001
0000
0010
0000
0100
0000
0000
1000
0000
0001
0000
0011
,
0000
0000
0001
0000
0100
0000
0010
0000
0100
0000
0000
0001
0000
1000
0000
1001
,
0000
0000
0001
0000
1000
0000
0010
0000
0100
0000
0000
0001
0000
1000
0000
1100
,
0000
0000
1000
0000
1000
0000
0001
0000
0100
0000
0000
0010
0000
0100
0000
0110
,
0000
0000
0100
0000
0001
0000
0010
0000
0100
1000
0000
0001
0000
0100
0000
0220
,
0000
0000
0000
0330
0000
0000
0000
0000
;

//--------------- dance-single - Alex ----------------
#NOTES:
     dance-single:
     Alex:
     Challenge:
     9:
     0,0,0,0,0:
0000
0000
0000
0000
0000
0000
0000
1000
0001
0100
0000
0001
0010
0100
0000
1000
,
0010
0100
0001
0000
1000
0000
0001
0010
0001
1000
0000
1000
0010
0100
0000
0100
,
0001
1000
0100
0000
0010
0000
0001
0100
0001
0100
0000
0100
0010
1000
0000
1000
,
0001
1000
0010
0000
0100
0000
0001
0010
0100
1000
0000
0001
0100
0010
0000
1000
,
0100
0010
0001
0000
1000
0000
0010
0000
0100
0001
0010
0100
1000
0001
0100
0020
,
0000
0000
0000
0000
1030
0000
0001
0000
0100
0000
0010
0200
0000
0000
0301
0000
,
1001
0000
0001
1000
0100
1000
1020
0000
,
0130
0000
0000
0000
0001
0000
0010
0000
0100
0000
1000
0001
0000
0100
0000
0002
,
0000
1003
0010
0100
0001
0010
0100
1000
,
1001
0000
0000
0000
0001
0000
0001
0000
1000
0000
0010
2000
0000
0000
0010
0000
,
3010
0000
0000
0000
0100
0000
0001
0000
0010
0000
0100
0010
0001
0000
0001
0200
,
0000
0000
0310
0000
0010
0000
1000
0000
0001
0000
0010
0001
0000
1000
0000
0200
,
0000
1300
1000
0001
0100
0010
1000
0001
,
1001
0000
0000
0001
0100
0000
0010
0000
0100
0000
0001
0000
1000
0000
0100
0010
,
0002
0000
0000
0000
1003
0000
1000
0000
0010
0000
1000
0000
0001
0000
0100
0010
,
2000
0000
0000
0000
3100
0000
0100
0000
1000
0000
0001
0100
0000
0010
0000
0200
,
0000
0301
0001
1000
0010
0100
0001
0010
,
0011
0000
0000
0000
0001
0000
0100
0000
0010
0000
0100
0000
0001
0000
1000
0100
,
2000
0000
0000
0000
3001
0000
0001
0000
1000
0000
0010
0000
1000
0000
0001
0010
,
0002
0000
0000
0000
0103
0000
0100
0000
0010
0000
1000
0100
0000
0010
0000
2002
,
0000
0000
0000
0000
0000
0000
0000
0000
3003
0000
0000
0000
0000
0000
0000
0001
,
0100
0010
0100
0001
0010
0100
1000
0001
0100
0010
0000
1000
0000
0001
0000
0100
,
0000
0001
0010
0001
0100
0010
0100
0001
1000
0100
0000
1000
0000
0010
0000
0100
,
0000
0001
0010
0001
1000
0010
1000
0001
0100
0001
0000
1000
0000
0100
0000
0010
,
0000
0001
0100
0010
0100
0001
0010
0100
1000
0001
0000
0001
0000
1000
0000
1001
,
0000
0001
1000
0010
1000
0001
1000
0100
0010
0001
0000
0100
0000
0001
0000
1000
,
0000
0010
1000
0010
0100
0010
1000
0001
0010
0001
0000
1000
0000
1000
0000
0001
,
0000
0001
0100
0010
0100
0001
0010
0001
1000
0100
0000
0010
0000
0001
0000
0100
,
0000
0010
1000
0001
0010
0100
1000
0001
0100
0010
0000
1000
0000
0001
0000
2002
,
0000
3003
0010
0000
0100
0001
0000
0001
0100
0000
0010
0000
1000
0000
1000
0000
,
0001
0000
0100
0000
0010
1000
0000
1000
0001
0000
0010
0000
0001
0000
0100
0000
,
0010
0000
0100
0000
0001
0010
0000
0010
0100
0000
1000
0000
0001
0000
0100
0000
,
0010
0000
1000
0000
0001
1000
0000
1000
0001
1000
0001
1000
0001
1000
0001
1000
,
0000
0001
0100
0010
0100
0001
0010
0100
1000
0001
0000
1000
0000
0010
0000
1000
,
0000
0001
1000
0010
0100
0001
1000
0100
0010
0001
0000
0100
0000
0100
0000
0001
,
0000
1000
0010
1000
0001
0010
0001
0100
0001
1000
0000
0010
0000
0100
0000
0100
,
0000
0001
0010
0100
1000
0001
0010
0001
1000
0010
0000
1000
0000
0001
0000
1001
,
0000
0001
1000
0100
1000
0001
1000
0001
0100
0010
0000
0100
0000
0001
0000
0010
,
0000
0001
1000
0010
0100
0001
0010
0100
1000
0001
0000
0100
0000
0100
0000
0001
,
0000
1000
0010
1000
0001
0010
0001
1000
0010
0100
0000
0001
0000
1000
0000
0100
,
0000
0010
0001
0100
0010
0100
0001
0010
0100
1000
0000
0001
0000
0100
0000
0101
,
0000
0000
0001
0000
1000
0000
0010
0000
0100
0000
0001
0000
1000
0010
0000
1010
,
0000
0000
0010
0000
1000
0000
0100
0000
1000
0000
0001
0000
0100
0001
0000
0011
,
0000
0000
0001
0000
0100
0000
0100
0000
0010
0000
1000
0000
0001
1000
0000
1001
,
0000
0000
0001
0000
1000
0000
0010
0000
0100
0000
0001
0000
0010
0001
0000
0101
,
0000
0100
0001
0100
0001
0100
0001
0010
0100
1000
0000
0001
0000
1000
0000
0010
,
0000
0010
0100
0001
1000
0100
0010
0100
1000
0001
0000
0100
0000
0100
0000
0001
,
0000
1000
0010
1000
0001
0010
0001
1000
0010
0100
0000
0001
0000
0010
0000
0100
,
0000
1000
0001
0010
0001
1000
0010
0100
0001
1000
0000
0001
0000
0100
0000
0101
,
0000
0001
0100
0001
0100
0010
0100
0001
0010
0100
0000
2000
3000
0020
0030
2000
,
3000
0001
1000
0010
0100
0001
1000
0100
0010
0001
0000
0200
0300
0002
0003
0020
,
0030
0100
1000
0001
0010
0001
1000
0010
0100
0001
0000
2000
3000
0002
0003
0200
,
0300
0010
1000
0001
0010
0001
1000
0010
0100
0001
0000
1000
0000
0001
0000
2002
,
0000
0000
0000
3003
0000
0000
0000
0000
;
