#TITLE:Come To Me;
#SUBTITLE:;
#ARTIST:Clon;
#TITLETRANSLIT:;
#SUBTITLETRANSLIT:;
#ARTISTTRANSLIT:;
#GENRE:;
#CREDIT:;
#MUSIC:Come To Me(Clon).ogg;
#BANNER:Come To Me(Clon).png;
#BACKGROUND:Come To Me(Clon)-BG.png;
#CDTITLE:;
#SAMPLESTART:26.136;
#SAMPLELENGTH:15.507;
#SELECTABLE:YES;
#OFFSET:-0.103;
#BPMS:0.000=138.000
,154.000=137.800
;
#STOPS:;
#BGCHANGES:;
#FGCHANGES:;

//--------------- dance-single - Alex ----------------
#NOTES:
     dance-single:
     Alex:
     Beginner:
     1:
     0,0,0,0,0:
0000
0000
0000
0000
,
0000
0000
0000
0000
,
0000
0000
0000
0000
,
0110
0000
0000
0000
,
0010
0000
0000
0000
,
0100
0000
0000
0000
,
0100
0000
0000
0000
,
0001
0000
0000
0000
,
0001
0000
0000
0000
,
1000
0000
0000
0000
,
1000
0000
0000
0000
,
1001
0000
0000
0000
,
0001
0000
0000
0000
,
1000
0000
0000
0000
,
1000
0000
0000
0000
,
0010
0000
0000
0000
,
0010
0000
0000
0000
,
1000
0000
0000
0000
,
1000
0000
0000
0000
,
0001
0000
0000
0000
,
0001
0000
0000
0000
,
0100
0000
0000
0000
,
0010
0000
0000
0000
,
0110
0000
0000
0000
,
0001
0000
0000
0000
,
1000
0000
0000
0000
,
0100
0000
0000
0000
,
1000
0000
0000
0000
,
0010
0000
0000
0000
,
0010
0000
0000
0000
,
0100
0000
0000
0000
,
1001
0000
0000
0000
,
0001
0000
0000
0000
,
0001
0000
0000
0000
,
1000
0000
0000
0000
,
1000
0000
0000
0000
,
0010
0000
0000
0000
,
0010
0000
0000
0000
,
0010
0000
0000
0000
,
1001
0000
0000
0000
,
0001
0000
0000
0000
,
0100
0000
0000
0000
,
0010
0000
0000
0000
,
0010
0000
0000
0000
,
0001
0000
0000
0000
,
0100
0000
0000
0000
,
1000
0000
0000
0000
,
1001
0000
0000
0000
,
1000
0000
0000
0000
,
0001
0000
0000
0000
,
1000
0000
0000
0000
,
0010
0000
0000
0000
;

//--------------- dance-single - Alex ----------------
#NOTES:
     dance-single:
     Alex:
     Easy:
     2:
     0,0,0,0,0:
0000
0000
0000
0000
,
0000
0000
0000
0000
,
0000
0000
0000
0000
,
0001
0000
0001
0000
,
0001
0000
0000
0000
,
1000
0000
1000
0000
,
1000
0000
0000
0000
,
1001
0000
0000
0000
,
1001
0000
0000
0000
,
0110
0000
0000
0000
,
0220
0000
0330
0000
,
0100
0000
0010
0000
,
0100
0000
0100
0000
,
0001
0000
1000
0000
,
0001
0000
1000
0000
,
1001
0000
0001
0000
,
0001
0001
0001
0000
,
1000
0000
0010
0000
,
1000
1000
1000
0000
,
0001
0000
0100
0000
,
0001
0000
0001
0000
,
1000
1000
1000
0000
,
0001
0001
0001
0000
,
1001
0000
0000
0000
,
0010
0000
0100
0000
,
0010
0000
0000
0000
,
1000
0000
0100
0000
,
1000
0000
0000
0000
,
0001
0000
0100
0000
,
0001
0000
0100
0000
,
2002
0000
3003
0000
,
0001
0000
0001
0000
,
1000
0000
1000
0000
,
0010
0000
0010
0000
,
0100
0000
0100
0000
,
0001
0000
0001
0000
,
1000
0000
1000
0000
,
0100
0100
0100
0000
,
1000
1000
1000
0000
,
0010
0000
0100
0000
,
0010
0000
0010
0000
,
1000
0000
0001
0000
,
1000
0000
1000
0000
,
0001
0001
0001
0000
,
0100
0000
0010
0000
,
0100
0100
0100
0000
,
1001
0000
0000
0000
,
0110
0000
0010
0000
,
0100
0000
0010
0000
,
1000
0000
1000
0000
,
0001
1000
0001
0000
,
1001
0000
0000
0000
;

//--------------- dance-single - Alex ----------------
#NOTES:
     dance-single:
     Alex:
     Medium:
     5:
     0,0,0,0,0:
0000
0000
0000
0000
,
0000
0000
0000
0000
,
0000
0000
0000
0000
,
0001
1000
0001
1000
,
0010
0100
0010
0100
,
0001
0010
0100
1000
,
0001
0001
1000
1000
,
1001
0000
0000
0000
1001
0000
0000
0010
,
0100
0000
1001
0000
,
0110
0000
0000
0000
0110
0000
0000
0100
,
0010
0000
1001
0000
,
0001
0010
0100
1000
,
0001
0001
1000
1000
,
0001
0010
0001
0100
,
0010
0010
0100
0100
,
0001
1000
0010
1010
,
1000
0001
1000
1100
,
1000
0001
0100
0110
,
0100
0001
0010
0011
,
0002
0003
2000
3000
,
0001
1000
0010
0100
,
0001
0000
1000
0000
,
0001
1000
0001
0000
1000
0001
1000
0000
,
1001
0000
0110
0000
,
0100
0001
0010
0100
,
1000
1000
0010
0010
,
1000
0001
1000
0010
,
1010
0000
1000
0001
,
0101
0000
0100
0010
,
0110
0000
1001
0000
,
0220
0000
0330
0000
,
0100
0100
0001
0001
,
1000
0010
1000
0000
,
0001
0100
0010
0100
,
0001
1000
0100
0000
,
1000
0001
0010
0001
,
1000
0010
1000
0000
,
0001
1000
0001
0000
1000
0000
0001
0000
,
1000
0100
1000
0000
1001
0000
0000
0000
,
0010
0100
0001
0011
,
0001
1000
0010
1010
,
1000
0001
0100
0110
,
0100
0001
0010
0001
,
2000
3000
0020
0030
,
0100
0001
0010
0001
,
0101
0000
0110
0000
,
1000
0010
1000
0000
0001
0010
0001
0000
,
1000
0100
1000
0001
,
0100
0010
1000
0001
,
0010
0001
1000
0010
,
0100
0010
0100
0000
0010
0100
0010
0000
,
1001
0000
0000
0000
;

//--------------- dance-single - Alex ----------------
#NOTES:
     dance-single:
     Alex:
     Hard:
     7:
     0,0,0,0,0:
0000
0000
0000
0000
,
0000
0000
0000
0000
,
0000
0000
0000
0000
,
0000
0001
1000
0100
0000
1000
0001
0100
,
0000
0010
1000
0001
0000
0010
0001
1000
,
0000
0010
1000
0100
0000
0010
0001
0100
,
0000
0010
0100
0001
0100
0010
0100
0001
,
0000
1000
0001
1000
0000
0001
0100
0001
,
0000
1000
0010
1000
0000
0100
0010
0100
,
0000
0010
0001
0010
0000
0001
1000
0010
,
2002
0000
3003
1001
,
0001
1000
0100
0000
1000
0001
0100
0000
,
0001
0010
0001
0010
0001
0000
0100
0000
,
0010
1000
0010
0000
1000
0100
1000
0000
,
0001
1000
0100
1000
0001
0000
0100
0000
,
0001
0000
0000
1000
0000
0000
0001
0000
0000
0000
1000
0000
0010
0000
1000
0000
,
0001
0000
0000
1000
0000
0000
0002
0000
0000
0000
0003
0000
0000
0000
0000
0000
,
0100
0000
0000
0010
0000
0000
0100
0000
0000
0000
0001
0000
0010
0000
0001
0000
,
1000
0000
0010
1000
0000
1000
0001
1000
,
0100
1000
0100
0000
1000
0001
1000
0000
,
0000
0001
0100
0010
0100
0001
0100
0010
,
0100
0000
0001
0000
1000
0100
0010
0001
,
1000
0000
1001
0000
,
0001
0000
1000
0000
0010
0100
0010
0000
,
1000
0000
0001
0000
1000
0100
0010
0001
,
0100
0000
0010
0000
0100
0001
0010
0001
,
1000
0010
0100
0001
,
1001
0000
0001
0000
1000
0001
1000
0001
,
1000
0000
0010
0000
1000
0100
1000
0100
,
1000
0000
0001
0000
0100
0010
0100
0010
,
0110
0000
1001
0000
,
0001
0010
0001
0000
0100
0010
0100
0000
,
0001
1000
0010
0100
0002
0000
0003
0000
,
1000
0100
1000
0000
0001
0010
0001
0000
,
1000
0010
1000
0010
2000
0000
3000
0000
,
0001
0010
0001
0000
0100
0001
0100
0000
,
0010
0100
0010
0100
0000
0100
0001
1000
,
0010
0100
0001
1000
0000
0001
1000
0001
,
2002
0000
3003
0000
,
0001
0000
0000
1000
0000
0000
0001
0000
0000
0000
1000
0000
0010
0000
1000
0000
,
0001
0000
0000
1000
0000
0000
0200
0000
0000
0000
0300
0000
0000
0000
0000
0000
,
1000
0000
0000
1000
0000
0000
0000
0001
0000
0000
0100
0000
0010
0000
0100
0000
,
0001
0000
0001
0010
0000
0001
1000
0010
,
0100
0001
0100
0000
0010
1000
0010
0000
,
0000
1000
0001
0010
0001
1000
0010
0100
,
0001
1000
0100
0010
,
0001
0100
0010
0000
1000
0100
0010
0000
,
0000
0001
0100
0001
0000
0010
0001
0010
,
0000
0001
1000
0010
0100
0001
1000
0100
,
0000
0010
0001
0100
0000
0010
1000
0001
,
0000
1000
0010
1000
0001
1000
0010
1000
,
1001
0000
0000
0000
;

//--------------- dance-single - Alex ----------------
#NOTES:
     dance-single:
     Alex:
     Challenge:
     9:
     0,0,0,0,0:
0000
0000
0000
0000
,
0000
0000
0000
0000
,
0000
0000
0000
0000
,
0001
1000
0010
1000
0001
1000
0100
1000
,
0001
0100
0010
0100
0001
0010
0100
1000
,
0001
0100
0010
0100
0001
0010
0001
1000
,
0010
0100
0001
1000
0100
0010
0001
1000
,
0000
0001
0100
0010
0000
0100
0001
1000
,
0100
0010
0000
0001
0100
0010
0000
0100
,
0001
0010
0001
0100
0010
0100
0001
1000
,
0040
0400
0000
0000
0000
0000
0000
0000
0000
0000
0000
0000
0330
0000
0000
0000
,
1000
0100
0010
0001
0100
0010
0100
0001
,
0010
0010
0001
0001
1000
0010
1000
1000
,
0001
1000
0100
0010
0001
0100
0010
1000
,
0001
0100
0001
0100
0001
0000
0100
0010
0000
0010
0100
0000
0001
0000
1000
0000
,
0010
0000
0000
1000
0000
0000
0001
0000
0000
0000
1000
0000
0100
0000
0010
0000
,
0001
0100
0010
0000
0100
0001
1000
0001
,
0010
0000
0000
0001
0000
0000
0100
0000
0000
0000
0010
0000
1000
0000
0100
0000
,
0010
0000
0001
0100
0000
0100
0010
0100
,
0001
1000
0010
0000
1000
0100
1000
0000
,
0001
0100
0010
0100
0001
0010
0100
1000
,
0001
0000
0100
0001
0100
0000
0010
0000
1000
0000
0001
0000
1000
0000
0100
0000
,
1000
0100
1000
0100
1000
0000
1000
0010
0000
0010
1000
0000
0001
1000
0001
1000
,
0001
0000
0000
0000
0100
0000
0000
0001
0100
0000
0010
0000
0000
0000
0000
0000
,
0100
0001
1000
0100
0010
0001
1000
0010
,
1000
0000
0001
1000
0000
0000
0001
0000
0100
0000
0010
0000
0100
0000
0001
0000
,
1000
0000
0010
0000
0100
0001
0010
0001
,
0100
0000
0000
0010
0000
0000
1000
0000
0000
0000
0001
1000
0100
0000
0010
0000
,
0001
0000
0000
0100
0000
0000
0010
0000
0000
0000
0100
0000
0001
0000
1000
0000
,
0001
0000
0000
0000
0010
0000
0001
0010
0000
0000
0001
0000
0000
0000
0100
0000
,
0110
0000
0001
1000
0010
0100
1001
1001
,
0000
0001
1000
0010
0100
0001
1000
0100
,
0010
0001
0100
0010
1000
0001
0100
0010
,
0000
0100
0001
0010
0001
1000
0010
1000
,
0001
1000
0100
1000
0001
0001
0100
0100
,
0000
0010
1000
0001
0010
0100
1000
0001
,
0100
0010
0100
0001
0000
1000
0100
0010
,
0001
0000
1000
0010
1000
0000
0001
0000
0000
0000
1001
0000
1001
0000
1001
0000
,
0001
0000
0100
0000
0010
0000
0100
0000
0004
4000
0000
0000
0000
0000
3003
0000
,
0001
0000
0000
0010
0000
0000
0001
0000
0000
0000
0100
0000
0010
0000
0100
0000
,
0001
1000
0100
0000
0010
0001
0100
0010
,
0100
0000
0000
0100
0000
0000
0001
0000
0000
0000
1000
0000
0001
0000
1000
0000
,
0010
0000
1000
0001
0000
0001
0100
0010
,
0100
0001
0010
0000
0001
0100
0001
0000
,
0100
0010
0100
0001
0010
0100
1000
0001
,
0100
0000
0010
1000
0001
1000
0010
0000
,
0100
0001
0100
0001
0100
0000
0000
0000
0001
1000
0001
1000
0001
1000
0001
1000
,
0001
0010
1000
0010
0001
0010
1000
0010
,
0001
0100
1000
0100
0001
0100
1000
0100
,
0001
0010
0001
1000
0010
1000
0001
0100
,
0010
0100
0010
0100
0010
0000
0100
0001
0000
0001
0100
0000
0010
1000
0001
2000
,
0020
0000
0000
0000
,
0000
3030
0000
0000
0000
0000
0000
0000
;
