#TITLE:Com'Back;
#SUBTITLE:;
#ARTIST:Sechskies;
#TITLETRANSLIT:;
#SUBTITLETRANSLIT:;
#ARTISTTRANSLIT:;
#GENRE:;
#CREDIT:;
#MUSIC:Com'Back.ogg;
#BANNER:Com'Back.png;
#BACKGROUND:Com'Back-BG.png;
#CDTITLE:;
#SAMPLESTART:10.723;
#SAMPLELENGTH:16.519;
#SELECTABLE:YES;
#OFFSET:-0.138;
#BPMS:0.000=158.000;
#STOPS:;
#BGCHANGES:;
#FGCHANGES:;

//--------------- dance-single - Alex ----------------
#NOTES:
     dance-single:
     Alex:
     Beginner:
     1:
     0,0,0,0,0:
0000
0000
0000
0000
,
0000
0000
0000
0000
,
1000
0000
0000
0000
,
1000
0000
0000
0000
,
0001
0000
0000
0000
,
0001
0000
0000
0000
,
1000
0000
0000
0000
,
0110
0000
0000
0000
,
0010
0000
0000
0000
,
0100
0000
0000
0000
,
0100
0000
0000
0000
,
0001
0000
0000
0000
,
0001
0000
0000
0000
,
1000
0000
0000
0000
,
0010
0000
0000
0000
,
1001
0000
0000
0000
,
0001
0000
0000
0000
,
1000
0000
0000
0000
,
0001
0000
0000
0000
,
0010
0000
0000
0000
,
0001
0000
0000
0000
,
0100
0000
0000
0000
,
0010
0000
0000
0000
,
1000
0000
0000
0000
,
1000
0000
0000
0000
,
0001
0000
0000
0000
,
0100
0000
0000
0000
,
0110
0000
0000
0000
,
0010
0000
0000
0000
,
0010
0000
0000
0000
,
1000
0000
0000
0000
,
1000
0000
0000
0000
,
0001
0000
0000
0000
,
0001
0000
0000
0000
,
0100
0000
0000
0000
,
0010
0000
0000
0000
,
1000
0000
0000
0000
,
1000
0000
0000
0000
,
0001
0000
0000
0000
,
0001
0000
0000
0000
,
0100
0000
0000
0000
,
0100
0000
0000
0000
,
0010
0000
0000
0000
,
1000
0000
0000
0000
,
0001
0000
0000
0000
,
0001
0000
0000
0000
,
1000
0000
0000
0000
,
1000
0000
0000
0000
,
0010
0000
0000
0000
,
0010
0000
0000
0000
,
1000
0000
0000
0000
,
0001
0000
0000
0000
,
1001
0000
0000
0000
,
0100
0000
0000
0000
,
0100
0000
0000
0000
,
0010
0000
0000
0000
,
0010
0000
0000
0000
,
1000
0000
0000
0000
,
0001
0000
0000
0000
,
0001
0000
0000
0000
,
1000
0000
0000
0000
,
1001
0000
0000
0000
,
0010
0000
0010
0000
,
0010
0000
0000
0000
;

//--------------- dance-single - Alex ----------------
#NOTES:
     dance-single:
     Alex:
     Easy:
     3:
     0,0,0,0,0:
0000
0000
0000
0000
,
0000
0000
0000
0000
,
0001
0000
0001
0000
,
0001
0000
0000
0000
,
1000
0000
1000
0000
,
1000
0000
0000
0000
,
2002
0000
3003
0000
,
0010
0000
0010
0000
,
1000
0000
1000
0000
,
0001
0000
0001
0000
,
0100
0000
0100
0000
,
1001
0000
0000
0000
,
1001
0000
0000
0000
,
0010
0000
0010
0000
,
0010
0000
0000
0000
,
0100
0000
0100
0000
,
0001
0000
0001
0000
,
1000
0000
1000
0000
,
0010
0000
0010
0000
,
1001
0000
0000
0000
,
1001
0000
0000
0000
,
0001
0000
0001
0000
,
0001
0000
0000
0000
,
1000
0000
0001
0000
,
1000
0000
0010
0000
,
0100
0000
0100
0000
,
0001
0000
0001
0000
,
1001
0000
0000
0000
,
0010
0010
0010
0000
,
0100
0000
0100
0000
,
0001
0001
0001
0000
,
1000
0000
1000
0000
,
0100
0000
0100
0000
,
1000
0000
1000
0000
,
0010
0010
0010
0000
,
2002
0000
3003
0000
,
0001
0000
0001
0000
,
1000
0000
1000
0000
,
0010
0000
0010
0000
,
0100
0000
0100
0000
,
1001
0000
0000
0000
,
1001
0000
0000
0000
,
0001
0000
1000
0000
,
0001
0000
0000
0000
,
1000
0000
1000
0000
,
0010
0000
0010
0000
,
0100
0000
0100
0000
,
0001
0000
0001
0000
,
1001
0000
0000
0000
,
1001
0000
0000
0000
,
0001
0000
1000
0000
,
0001
0000
1000
0000
,
2002
0000
3003
0000
,
0010
0010
0010
0000
,
1000
0000
0001
0000
,
1000
1000
1000
0000
,
0001
0000
1000
0000
,
0001
0001
0001
0000
,
0100
0000
0100
0000
,
0010
0010
0010
0000
,
1000
0000
1000
0000
,
1001
0000
0000
0000
,
0001
0000
1000
0000
,
0001
0000
0000
0000
;

//--------------- dance-single - Alex ----------------
#NOTES:
     dance-single:
     Alex:
     Medium:
     5:
     0,0,0,0,0:
0000
0000
0000
0000
,
0000
0000
0000
0000
,
0001
1000
0010
1000
,
0001
1000
0100
0000
,
1000
0001
0100
0010
,
0100
0000
0100
0000
,
2002
0000
3003
0000
,
0001
1000
0010
0100
,
0001
0001
1000
1000
,
0100
0010
0001
0100
,
0010
0100
0001
1000
,
0001
0000
1000
0100
,
1000
0000
0001
0100
,
0100
0001
1000
0010
,
0220
0000
0330
0000
,
0100
0100
0001
0001
,
0010
0001
1000
1000
,
0010
1000
0001
0100
,
0010
0100
0001
1000
,
0100
0000
0010
0001
,
0010
0000
0001
0100
,
0010
0100
0001
1000
,
2002
0000
3003
0000
,
0001
0001
1000
1000
,
0010
0010
0100
0100
,
0001
0010
0100
0010
,
0001
0100
0010
0100
,
1001
0000
0000
0000
,
0001
1000
0001
0000
,
1000
0010
1000
0000
,
0001
0100
0010
0100
,
0001
0000
0001
1000
,
0001
0000
1000
0010
,
1000
0000
0001
0010
,
0001
0100
0010
0100
,
2002
0000
3003
0000
,
0001
1000
0010
1000
,
0001
0001
1000
1000
,
0001
0010
0001
0100
,
0010
0100
0100
0001
,
1000
0000
0001
0010
,
0001
0000
1000
0010
,
0010
1000
0001
0100
,
0220
0000
0330
0000
,
0100
0100
0001
0001
,
1000
0100
1000
0001
,
0001
0100
0010
0100
,
0001
0001
1000
0010
,
1000
0000
0001
0010
,
0001
0000
1000
0100
,
0010
0001
0100
0010
,
0010
1000
0001
0100
,
1001
0000
0000
0000
,
0001
1000
0001
1000
,
0001
1000
0001
1000
,
0010
0100
0010
0100
,
0010
0100
0010
0100
,
0001
0010
0001
0001
,
0100
0010
0100
0100
,
0001
1000
0100
1000
,
0001
0100
0010
0100
,
1001
0000
0000
0000
,
0110
0000
0110
0110
,
1001
0000
0000
0000
;

//--------------- dance-single - Alex ----------------
#NOTES:
     dance-single:
     Alex:
     Hard:
     7:
     0,0,0,0,0:
0000
0000
0000
0000
,
0000
0000
0000
0000
,
0001
1000
0001
1000
0010
0100
0001
1000
,
0010
0000
0000
0000
0000
0001
1000
0000
,
0001
0100
0010
0100
0001
0100
0010
0100
,
0000
0001
1000
0000
0000
0001
1000
0000
,
0010
0100
0000
0001
1000
0100
0010
0000
,
0001
0000
0100
0000
0010
0100
0010
0000
,
1000
0100
0010
0001
,
1000
0010
1000
0000
0001
0100
0001
0010
,
0001
0000
0000
0000
1000
0000
0001
0100
,
0010
0000
1000
0001
,
1001
0000
0000
0000
0001
1000
0100
1000
,
0001
0100
0010
0100
,
0001
0010
0100
1000
0001
0010
0001
0000
,
1000
0000
0010
0000
1000
0010
1000
0000
,
0001
0010
0100
0010
,
0001
0100
0001
0000
0100
0010
1000
0001
,
0010
0000
0000
0000
1000
0000
1000
0001
,
1000
0000
0001
0100
,
0110
0000
0000
0000
0010
1000
0100
0010
,
0001
1000
0010
1000
,
2002
0000
3003
0000
,
0001
1000
0010
0000
0100
0001
1000
0000
,
0100
0010
0001
0000
1000
0010
1000
0000
,
0001
0010
0001
0100
0001
0010
0001
0000
,
1000
0010
1000
0001
1000
0000
0100
0000
,
1001
0000
0000
0000
,
0001
0000
0100
0000
0010
0100
0010
0000
,
0100
0000
0001
0000
1000
0100
1000
0000
,
0001
0000
1000
0000
0010
1000
0010
0000
,
1000
0000
0001
0000
1000
0001
1000
0000
,
0001
0010
0001
0001
,
0100
0010
0100
0100
,
0001
1000
0100
0000
1000
0001
0100
0000
,
0010
1000
0100
0010
0001
0100
0010
0000
,
0100
0000
0001
0000
1000
0001
1000
0000
,
0001
0000
0010
0000
0001
0010
0001
0000
,
0100
0000
0010
0000
0100
0001
1000
0100
,
0010
0000
0000
0000
0000
0000
0000
0001
,
0100
0000
0010
0100
,
0101
0000
0001
1000
,
0010
0100
0001
1000
,
0100
0010
0001
0100
0010
0100
0001
1000
,
0010
0000
1000
0000
0001
1000
0001
0000
,
1000
0000
0100
0000
1000
0100
1000
0000
,
0001
0000
0100
0000
0010
0100
0010
1000
,
0001
0000
0000
0000
0000
0000
0000
1000
,
0010
0000
1000
0001
,
1000
0000
0000
0000
0001
0100
0010
0100
,
0001
1000
0100
0010
,
0001
0100
0001
0000
1000
0010
1000
0000
,
2002
0000
3003
0000
,
0001
1000
0001
1000
0001
0000
1000
0000
,
0010
0100
0010
0100
0010
0000
0100
0000
,
0001
0010
0001
0010
0001
0000
1000
0000
,
0010
1000
0010
1000
0010
0000
1000
0000
,
0001
1000
0100
1000
0001
0000
1001
0000
,
0001
1000
0010
0100
0001
0000
1001
0000
,
0001
0010
0001
0000
0100
0001
0100
0000
,
0010
1000
0100
0010
0001
0100
0010
0000
,
1001
0000
0000
0000
,
0001
1000
0000
0001
1000
0001
1000
0000
,
1001
0000
0000
0000
;

//--------------- dance-single - Alex ----------------
#NOTES:
     dance-single:
     Alex:
     Challenge:
     9:
     0,0,0,0,0:
0000
0000
0000
0000
,
0000
0000
0000
0000
0000
0000
0000
0000
0000
0000
0001
1000
0001
1000
0001
1000
,
0001
1000
0010
0100
0001
0010
0100
1000
,
0001
0100
0010
1000
0100
0110
0110
0000
,
0010
0001
0100
0010
0100
0001
1000
0010
,
0100
0001
1001
0000
0001
1000
1010
0000
,
0110
1001
0000
0001
0010
0100
1000
0000
,
1001
0000
0110
0000
0010
1000
0100
0000
,
0010
0001
0100
0010
0100
0001
0010
0000
,
0001
1000
0010
1000
0001
1000
0100
0010
,
0001
0000
0000
0000
0100
0000
0000
0000
0010
0000
0100
0000
0001
0000
1000
0001
,
1000
0000
0000
0000
0001
1000
0010
0100
,
0001
0000
0000
0000
0000
0000
0000
0000
1000
0000
0000
0100
0000
0000
0010
0000
,
0001
0000
0100
0010
0000
0100
0000
0001
,
1000
0001
1000
0000
0001
0000
0100
0000
0010
0100
0010
0000
1000
0000
0100
0000
,
0110
0000
0011
0000
0001
0100
0010
0000
,
0100
0001
1000
0100
0010
0001
0100
0000
,
0001
0010
0100
1000
0001
0100
0010
1000
,
0001
0000
0000
1000
0000
0000
0000
0000
0001
0000
0100
0000
0001
0000
0001
0100
,
0001
0000
0000
0000
0100
0010
1000
0001
,
0010
0000
0000
0000
0000
0000
0000
0000
0001
0000
0000
1000
0000
0000
0010
0000
,
0100
0000
0001
0010
0000
0001
0000
1000
,
0010
1000
0010
0000
1000
0100
1000
0000
0001
0010
0001
0000
0100
0001
0100
0000
,
0001
0000
0100
0000
0010
0000
0100
0000
0001
0100
0001
0000
1000
0000
0010
0000
,
1000
0000
0001
0000
1000
0000
0100
0000
0010
0001
0010
0000
0001
0000
0100
0000
,
0010
0100
0010
0000
1000
0000
0001
0000
1000
0100
1000
0000
0001
0000
0100
0000
,
0010
0100
0010
0000
1000
0000
0001
0000
1000
0100
1000
0000
0001
0000
0100
0000
,
0110
0000
0000
0000
,
1001
1001
0110
0110
,
0011
0011
1100
1100
,
0101
1010
1100
0110
,
0011
1001
0110
1001
,
0001
0100
0001
0000
0100
0010
0100
0000
,
0001
0010
0001
0000
1000
0010
1000
0000
,
0001
1000
0100
0010
0001
0100
0010
0100
,
0001
0010
0100
1000
0001
0100
0010
1000
,
1001
0000
0110
0000
0010
1000
0100
0000
,
1000
0010
0100
0001
0010
0001
1000
0000
,
0001
0100
0001
0010
0100
1000
0001
0100
,
0010
0000
0000
0000
0100
0000
0000
0000
0001
0000
1000
0000
0100
0000
0010
0100
,
0010
0000
0000
0000
0001
0100
0010
0100
,
0001
0000
0000
0000
0000
0000
0000
0000
1000
0000
0000
0001
0000
0000
1000
0000
,
0010
0000
0100
0001
0000
0010
0000
0001
,
0100
0001
0100
0000
0010
0000
1000
0000
0001
1000
0001
0000
1000
0000
0100
0000
,
1100
0000
1010
0000
0010
1000
0010
0000
,
1000
0001
0010
0001
1000
0010
0100
0000
,
0001
1000
0100
0010
0001
0100
0010
0100
,
0001
0000
0000
0000
1000
0000
0000
0000
0010
0000
0100
0000
0001
0000
1000
0001
,
1000
0000
0000
0000
0001
1000
0001
1000
,
0100
0000
0000
0000
0000
0000
0000
0000
1000
0000
0000
0001
0000
0000
1000
0000
,
0010
0000
0100
0001
0000
0100
0000
0010
,
1000
0010
1000
0000
0001
0010
0001
0000
1000
0100
1000
0000
0001
0100
0001
0000
,
0220
0000
0330
0000
,
0001
0000
0010
0000
0001
0000
0010
0000
0001
0010
0001
0000
0001
0000
0100
0000
,
0010
0000
0100
0000
0001
0000
1000
0000
0100
1000
0100
0000
1000
0000
1000
0000
,
0010
0000
1000
0000
0001
0000
0100
0000
0010
0100
0010
0000
0100
0000
0001
0000
,
0010
0000
0100
0000
1000
0000
0001
0000
1000
0010
1000
0000
0001
0000
1000
0000
,
0100
0010
0100
0000
0001
0000
1000
0000
0010
1000
0010
0000
1000
0000
0001
0000
,
0010
0001
0010
0000
0001
0000
0001
0000
0100
0010
0100
0000
0001
0000
1000
0000
,
0100
1000
0100
0000
1000
0000
1000
0000
0010
1000
0010
0000
1000
0000
0001
0000
,
0010
0001
0010
0000
0001
0000
0100
0000
0001
0100
0001
0000
0100
0000
0010
0000
,
0220
0000
0000
0330
,
1001
1001
0000
0001
1000
0010
0100
0000
,
1001
0000
0000
0000
;
