#TITLE:Cleaner;
#SUBTITLE:;
#ARTIST:Doin;
#TITLETRANSLIT:;
#SUBTITLETRANSLIT:;
#ARTISTTRANSLIT:;
#GENRE:;
#CREDIT:;
#MUSIC:Cleaner.ogg;
#BANNER:Cleaner.png;
#BACKGROUND:Cleaner-BG.png;
#CDTITLE:;
#SAMPLESTART:28.957;
#SAMPLELENGTH:16.102;
#SELECTABLE:YES;
#OFFSET:-0.028;
#BPMS:0.000=203.000;
#STOPS:;
#BGCHANGES:;
#FGCHANGES:;

//--------------- dance-single - Alex ----------------
#NOTES:
     dance-single:
     Alex:
     Beginner:
     1:
     0,0,0,0,0:
0000
0000
0000
0000
,
0000
0000
0000
0000
,
0000
0000
0000
0000
,
0000
0000
0000
0000
,
0000
0000
0100
0000
,
0000
0000
0000
0000
,
0000
0000
0001
0000
,
0000
0000
0000
0000
,
0000
0000
1001
0000
,
0000
0000
0000
0000
,
0000
0000
0010
0000
,
0000
0000
0000
0000
,
0000
0000
1000
0000
,
0000
0000
0000
0000
,
0000
0000
0100
0000
,
0000
0000
0000
0000
,
0000
0000
0010
0000
,
0000
0000
0000
0000
,
0000
0000
0100
0000
,
0000
0000
0000
0000
,
0000
0000
1001
0000
,
0000
0000
1001
0000
,
0000
0000
2002
0000
,
0000
0000
3003
0000
,
0000
0000
0001
0000
,
0000
0000
1000
0000
,
0000
0000
0001
0000
,
0000
0000
0100
0000
,
0000
0000
0000
0000
,
0000
0000
1000
0000
,
0000
0000
1000
0000
,
0000
0000
0001
0000
,
0000
0000
0100
0000
,
0000
0000
0001
0000
,
0000
0000
0001
0000
,
0000
0000
1000
0000
,
0000
0000
0000
1001
,
0000
0000
0000
1001
,
0000
0000
0010
0000
,
0010
0000
0020
0000
,
0000
0000
0030
0000
,
0000
0000
0000
0000
,
0000
0000
1000
0000
,
0000
0000
0000
0000
,
0000
0000
0010
0000
,
0000
0000
0000
0000
,
0000
0000
0100
0000
,
0000
0000
0100
0000
,
0000
0000
1001
0000
,
0000
0000
0000
0000
,
0000
0000
0001
0000
,
0000
0000
0000
0000
,
0000
0000
1000
0000
,
0000
0000
0010
0000
,
0010
0000
0010
0000
,
0000
0000
0100
0000
,
0000
0000
0010
0000
,
0000
0000
0010
0000
,
0000
0000
1000
0000
,
0000
0000
1000
0000
,
0000
0000
0001
0000
,
0000
0000
0000
0000
,
0000
0000
0000
0000
,
0000
0000
0000
0000
,
0000
0000
0100
0000
,
0000
0000
0000
0000
,
0000
0000
0001
0000
,
0000
0000
0000
0000
,
0000
0000
1001
0000
,
0000
0000
0000
0000
,
0000
0000
0010
0000
,
0000
0000
0010
0000
,
0000
0000
0200
0000
,
0000
0000
0300
0000
,
0000
0000
0001
0000
,
0000
0000
0001
0000
,
0000
0000
0100
0000
,
0000
0000
0100
0000
,
0000
0000
0000
0000
,
0000
0000
0010
0000
,
0000
0000
1000
0000
,
0000
0000
0010
0000
,
0000
0000
1000
0000
,
0000
0000
1000
0000
,
0000
0000
0001
0000
,
0000
0000
0001
0000
,
0000
0000
0000
1001
,
0000
0000
0000
1001
,
0000
0000
0010
0000
,
0010
0000
0020
0000
,
0000
0000
0030
0000
,
0000
0000
0000
1001
;

//--------------- dance-single - Alex ----------------
#NOTES:
     dance-single:
     Alex:
     Easy:
     3:
     0,0,0,0,0:
0000
0000
0000
0000
,
0000
0000
0000
0000
,
0000
0000
0000
0000
,
0000
0000
0000
0000
,
0000
0000
0200
0000
,
0000
0300
0000
0000
,
0000
0000
0020
0000
,
0000
0000
0030
0000
,
0000
0000
1001
0000
,
0000
0001
1000
0000
,
0001
0000
0100
0000
,
0010
0100
0010
0000
,
1000
0000
1001
0000
,
0000
0000
0100
0100
,
0100
0100
0000
0000
,
0001
0000
1000
0000
,
0000
0000
1001
0000
,
0000
0010
0100
0000
,
0000
0000
0001
0000
,
1000
0000
0001
0000
,
0001
0000
1000
0100
,
1000
0001
0100
0000
,
0100
0000
2002
0000
,
0000
0000
3003
0000
,
0000
0000
0001
0000
,
1000
0000
0001
0000
,
0001
0000
1000
0000
,
0010
0000
0100
0000
,
0100
0000
0200
0000
0000
0300
0000
0000
,
0010
0000
0010
0000
,
1000
0000
0001
0000
,
0010
0000
0001
0000
,
0001
0000
1000
0000
,
0001
0000
0100
0000
,
0100
0000
0001
0000
,
1000
0000
0010
0000
,
0100
0000
0200
0000
0000
0300
1000
0000
,
0000
0001
0000
1000
,
0000
0001
0001
0000
,
0001
0000
1000
0001
,
1000
0000
2002
0000
,
0000
0000
3003
0000
,
0000
0000
0010
0000
,
0010
0000
1000
0000
,
0100
0000
0020
0000
,
0030
0000
0002
0000
,
0003
0000
2002
0000
,
0000
0000
3003
0000
,
0000
0000
1001
0000
,
0000
1001
0000
0000
0000
0000
0000
0000
,
0010
0000
0010
0000
,
0000
0000
0000
0100
,
0100
0000
0100
0000
,
0000
0000
0001
0001
,
0001
0001
0000
0000
,
1000
0000
0001
0000
,
0000
0000
1001
0000
,
0001
0000
1000
0000
,
0001
0000
1000
0000
,
0010
0000
0100
0000
,
0010
0000
0200
0000
,
0000
0000
0300
0000
,
0000
0000
0000
0000
,
0000
0000
0000
0000
,
0000
0000
0001
0000
,
0001
0000
0001
0000
,
0000
0000
1000
0000
,
1000
0000
1000
0000
,
0000
0000
0010
0000
,
1000
0000
0010
0000
,
0000
0000
1000
0000
,
0001
0000
1000
0000
,
0001
0000
0200
0000
,
0000
0000
0300
0000
,
0000
0000
0001
0000
,
0001
0000
1000
0000
,
1000
0000
0010
0000
,
0010
0000
0100
0000
,
0010
0000
0020
0000
0000
0030
0000
0000
,
0100
0000
0001
0000
,
0100
0000
0100
0000
,
0001
0000
2002
0000
,
3003
0000
0001
0000
,
1000
0000
0001
0001
,
0001
0000
1000
0000
,
0001
0000
1000
0000
,
0010
0000
0020
0000
0000
0030
0100
0000
,
0100
0100
0100
0100
,
0100
0100
0100
0000
,
0100
0000
2002
0000
,
0000
0000
3003
0000
,
0000
0000
0000
1001
;

//--------------- dance-single - Alex ----------------
#NOTES:
     dance-single:
     Alex:
     Medium:
     6:
     0,0,0,0,0:
0000
0000
0000
0000
,
0000
0000
0000
0000
,
0000
0000
0000
0000
,
0000
0000
0000
0000
,
0000
0000
2000
0000
,
0000
0000
0000
0000
,
3000
0000
0002
0000
,
0000
0000
0000
0000
0003
0200
0000
0000
,
0000
0300
2002
0000
,
3003
0001
2000
3000
,
0010
0000
0100
0000
0002
0000
0003
2000
,
0000
3000
0001
0000
0020
0000
0030
0000
,
0001
1000
0020
0000
,
0030
0000
1001
1001
,
1001
1001
0001
0100
,
0020
0000
0030
0000
2000
0000
3000
0002
,
0000
0003
1000
0000
1001
0000
0000
0000
,
0001
1000
0020
0030
,
0100
0100
0001
0010
,
0100
0010
0002
0003
,
2000
3000
0001
1000
,
0010
0000
0100
0000
0002
0000
0003
0200
,
0000
0300
0010
0000
2002
0000
0000
0000
,
0000
0000
3003
0000
,
0000
0000
0001
0001
,
1000
1000
0010
0010
,
0100
0100
0001
0010
,
0100
1000
0001
0100
,
0010
0000
0200
0000
0000
0300
1001
0000
,
0001
0001
1000
1000
,
0010
0010
0100
0001
,
0010
0100
1000
0001
,
1000
1000
0001
0100
,
0001
0001
1000
1000
,
0010
0100
0001
0010
,
0100
0010
0001
0100
,
0010
0000
0200
0000
0000
0300
0010
0000
,
1001
0100
1001
0010
,
1001
0100
2002
3003
,
2002
3003
0101
1010
,
1100
0011
0101
0000
,
0001
1000
0020
0030
,
0200
0300
0001
1000
,
0100
0010
0002
0003
,
2000
3000
0001
0100
,
0010
0000
0100
0000
0002
0000
0003
2000
,
0000
3000
0010
0000
0200
0000
0300
0002
,
0000
0003
1000
0000
0020
0000
0030
0000
,
0200
0300
1001
0000
,
0000
0110
0000
0000
0000
0000
0000
0000
,
1001
0000
0110
0000
,
0000
0000
0000
0011
,
0101
0000
0110
0000
,
0000
1010
0000
0000
1100
0000
1100
0000
,
0011
0011
0000
0000
,
0101
0000
0110
0000
,
0000
0000
1001
0001
,
0100
0010
1000
0100
,
0010
0100
1000
0001
,
0100
0010
0100
0001
,
1000
0010
0220
0000
,
0000
0000
0000
0000
,
0000
0000
0000
0000
,
0000
0000
0330
0000
,
0000
0000
0100
0100
,
0001
0001
1000
1000
,
0001
0001
0010
0100
,
0010
0001
0100
0010
,
0100
0001
1001
1000
,
0100
1000
1000
0010
,
0100
0001
0010
0100
,
1000
0001
0100
0010
,
1000
0001
2002
0000
,
0000
0000
3003
0000
,
0000
0000
0001
0001
,
1000
1000
0010
0010
,
0100
0100
0001
0010
,
0100
0010
0001
0100
,
0010
0000
0200
0000
0000
0300
1001
0000
,
0001
0010
0001
1000
,
0010
0010
1000
1000
,
0001
0100
0101
0101
,
0110
0110
0010
1000
,
0100
1000
0010
0010
,
0100
0100
0001
0010
,
0100
1000
0001
0100
,
0010
0000
0200
0000
0000
0300
0010
0000
,
0010
0100
0100
0001
,
0001
1000
1001
1001
,
0110
0000
0110
0000
0010
0100
0010
0100
,
0010
0100
0010
0100
0010
0000
0000
0000
,
0000
0000
0000
1001
;

//--------------- dance-single - Alex ----------------
#NOTES:
     dance-single:
     Alex:
     Hard:
     9:
     0,0,0,0,0:
0000
0000
0000
0000
,
0000
0000
0000
0000
,
0000
0000
0000
0000
,
0000
0000
0000
0000
,
0000
0000
0002
0000
,
0000
0000
0000
0000
,
0000
0003
0000
0000
0200
0000
0000
0000
,
0000
0000
0300
0000
0000
0020
0000
0000
,
0000
0030
0000
0000
1001
0000
0000
2000
,
0000
3000
0001
0100
0020
0000
0000
0030
,
2000
3000
0002
0003
0020
0000
0030
0002
,
0000
0003
0100
0010
0200
0000
0000
0300
,
0002
0003
2000
3000
0020
0000
0000
0000
,
0030
0200
0000
0300
1001
0000
0110
0000
,
1001
0000
0110
0000
0010
0000
0100
0001
,
0000
0001
1000
0010
0200
0000
0000
0300
,
0002
0003
2000
3000
0020
0000
0000
0030
,
0100
0001
1000
0001
0200
0000
0000
0300
,
0002
0003
2000
3000
0020
0000
0030
0200
,
0000
0301
1000
0010
2000
0000
0000
3000
,
0002
0003
2000
3000
0200
0300
1000
0001
,
0100
0010
1000
0001
0020
0000
0030
0002
,
0000
0003
2000
3000
0200
0000
0300
2000
,
3000
0010
1000
0001
0020
0000
0000
0030
,
0002
0000
0000
0003
1001
0000
0001
1000
,
0010
0000
0100
0001
1000
0000
0100
0010
,
0001
0100
0010
0100
0001
0000
1000
0010
,
1000
0000
0001
0010
0001
0000
0100
0001
,
0100
0010
1000
0002
0000
0003
1001
0000
,
0001
1000
0010
0100
0001
0000
1000
0100
,
1000
0000
0001
0100
0001
0000
1000
0010
,
1000
0001
0010
0001
1000
0000
0001
0100
,
0010
0000
1000
0100
0010
0000
0001
0100
,
0010
0010
1000
0001
0010
0000
0001
1000
,
0001
0000
1000
0100
1000
0000
0010
0010
,
1000
1000
0001
0100
0001
0000
1000
0010
,
0100
0001
1000
0200
0000
0300
1000
0001
,
0010
0100
1000
0001
0100
0010
0100
0001
,
1000
0000
0000
0010
0000
0000
0100
0000
0000
0001
0000
0000
0100
0000
0000
0000
0001
0000
0000
0000
0100
0000
0000
0000
,
0001
0000
0000
0000
1000
0000
0000
0000
0010
0000
0000
0000
0200
0000
0000
0300
0000
0000
0001
0000
0000
1000
0000
0000
,
0010
0100
0001
1000
0200
0000
0000
0300
,
1000
0010
1000
0001
0020
0000
0000
0030
,
0002
0003
2000
3000
0200
0000
0300
2000
,
0000
3000
0010
0100
0002
0000
0000
0003
,
2000
3000
0020
0030
0200
0000
0300
0020
,
0000
0030
1000
0001
0020
0000
0000
0030
,
0002
0003
0200
0300
0020
0000
0030
2000
,
3000
0001
1000
0100
0020
0000
0000
0030
,
0002
0003
2000
3000
1001
0000
0000
0000
,
0000
0011
0000
0000
0000
0000
0000
0000
,
0101
0000
1010
0000
,
0000
0000
0000
0110
,
0110
0000
1001
0000
,
0000
0101
0000
0000
1010
0000
0101
0000
,
0011
1100
0000
0000
,
1001
0000
0220
0000
,
0330
0000
0000
0000
1001
0000
0001
1000
,
0010
0100
0001
0010
0100
1000
0001
0100
,
0010
1000
0100
0010
0100
1000
0001
0100
,
0010
1000
0001
0010
0100
0010
0001
0100
,
0010
1000
0001
1000
2200
0000
0000
0000
,
0000
0000
0000
0000
,
0000
0000
0000
0000
,
0000
0000
3300
0000
,
0000
0000
1001
0001
,
0100
0000
0010
1000
0100
0000
0010
0000
,
0001
0000
0100
0001
0100
0000
0001
1000
,
0001
0000
0010
0001
0010
0000
0001
1000
,
0010
0100
0001
1000
1100
0000
0100
1000
,
0010
0100
0001
0010
0002
0003
2000
3000
,
0020
0030
0100
0001
0101
0000
0110
0000
,
1010
0000
1001
0000
0001
0010
0100
1000
,
0001
0100
0010
0100
2002
0000
0000
0000
,
0000
0000
0000
0000
,
3003
0000
0000
0000
0001
0000
0100
0001
,
0100
0000
0001
0010
0001
0000
1000
0010
,
1000
0001
1000
0100
0010
0000
0001
0100
,
0010
0000
0100
0001
0100
0000
0001
1000
,
0010
0100
0001
0020
0000
0030
1001
0000
,
0001
1000
0010
0100
0001
0000
1000
0100
,
1000
0000
0001
0100
0001
0000
0100
0010
,
0100
0001
0010
0100
1100
0000
0011
0000
,
1100
0000
0011
0000
0001
0100
0010
0100
,
0001
0010
0100
1000
0001
0100
0010
1000
,
0100
0010
0001
0100
0010
0100
0001
0010
,
0100
0010
0001
0100
0010
0100
0001
1000
,
0010
0100
0001
2000
0000
3000
0001
1000
,
0100
0010
0001
0100
0010
0100
0001
1000
,
0010
1000
0001
1000
1001
0000
0110
0000
,
1001
0000
0000
0000
0110
0000
0000
0000
0004
4000
0000
0000
0000
0000
0000
0000
,
0000
0000
3003
0000
,
0000
0000
0000
1111
;

//--------------- dance-single - Alex ----------------
#NOTES:
     dance-single:
     Alex:
     Challenge:
     13:
     0,0,0,0,0:
0000
0000
0000
0000
,
0000
0000
0000
0000
,
0000
0000
0000
0000
,
0000
0000
0000
0000
,
0000
0000
0102
0000
,
0000
0000
0000
0000
,
0000
0003
2001
0000
,
0000
0000
0000
0000
3000
0210
0000
0000
,
0000
0000
0000
0300
2002
0000
3003
0002
,
0000
0003
0200
0320
2030
0000
0000
3000
,
0002
0000
0203
0000
0320
0000
0000
0230
,
0000
0000
0301
0000
0010
0000
0100
0000
1000
0010
0100
0001
2000
0000
0000
0000
,
3001
0000
1001
0000
0020
0000
0130
0001
,
1000
1100
0000
0001
0101
0000
1010
0000
,
0101
0000
0011
0000
1001
0001
0100
0010
,
0110
0100
0001
1000
1100
1000
0010
0100
,
0001
0000
1000
0001
1000
0100
0010
0001
0200
0000
0000
0000
0000
0000
0300
0000
,
0010
1000
0001
0010
0100
1000
0001
0100
0020
0000
0000
0000
0000
0000
2030
0000
,
0000
0000
0000
0000
3002
0000
0000
0000
0103
0010
0000
0000
0100
0010
0100
0001
,
0010
0100
1000
0001
0100
0010
1000
0001
0200
0000
0000
0000
0000
0000
0300
0000
,
0002
0000
0000
0000
2003
0000
0000
0000
3001
0000
0010
0100
1000
0001
0100
0010
,
1000
0001
0010
0001
1000
0010
1000
0001
0100
0000
0000
0000
1001
0000
0110
0000
,
0000
0110
1001
0000
0022
0000
0033
0202
,
0303
0001
1000
0010
0220
0000
0330
0000
,
2002
0000
0000
0000
3003
0000
0000
0000
0001
0010
0001
0000
0100
0000
0010
0000
,
0100
0010
0100
0000
0001
0000
1000
0000
0100
1000
0100
0000
0010
0001
0010
0000
,
0001
1000
0001
1000
0001
0100
0001
0000
1000
0010
1000
0000
0001
0000
0100
0000
,
0010
0100
0001
0000
1000
0000
0100
0000
0010
0001
0100
0000
0010
0100
0001
0000
,
0010
0100
1000
0001
0100
0010
2000
0000
0000
0000
3000
0000
1001
0000
0000
0000
,
0001
0100
0001
0000
0010
0000
0100
0000
1000
0100
1000
0000
0001
0100
0001
0000
,
1000
0010
1000
0001
1000
0100
0010
0000
0001
0100
0010
0000
0100
0000
0001
0000
,
0001
0010
0001
0000
0100
0000
0001
0000
1000
0010
1000
0000
1000
0100
1000
0000
,
1000
0001
1000
0010
1000
0001
0010
0000
0001
0100
0001
0000
1000
0000
0010
0000
,
0100
0001
0010
0000
0100
0000
1000
0000
0001
0100
0010
0000
1000
0100
0010
0000
,
0001
0100
0010
1000
0100
0010
0001
0000
0100
0001
0100
0000
0001
0000
0010
0000
,
0100
1000
0100
0000
0010
0000
0001
0000
1000
0010
1000
0000
0001
0010
0001
0000
,
1000
0010
1000
0001
1000
0100
0020
0000
0000
0000
0030
0000
0001
0100
0010
1000
,
0100
0010
0001
1000
0010
0100
0001
0010
0100
1000
0001
0100
0010
1000
0001
0010
,
0001
0000
0000
1000
0000
0000
0010
0000
0000
1000
0000
0000
0001
0000
0000
1000
0000
0000
0100
0000
0000
0000
0000
0000
1001
0000
0000
0000
0000
0000
0000
0000
0110
0000
0000
0000
0000
0000
0000
0000
0011
0000
0000
0000
0000
0000
0000
0000
,
1100
0000
0000
0000
0000
0000
0000
0000
0011
0000
0000
0000
0000
0000
0000
0000
0110
0000
0000
0000
0000
0000
0000
0000
1000
0000
0000
0001
0000
0000
1000
0000
0000
0000
0000
0000
0010
0000
0000
0100
0000
0000
0010
0000
0000
0000
0000
0000
,
1000
0100
0010
0100
1000
0001
0100
0010
0200
0000
0000
0000
0000
0000
0300
0000
,
0001
0010
0100
1000
0001
0100
0010
1000
0002
0000
0000
0000
0000
0000
0003
0000
,
0200
0000
0000
0000
0320
0000
0000
0000
1030
0001
0000
0000
1000
0001
0010
0001
,
1000
0010
1000
0001
0100
0010
1000
0001
0020
0000
0000
0000
0000
0000
0030
0000
,
0002
0000
0000
0000
2003
0000
0000
0000
3001
0010
0000
0000
0001
0010
0001
0100
,
0010
0100
0001
0010
0100
1000
0010
0100
0002
0000
0000
0000
0003
0000
0200
0000
,
0000
0300
0020
0030
2002
0000
3003
0022
,
0033
0001
0100
0010
0220
0000
0330
0000
,
0202
0000
0303
0000
1001
M00M
0000
0000
,
0000
0110
0MM0
0000
0000
0000
0000
0000
,
1100
MM00
0000
0000
0011
00MM
0000
0000
,
0000
0000
0000
0000
0000
0000
0101
0M0M
,
0110
0MM0
0000
0000
1010
M0M0
0000
0000
,
0000
1001
M00M
0000
0011
00MM
1001
M00M
,
1010
M0M0
1001
M00M
0000
0000
0000
0000
,
0101
0M0M
0000
0000
0110
0MM0
0000
0000
,
0000
0000
1000
0001
1000
0001
1000
0001
1001
0000
MMMM
0000
0001
0000
0100
0000
,
0010
0000
1000
0000
0100
0000
0010
0100
1000
0000
0001
0000
0100
0000
0001
0000
,
1000
0000
0010
0000
0100
0000
0001
0000
0001
0000
0100
0001
0100
0001
0100
0000
,
0010
1000
0001
0010
0100
1000
0001
0100
,
0010
0100
0001
1000
2002
0000
0000
0000
,
0000
3003
0220
0000
,
0000
0330
0022
0000
,
0000
0033
2200
0000
,
0000
0000
3300
0000
1001
M00M
0110
0MM0
,
1001
M00M
0001
0100
0101
0M0M
1010
M0M0
,
1001
M00M
0001
1000
1100
MM00
1000
0010
,
1010
M0M0
0010
0100
0110
0MM0
0100
0001
,
0101
0000
0001
0000
0100
0000
0010
0000
0110
0000
0MM0
0000
0010
0100
0001
0100
,
0010
0100
0001
0010
0100
1000
0001
1000
0020
0000
0000
0030
0200
0000
0000
0300
,
0001
0000
1000
0001
1000
0001
1000
0000
1001
0000
M00M
0000
0101
0000
0M0M
0000
,
1010
0000
M0M0
0000
1100
0000
MM00
0000
0100
1000
0100
1000
0100
0010
0001
0010
,
0001
0010
0001
0100
2002
0000
0000
0000
,
0000
0000
0000
0000
,
0000
0000
0000
0000
3003
0000
0000
0000
0001
0010
0001
0000
0100
0000
0001
0000
,
1000
0010
1000
0000
0001
0000
1000
0000
0100
0010
0001
0000
0100
0010
1000
0000
,
0001
0010
0100
1000
0010
0100
0001
0000
0100
0001
0100
0000
0010
0000
1000
0000
,
0001
0010
0001
0000
1000
0000
0010
0000
1000
0010
1000
0000
0001
0100
0001
0000
,
1000
0100
0010
0001
0100
0010
0200
0000
0000
0000
0300
0000
1001
0000
0000
0000
,
0001
1000
0010
0000
0100
0000
0001
0000
1000
0100
0010
0000
0001
0100
0010
0000
,
0100
0001
0010
0100
1000
0001
0100
0000
0001
1000
0001
0000
1000
0000
0010
0000
,
1000
0010
1000
0000
0001
0000
0100
0000
0101
0000
0000
0000
1010
0000
0000
0000
,
1100
0000
0000
0000
0110
0000
0000
0000
0001
0100
0010
1000
0100
0010
0001
0100
,
0010
0100
0001
0010
0001
0010
0001
0100
0001
0100
0001
1000
0010
1000
0001
1000
,
0100
0010
0001
0100
0010
0100
0001
0010
0100
1000
0001
0100
0010
1000
0010
0100
,
0001
0010
0001
1000
0010
0100
0001
1000
0100
0010
0001
0100
0010
1000
0001
0010
,
0001
0100
0001
1000
0010
0100
0002
0000
0000
0000
0003
0000
1000
0010
0100
0001
,
0010
0100
1000
0001
0100
0010
1000
0100
0010
0001
0100
0010
0100
0001
0010
0100
,
1000
0100
0010
0001
1000
0001
0100
0001
1001
0000
0000
0000
1001
0000
0000
0000
,
0110
0000
0000
0000
0000
0000
0110
0000
0000
0000
0000
0000
1000
0001
1000
0001
1000
0001
1000
0001
1000
0001
1000
0001
,
1000
0001
1000
0001
1000
0001
1000
0001
1000
0001
1000
0001
1000
0000
0000
0000
0000
0000
0000
0000
0000
0000
0000
0000
,
0000
0000
0000
1111
;
