#TITLE:Clap Your Hands;
#SUBTITLE:;
#ARTIST:Scoop feat. Joyce Lyle;
#TITLETRANSLIT:;
#SUBTITLETRANSLIT:;
#ARTISTTRANSLIT:;
#GENRE:;
#CREDIT:;
#MUSIC:Clap Your Hands.ogg;
#BANNER:Clap Your Hands.png;
#BACKGROUND:Clap Your Hands-BG.png;
#CDTITLE:;
#SAMPLESTART:22.681;
#SAMPLELENGTH:14.435;
#SELECTABLE:YES;
#OFFSET:-0.085;
#BPMS:0.000=127.125
,80.000=127.000
;
#STOPS:;
#BGCHANGES:;
#FGCHANGES:;

//--------------- dance-single - Alex ----------------
#NOTES:
     dance-single:
     Alex:
     Beginner:
     1:
     0,0,0,0,0:
0000
0000
0000
0000
,
0000
0000
0000
0000
,
0000
0000
0000
0000
,
0000
0000
0000
0000
,
1001
0000
0000
0000
,
0010
0000
0000
0000
,
1000
0000
0000
0000
,
1000
0000
0000
0000
,
0010
0000
0000
0000
,
0100
0000
0000
0000
,
0001
0000
0000
0000
,
0001
0000
0000
0000
,
1000
0000
1000
0000
,
1000
0000
0000
0000
,
0001
0000
0001
0000
,
0001
0000
0000
0000
,
1000
0000
1000
0000
,
1000
0000
0000
0000
,
0001
0000
0001
0000
,
0001
0000
0000
0000
,
0110
0000
0000
0000
,
0100
0000
0000
0000
,
0001
0000
0000
0000
,
0001
0000
0000
0000
,
1000
0000
0000
0000
,
1000
0000
0000
0000
,
0010
0000
0000
0000
,
0001
0000
0000
0000
,
0100
0000
0100
0000
,
0100
0000
0000
0000
,
0010
0000
0010
0000
,
0010
0000
0000
0000
,
1001
0000
0000
0000
,
0001
0000
0000
0000
,
0001
0000
0000
0000
,
1000
0000
0000
0000
,
0010
0000
0000
0000
,
1000
0000
0000
0000
,
0001
0000
0000
0000
,
0001
0000
0000
0000
,
1001
0000
0000
0000
,
0100
0000
0000
0000
,
0100
0000
0000
0000
,
0001
0000
0000
0000
,
0010
0000
0000
0000
,
1000
0000
0000
0000
,
0100
0000
0000
0000
,
1000
0000
0000
0000
,
0001
0000
0000
0000
,
0000
0000
0000
0000
0000
1001
0000
0000
;

//--------------- dance-single - Alex ----------------
#NOTES:
     dance-single:
     Alex:
     Easy:
     2:
     0,0,0,0,0:
0000
0000
0000
0000
,
0000
0000
0000
0000
,
0000
0000
0000
0000
,
0000
0000
0000
0000
,
0001
0000
0001
0000
,
1000
0000
1000
0000
,
0010
0000
0010
0000
,
1001
0000
0000
0000
,
0100
0000
0100
0000
,
0001
0000
0001
0000
,
1000
0000
0010
0000
,
2002
0000
3003
0000
,
1000
1000
1000
0000
,
0001
0000
1000
0000
,
0001
0001
0001
0000
,
1000
0000
1000
0000
,
0010
0010
0010
0000
,
0100
0000
0100
0000
,
0010
0010
0010
0000
,
0220
0000
0330
0000
,
1000
0000
0001
0000
,
1000
0000
0001
0000
,
0100
0000
0010
0000
,
0100
0000
0010
0010
,
0010
0000
1000
0000
,
0001
0000
1000
0000
,
0100
0000
0100
0000
,
1001
0000
1001
0000
,
0001
0001
0001
0000
,
1000
0000
0001
0000
,
1000
1000
1000
0000
,
2002
0000
3003
0000
,
0010
0000
0100
0000
,
0010
0000
0010
0000
,
1000
0000
0001
0000
,
0011
0000
0000
0000
,
0001
0000
0100
0000
,
0001
0000
0001
0000
,
1000
0000
0010
0000
,
2020
0000
3030
0000
,
1000
1000
1000
0000
,
0010
0010
0010
0000
,
1000
0000
0001
0000
,
1001
0000
1001
0000
,
0100
0100
0100
0000
,
0010
0010
0010
0000
,
1000
0000
0001
0000
,
0101
0000
0101
0000
,
0000
0100
0000
0100
0000
0000
1001
0000
,
0000
0000
0000
0000
0000
1001
0000
0000
;

//--------------- dance-single - Alex ----------------
#NOTES:
     dance-single:
     Alex:
     Medium:
     5:
     0,0,0,0,0:
0000
0000
0000
0000
,
0000
0000
0000
0000
,
0000
0000
0000
0000
,
0000
0000
0000
0000
,
0001
1000
0010
0100
,
0001
0000
1001
0000
,
1000
0100
0010
0100
,
1000
1000
0001
0000
,
0100
0010
0010
1000
,
0001
0000
0011
0000
,
0001
0100
0010
0100
,
0001
1000
0020
0030
,
0100
0100
0001
0001
,
1001
1001
1001
1001
,
0010
1000
0001
0100
,
0110
0110
0110
0110
,
0100
0001
0010
0001
,
1001
1001
1001
1001
,
0001
1000
0100
1000
,
1010
1010
1010
1010
,
1001
0000
0010
0010
,
1000
1000
0001
0001
,
0101
0000
0100
0001
,
0010
0100
0010
0001
,
1001
0000
1000
0010
,
1000
1000
0001
0001
,
0101
0000
0100
0100
,
0010
0010
1000
1000
,
0001
0100
0001
0100
,
0110
0110
0110
0110
,
0010
1000
0100
1000
,
1001
1001
1001
1001
,
0001
1000
0010
1000
,
0001
0000
1001
0000
,
0100
0001
0010
0100
,
1000
0001
0100
0000
,
0010
0010
0100
0001
,
0010
0000
0011
0000
,
0001
1000
0100
1000
,
2002
0000
3003
0000
,
0001
1000
0001
0001
,
1000
0010
1000
1000
,
0001
0100
0010
0100
,
0001
1000
0100
0000
,
1000
1000
0010
0010
,
1000
0001
0010
0001
,
0100
0100
0010
0010
,
1000
0001
1000
0000
,
0000
0001
0000
1000
0000
0000
1001
0000
,
0000
0000
0010
0000
0000
0010
0000
0000
0000
0000
1001
0000
0000
0000
0000
0000
;

//--------------- dance-single - Alex ----------------
#NOTES:
     dance-single:
     Alex:
     Hard:
     8:
     0,0,0,0,0:
0000
0000
0000
0000
,
0000
0000
0000
0000
,
0000
0000
0000
0000
,
0000
0000
0000
0000
,
1001
0000
0110
0000
0010
0100
0001
0100
,
0010
0000
1000
0000
0001
0000
1000
0100
,
0010
0001
1000
0010
0000
0010
1000
0001
,
0000
0100
0001
1000
0000
0001
0010
0100
,
1100
0000
0011
0000
0001
0100
0010
0100
,
0001
0000
0001
0000
1000
0000
0010
1000
,
0001
1000
0010
1000
0000
0001
0100
0010
,
0000
1000
0100
0020
0000
0000
0030
0000
,
0001
1000
0001
0000
1000
0100
1000
0000
,
0001
0100
0010
0100
0001
0000
1001
0000
,
0001
0010
0100
0000
1000
0010
1000
0000
,
0001
1000
0100
1000
0001
0000
1001
0000
,
0001
0010
0001
0000
0100
0010
0100
0000
,
0001
0010
0001
1000
0100
0000
1100
0000
,
1000
0010
1000
0000
0001
0100
0001
0000
,
0010
0001
0100
0010
0100
0001
0100
0000
,
1010
0000
0101
0000
0001
1000
0100
0000
,
0011
0000
1100
0000
1000
0010
1000
0000
,
1010
0000
0101
0000
0001
1000
0100
0000
,
0001
0000
0000
0001
0000
0000
2000
0000
0000
0000
3000
0000
0010
0000
0000
0000
,
1001
0000
0110
0000
0010
0100
0001
0000
,
1100
0000
0011
0000
0001
1000
0010
0000
,
0101
0000
1010
0000
0010
1000
0100
0000
,
1000
0010
1000
0010
1000
0001
1000
0000
,
1000
0001
0100
0000
0001
0010
0100
0000
,
1000
0010
0100
0010
1000
0000
1010
0000
,
0010
1000
0100
0000
1000
0001
0100
0000
,
1001
1001
0110
0110
,
0010
0000
0100
0000
0001
0010
0100
0010
,
0001
0000
1000
0000
0001
0000
1000
0100
,
1000
0001
1000
0010
0000
0010
0100
0001
,
0000
1000
0100
1000
0000
0001
0100
0001
,
0010
0000
0001
0000
0100
0010
0100
0001
,
0010
0000
0001
0000
1000
0000
0100
1000
,
0010
0100
0001
1000
0000
0010
1000
0001
,
0000
0001
1000
0200
0000
0000
0300
0000
,
1001
0000
1001
0000
0001
0100
0001
1000
,
0010
0000
0100
0000
0001
0000
1000
0100
,
0010
0001
1000
0010
0000
0010
0100
0001
,
1000
0000
0001
0000
0100
0000
0001
0100
0000
0000
0000
0000
1000
0000
0001
0000
,
1000
0000
0001
0000
0100
0010
0100
0001
,
0010
0000
0001
0000
1000
0000
0100
0100
,
1000
0010
1000
0001
0000
0001
1000
0100
,
0000
0010
0001
0200
0000
0000
0300
0000
,
0000
1001
0000
1001
0000
0100
0100
0000
,
0000
0000
0001
0000
0000
1000
0000
0000
0000
0000
1001
0000
0000
0000
0000
0000
;

//--------------- dance-single - Alex ----------------
#NOTES:
     dance-single:
     Alex:
     Challenge:
     9:
     0,0,0,0,0:
0000
0000
0000
0000
,
0000
0000
0000
0000
,
0000
0000
0000
0000
,
0000
0000
0000
0000
,
0001
0000
1000
0000
0100
0000
1000
0001
0100
0010
1000
0000
0001
0000
0010
0000
,
0001
0000
0100
0000
0010
0000
0100
0001
0000
0100
0001
0000
1000
0000
0010
0000
,
1000
0000
0001
0000
0010
0000
0001
1000
0010
0100
0001
0000
0100
0000
0001
0000
,
1000
0000
0100
1000
0100
0000
1100
0000
0000
0000
0100
1000
0010
0000
0100
0000
,
0001
0000
1000
0000
0100
0000
0010
0001
1000
0010
0100
0000
0001
0000
0001
0000
,
0100
0000
0010
0000
1000
0000
0001
1000
0000
0001
1000
0000
0001
0000
0100
0000
,
0010
0000
0100
0000
0001
0000
1000
0100
0010
0001
1000
0000
0010
0000
0110
0000
,
0000
0000
0101
0000
1010
0000
2002
0000
0000
0000
0000
0000
0010
3003
0000
0000
,
0001
1000
0000
0001
0000
1000
0000
0100
0000
0000
0010
0000
0001
0000
0100
0000
,
0010
0100
0010
0200
0000
0300
0001
0010
0100
1000
0001
0000
1001
0000
0000
0000
,
0001
1000
0000
0001
0000
0100
0000
1000
0000
0000
0010
0000
1000
0000
0001
0000
,
1000
0010
0000
1000
0000
0001
1000
0001
0100
0000
0100
0020
0000
0000
1030
0000
,
0001
1000
0000
0001
0000
0100
0000
1000
0000
0000
0001
0000
0010
0000
0001
0000
,
0100
0010
0100
0002
0000
0003
0010
0001
0100
0010
0100
0000
1001
0000
0000
0000
,
0001
1000
0000
0001
0000
0100
0000
0010
0000
0000
1000
0000
0100
0000
0010
0000
,
0001
0000
1000
0001
1000
0000
0001
0100
0001
0000
1000
0010
0200
0000
0300
0000
,
1001
0000
0001
0100
0000
0001
0100
0000
0010
0000
1000
0000
0100
0000
0010
0000
,
0001
0000
1000
0010
0000
1000
0010
0000
0100
0000
0001
0000
0010
0000
0001
0000
,
0100
0000
0010
0100
0000
0010
0100
0000
0001
0000
0010
0000
0100
0000
1000
0000
,
0001
0000
1000
0001
0000
1000
0001
0000
0100
0000
0010
0000
0100
0000
0001
0000
,
1001
0000
0001
1000
0000
0100
1000
0000
0001
0000
0100
0000
1000
0000
0100
0000
,
0001
0000
1000
0010
0000
1000
0010
0000
0100
0000
1000
0000
0100
0000
0001
0000
,
0100
0000
0001
0010
0000
0001
0010
0000
0001
0000
1000
0000
0010
0000
0100
0000
,
0101
0010
1100
0010
1001
0110
1001
0110
,
0010
0100
0000
0001
0000
0010
0000
0001
0000
0000
1000
0000
0100
0000
0001
0000
,
1000
0010
1000
0002
0000
0003
1000
0100
0010
0001
1000
0000
1001
0000
0000
0000
,
0001
0100
0000
0010
0000
0100
0000
0001
0000
0000
0010
0000
0001
0000
0100
0000
,
2002
0000
0010
0000
0010
0000
0010
3003
,
0001
0000
1000
0000
0010
0000
0100
0001
0010
0100
1000
0000
0001
0000
1000
0000
,
0010
0000
1000
0000
0100
0000
0010
0100
0000
0010
0100
0000
1000
0000
0001
0000
,
0100
0000
0010
0000
0100
0000
0001
0010
0100
1000
0001
0000
1000
0000
0001
0000
,
0100
0000
0001
0100
0001
0000
1001
0000
0000
0000
0001
1000
0010
0000
0100
0000
,
0001
0000
0010
0000
0001
0000
1000
0100
0010
0001
1000
0000
0010
0000
0100
0000
,
0001
0000
0010
0000
0001
0000
1000
0010
0000
1000
0010
0000
0100
0000
0001
0000
,
0010
0000
0001
0000
0001
0000
1000
0100
1000
0100
1000
0000
0010
0000
0110
0000
,
0000
0000
0010
0000
1000
0000
0100
0000
0010
0000
0001
0000
0100
0000
0010
0100
,
0010
0000
0100
0000
0001
0000
1000
0100
0010
0001
1000
0000
1000
0000
0001
0000
,
0100
0000
0100
0000
0001
0000
0010
0001
0000
0100
0001
0000
0100
0000
1000
0000
,
0100
0000
0001
0000
1000
0000
0010
1000
0010
0100
0010
0000
1000
0000
0001
0000
,
1000
0000
0001
0000
0100
0000
0010
0100
0000
0001
0010
0000
0001
0000
1000
0000
,
1001
0000
0001
0000
1000
0000
0100
1000
0001
0100
0010
0000
0100
0000
0001
0000
,
0010
0000
0010
0000
0001
0000
1000
0001
0000
1000
0001
0000
1000
0000
1000
0000
,
0010
0000
1000
0000
0001
0000
0100
0001
0100
0001
0100
0000
0001
0000
0011
0000
,
0000
0000
0001
0000
1000
0000
2020
0000
0000
0000
0000
0000
0100
3030
0000
0000
,
0000
0011
0000
1001
0000
0110
0110
0000
,
0000
0000
0110
0000
0000
1001
0000
0000
0110
0000
0110
0000
0000
0000
0000
0000
;
