#TITLE:Chung Hwa Ban Jeom;
#SUBTITLE:;
#ARTIST:Louis;
#TITLETRANSLIT:;
#SUBTITLETRANSLIT:;
#ARTISTTRANSLIT:;
#GENRE:;
#CREDIT:;
#MUSIC:Chung Hwa Bam Jeom.ogg;
#BANNER:Chung Hwa Bam Jeom.png;
#BACKGROUND:Chung Hwa Bam Jeom-BG.png;
#CDTITLE:;
#SAMPLESTART:46.918;
#SAMPLELENGTH:12.333;
#SELECTABLE:YES;
#OFFSET:-0.012;
#BPMS:0.000=149.500;
#STOPS:;
#BGCHANGES:;
#FGCHANGES:;

//--------------- dance-single - Alex ----------------
#NOTES:
     dance-single:
     Alex:
     Beginner:
     1:
     0,0,0,0,0:
0000
0000
0000
0000
,
0000
0000
0000
0000
,
0000
0000
0000
0000
,
0000
0000
0000
0000
,
0000
0000
0000
0000
,
0000
1001
0000
0000
,
0000
0001
0000
0000
,
0000
1000
0000
0000
,
0000
1000
0000
0000
,
0000
0010
0000
0000
,
0000
0010
0000
0000
,
0000
2000
0000
0000
,
0000
3000
0000
0000
,
0000
0001
0000
0000
,
0000
1000
0000
0000
,
0000
0010
0000
0000
,
0000
0100
0000
0000
,
0000
0001
0000
0000
,
0000
0001
0000
0000
,
0000
1000
0000
0000
,
0000
1000
0000
0000
,
0000
1001
0000
0000
,
0000
0001
0000
0000
,
0000
0100
0000
0000
,
0000
0010
0000
0000
,
0000
0010
0000
0000
,
0000
1000
0000
0000
,
0000
0200
0000
0000
,
0000
0300
0000
0000
,
0000
0110
0000
0000
,
0000
0001
0000
0000
,
0000
0001
0000
0000
,
0000
1000
0000
0000
,
0000
0010
0000
0000
,
0000
0010
0000
0000
,
0000
0200
0000
0000
,
0000
0300
0000
0000
,
0000
1001
0000
0000
,
0000
0010
0000
0000
,
0000
1000
0000
0000
,
0000
0001
0000
0000
,
0000
2000
0000
3000
,
0000
0002
0000
0003
,
0000
0200
0000
0300
,
0000
0020
0000
0030
,
0000
1001
0000
0000
,
0000
0010
0000
0000
,
0000
1000
0000
0000
,
0000
0001
0000
0000
,
0000
1000
0000
0000
,
0000
1000
0000
0000
,
0000
0002
0000
0000
,
0000
0003
0000
0000
,
0000
1001
0000
0000
,
0000
0010
0000
0000
,
0000
0010
0000
0000
,
0000
1000
0000
0000
,
0000
0001
0000
0000
,
0000
0001
0000
0000
,
0000
0200
0000
0000
,
0000
0300
0000
0000
,
0000
0110
0000
0000
;

//--------------- dance-single - Alex ----------------
#NOTES:
     dance-single:
     Alex:
     Easy:
     3:
     0,0,0,0,0:
0000
0000
0000
0000
,
0000
0000
0000
0000
,
0000
0000
0000
0000
,
0000
0000
0000
0000
,
0000
0000
0000
0000
,
0000
0001
0000
1000
,
0000
0020
0000
0030
,
0000
0100
0000
0001
,
0000
2000
0000
3000
,
0000
0001
0000
1000
,
0000
0010
0000
0100
,
0000
2002
0000
0000
,
0000
3003
0000
0000
,
0000
0001
0000
0001
,
0000
1000
0000
1000
,
0000
0010
0000
0010
,
0000
0100
0000
0100
,
0000
0010
0010
0010
,
0000
1000
1000
1000
,
0000
0001
0000
1000
,
0000
0002
0000
0003
,
0000
0100
0000
0100
,
0000
0001
0000
0001
,
0000
1000
1000
0010
,
0010
0200
0000
0300
,
0000
0010
0000
0001
,
0000
1000
0000
0001
,
0000
0100
0010
0010
,
1000
2000
0000
3000
,
0000
1001
0000
1001
,
0000
0010
0100
0010
,
0000
1001
0000
1001
,
0000
0100
0010
0100
,
0000
0001
0001
0001
,
0000
1000
1000
1000
,
0000
0010
0000
0100
,
0000
0002
0000
0003
,
0000
1000
0000
1000
,
0000
0001
0000
0001
,
0000
0100
0000
0100
,
0000
0010
0000
0010
,
0000
2002
0000
3003
,
0000
2002
0000
3003
,
0000
0220
0000
0330
,
0000
0220
0000
0330
,
0000
1001
0000
1001
,
0000
0001
1000
0001
,
0000
1001
0000
1001
,
0000
1000
0001
1000
,
0000
0010
0010
0010
,
0000
0100
0100
0100
,
0000
0001
0000
1000
,
0000
0200
0000
0300
,
0000
1000
0000
0010
,
0000
2000
0000
3000
,
0000
0001
0000
0010
,
0000
0002
0000
0003
,
0000
0100
0000
0001
,
0000
1000
0000
0010
,
0000
0200
0000
0000
,
0000
0300
0010
0010
,
0100
0100
0000
0000
;

//--------------- dance-single - Alex ----------------
#NOTES:
     dance-single:
     Alex:
     Medium:
     5:
     0,0,0,0,0:
0000
0000
0000
0000
,
0000
0000
0000
0000
,
0000
0000
0000
0000
,
0000
0000
0000
0000
,
0000
0000
0000
0000
,
0000
0001
0100
0001
,
1000
1001
0110
1001
,
0110
0010
1000
0001
,
0100
0110
1001
0110
,
1001
0001
1000
0010
,
0100
0001
1000
0100
,
0010
0022
0000
0000
,
0000
0033
0000
0000
,
0000
0001
0001
0100
,
0100
0010
1000
0100
,
1000
1000
0010
1000
,
0001
0100
0010
0100
,
0001
1000
0001
0010
,
0100
1000
0010
0100
,
0100
0001
1000
0100
,
0010
2002
0000
3003
,
0000
0001
0001
0100
,
0100
0010
1000
0100
,
0010
0000
0001
0000
1000
0000
0010
1000
,
0100
2000
0000
0000
0000
0000
3000
0000
,
0000
0001
0001
1000
,
1000
0010
0100
0001
,
1000
0000
0001
0000
0010
0001
0010
0001
,
0010
0002
0000
0000
0000
0000
0003
0000
,
0000
1001
0110
1001
,
0110
0010
0100
0001
,
1000
1100
0011
1100
,
0011
1000
1000
0001
,
0001
0000
0100
0000
0010
0000
0100
0001
,
0100
0000
0010
0000
1000
0000
0001
0010
,
0001
1000
0010
0100
,
0001
0022
0000
0033
,
0000
0001
0001
0100
,
0100
0010
0010
1000
,
1000
0001
0100
0010
,
0100
0001
1000
0100
,
0010
0022
0000
0033
,
0000
2002
0000
3003
,
0000
2020
0000
3030
,
0000
2200
0000
3300
,
0000
0001
0001
0100
,
0010
0110
1001
0110
,
1001
1000
0001
0100
,
0010
1010
0101
1010
,
0101
0000
0100
0000
0100
0000
0010
0100
,
0010
0000
1000
0000
1000
0000
0001
0010
,
0001
1000
0010
0100
,
0001
0202
0000
0303
,
0000
0001
0001
0100
,
0100
0110
0110
1001
,
1001
1000
1000
0010
,
0010
1010
1010
0101
,
0101
0001
0010
0100
,
1000
0001
0100
0010
,
1000
2002
0000
0000
,
3003
0000
0001
0001
,
1000
1001
0000
0000
;

//--------------- dance-single - Alex ----------------
#NOTES:
     dance-single:
     Alex:
     Hard:
     7:
     0,0,0,0,0:
0000
0000
0000
0000
,
0000
0000
0000
0000
,
0000
0000
0000
0000
,
0000
0000
0000
0000
,
0000
0000
0000
0000
,
0000
0000
0001
1000
0010
0200
0000
0000
,
0310
1001
0110
1001
,
0110
0000
0010
1000
0100
2000
0000
0000
,
3001
0011
0101
0011
,
0101
0000
0001
0100
0001
0000
0100
0010
,
0100
0000
0010
1000
0010
0000
1000
0100
,
0010
0001
0200
0000
0000
0000
0000
0000
,
0000
0310
0010
0010
,
0010
0000
1000
0010
1000
0000
0001
0100
,
0001
0000
0010
0100
1000
0001
0100
0000
,
0010
0000
0100
0001
0100
0000
0001
1000
,
0010
0000
0100
0001
1000
0100
1000
0000
,
0001
0101
0100
0110
,
0010
1010
1000
0001
,
0100
0000
0010
0100
0001
1000
0100
0010
,
0000
2002
0000
0000
0000
0000
3003
0000
,
0000
0001
0100
0010
,
1000
0100
0010
0001
0000
1000
0000
0010
,
1000
0001
0100
0000
0001
0010
0100
1000
,
0001
2000
0000
0000
0000
0000
3000
0000
,
0000
0001
1000
0001
,
1000
0010
1000
0001
0000
0100
0000
0010
,
0100
0010
0100
0000
0001
0010
0100
1000
,
0001
0020
0000
0000
0000
0000
0030
0000
,
0000
1001
0110
1001
,
0110
0000
0010
0100
0001
0100
0010
0100
,
0001
1001
0110
1001
,
0110
0000
0010
1000
0100
0010
0100
1000
,
0001
0100
0010
0000
0100
0000
0001
1000
,
0001
0000
0100
0000
0010
0000
1000
0100
,
1000
0000
0001
1000
0010
0100
0001
1000
,
0100
0020
0000
0000
0000
0000
0030
0000
,
0000
0000
0001
0100
0001
0000
0100
0010
,
0100
0000
0010
1000
0100
0000
1000
0010
,
0100
0001
1000
0001
0100
0000
0001
1000
,
0001
0000
0010
0001
0010
0000
0001
0100
,
0010
2002
0000
3003
,
0000
0220
0000
0330
,
0000
0022
0000
0033
,
0000
0202
0000
0303
,
0000
0011
0101
0011
,
0101
0000
0001
0100
0010
0100
0001
1000
,
0001
1001
0110
1001
,
0110
0000
0010
1000
0100
0010
0001
0100
,
0010
0100
0001
0000
1000
0000
0010
1000
,
0010
0000
1000
0000
0001
0000
0010
0001
,
0010
0000
0001
1000
0010
0100
0001
1000
,
0100
0020
0000
0000
0000
0000
0030
0000
,
0000
0000
0001
0100
0010
0200
0000
0000
,
0301
1001
0110
1001
,
0110
0000
0010
1000
0001
0200
0000
0000
,
0301
0011
0110
0011
,
0110
0000
0001
0010
0001
0000
1000
0010
,
1000
0000
0001
1000
0100
0000
0010
0001
,
0100
0120
0000
0130
,
0000
0000
0000
0001
0010
0100
1000
0001
,
0100
0010
2000
0000
0000
0000
3000
0000
;

//--------------- dance-single - Alex ----------------
#NOTES:
     dance-single:
     Alex:
     Challenge:
     9:
     0,0,0,0,0:
0000
0000
0000
0000
,
0000
0000
0000
0000
,
0000
0000
0000
0000
,
0000
0000
0000
0000
,
0000
0000
0000
0000
,
0000
0000
0000
0000
1001
0000
0001
0100
0010
0000
2000
0000
3000
0000
0001
0000
,
0100
0010
0110
0000
1001
0000
0110
0000
,
1001
0000
0000
0000
0001
0000
0010
0001
0100
0000
0020
0000
0030
0000
0100
0000
,
0100
0001
0101
0000
0110
0000
1010
0000
,
1100
0000
0000
0000
0010
0000
0001
0100
0001
0000
1000
0010
1000
0000
0001
1000
,
0001
0000
0100
0010
0100
0000
0001
0010
0001
0000
1000
0100
0010
0000
0001
0100
,
0010
0000
1000
0010
0200
0000
0000
0000
0000
0000
0000
0000
0310
0000
0000
0000
,
0000
0000
0000
0000
1001
0000
0000
0000
0110
0000
0000
0000
0010
0100
0010
0100
,
0010
0100
0010
0100
0010
0000
0100
0000
0001
0000
1000
0000
0100
0000
0010
0000
,
0001
0000
1000
0010
1000
0000
0001
0000
0100
0000
0010
0000
0100
0000
0001
0000
,
0010
0000
0001
1000
0001
0000
0100
0000
1000
0000
0100
0000
0001
0000
1000
0000
,
0010
0000
1000
0010
1000
0000
0001
0000
0100
0000
0010
0000
0100
0000
0001
0000
,
0010
0000
0001
0100
0010
0000
0000
0000
1010
0000
0000
0000
1100
0000
0000
0000
,
0011
0000
0001
0100
0010
0100
0001
1000
,
0010
0000
0100
0001
1000
0000
0001
0000
0010
0000
0100
0000
1000
0000
0001
0000
,
0000
0000
0101
0000
0000
0000
0100
0000
0010
0000
1000
0000
0100
1000
0100
1000
,
0100
1000
0100
1000
0200
0000
0000
0000
1000
0000
0000
0000
0010
0000
0300
0000
,
0002
0023
0230
0302
0000
0100
0000
1003
,
0020
2030
3200
0000
0010
0301
0100
1000
,
0100
0002
0000
0003
0011
0000
0101
0000
,
0110
2000
3200
0320
,
2030
3020
0032
0100
0000
1000
0000
0203
,
0320
2030
3200
0000
1300
2000
3020
0032
,
0203
0000
2300
0000
0000
0000
0000
0000
3010
0000
0000
0000
0010
0000
1000
0010
,
1000
0000
0001
1000
0010
0000
0100
0000
0001
0000
1000
0100
0010
0000
0001
0000
,
0100
0000
0010
0100
0001
0000
1000
0000
0001
0000
0010
0100
1000
0000
0001
0100
,
0010
0000
1000
0010
0100
0000
0001
0000
1000
0000
0001
0100
0001
0000
0100
0000
,
0010
0000
1000
0010
0100
0000
0001
0000
0010
0000
0100
1000
0001
0000
0100
0010
,
0100
0000
0001
1000
0010
0000
0100
0000
0001
0000
0010
0000
0100
0000
1000
0000
,
2002
3003
0001
0100
0010
1000
0100
1000
,
2020
3030
0010
0100
1000
0100
0001
0010
,
1000
0000
0020
0000
0000
0000
0000
0000
0001
0000
0130
0000
1000
0000
0100
1000
,
0100
0000
1000
0010
1000
0000
0001
0000
0101
0000
0100
0000
0010
0000
1000
0000
,
1001
0001
1000
0010
1010
1000
0001
0010
,
0011
0001
0100
0010
0110
0100
0001
1000
,
1100
0000
0010
0000
0001
0100
0001
0000
0100
0010
0100
0000
0010
1000
0010
0000
,
1000
0000
0001
0000
0101
0000
0100
0010
0200
0000
0000
0000
2302
0000
0000
0000
,
3223
0000
0000
0000
1330
0000
0001
0010
0002
0000
0000
0000
2023
0000
0000
0000
,
3232
0000
0000
0000
1303
0000
0010
1000
0200
0000
0000
0000
2320
0000
0000
0000
,
3232
0000
0000
0000
0313
0000
1000
0001
0020
0000
0000
0000
2032
0000
0000
0000
,
3223
0000
0000
0330
0010
0000
0100
0001
0100
0000
0001
0000
1000
0000
0001
0010
,
0001
0000
1000
0000
0010
0000
1000
0010
1000
0000
0001
0100
0001
0000
1000
0100
,
0010
0000
0001
0100
0010
0000
0100
0000
0001
0000
1000
0010
1000
0000
0001
0000
,
0010
0000
0001
0100
0001
0000
0100
0000
0010
0000
1000
0010
1000
0000
0001
0010
,
0001
0000
1000
0100
0010
0000
0001
0000
0100
0000
0010
0000
0100
0000
0001
0000
,
1001
0000
0001
0100
1000
0100
0001
0010
,
0011
0000
1000
0010
0001
0010
1000
0100
,
0010
0000
0002
0000
0000
0000
0103
0000
0100
0000
1000
0000
0010
0000
1000
0010
,
1000
0000
0001
0100
0001
0000
0100
0010
0100
0000
0101
0000
0000
0000
0001
0000
,
1000
0010
1020
0000
0100
0000
0001
0000
,
0130
0000
0000
0000
0001
0000
1000
0100
1000
0000
1010
0000
0000
0000
1000
0000
,
1000
0001
0021
0000
0100
0000
1000
0000
,
0130
0000
0000
0000
1000
0000
0001
0010
0001
0000
1000
0010
1000
0000
0001
0100
,
0001
0000
0010
0001
0100
0000
0010
1000
0100
0000
0010
0001
0100
0000
0010
0100
,
0001
0000
1000
0010
0200
0000
0000
0000
1000
0000
0000
0000
0010
0000
0000
0000
,
1300
0000
0000
0000
0001
0000
0100
0001
0100
0000
0010
1000
0010
0000
1000
0001
,
1000
0001
0100
0010
0200
0000
0000
0000
0000
0000
0000
0000
0300
0000
0000
0000
;
