#TITLE:Chimera;
#SUBTITLE:;
#ARTIST:Yahpp;
#TITLETRANSLIT:;
#SUBTITLETRANSLIT:;
#ARTISTTRANSLIT:;
#GENRE:;
#CREDIT:;
#MUSIC:Chimera.ogg;
#BANNER:Chimera.png;
#BACKGROUND:Chimera-BG.png;
#CDTITLE:;
#SAMPLESTART:14.506;
#SAMPLELENGTH:13.571;
#SELECTABLE:YES;
#OFFSET:0.315;
#BPMS:0.000=210.000;
#STOPS:;
#BGCHANGES:;
#FGCHANGES:;

//--------------- dance-single - Alex ----------------
#NOTES:
     dance-single:
     Alex:
     Beginner:
     2:
     0,0,0,0,0:
0000
0000
0000
0000
,
0000
0000
0000
0000
,
0000
0000
0000
0000
,
0000
0000
0000
0000
,
0000
0000
0000
0000
,
0001
0000
0000
0000
,
1000
0000
0000
0000
,
0010
0000
0000
0000
,
0010
0000
0000
0000
,
1000
0000
0000
0000
,
1000
0000
0000
0000
,
0001
0000
0001
0000
,
0001
0000
0000
0000
,
1001
0000
0000
0000
,
0100
0000
0000
0000
,
0010
0000
0010
0000
,
0010
0000
0000
0000
,
1000
0000
1000
0000
,
1000
0000
0000
0000
,
0010
0000
0000
0000
,
1000
0000
0000
0000
,
0001
0000
0000
0000
,
1000
0000
0000
0000
,
0001
0000
0001
0000
,
0001
0000
0000
0000
,
1000
0000
1000
0000
,
1000
0000
0000
0000
,
0020
0000
0000
0030
,
0010
0000
0000
0000
,
0200
0000
0000
0300
,
0100
0000
0000
0000
,
0001
0000
0000
0000
,
1000
0000
0000
0000
,
0001
0000
0000
0000
,
0100
0000
0000
0000
,
0010
0000
0000
0000
,
0100
0000
0100
0000
,
0100
0000
0000
0000
,
0001
0000
0001
0000
,
0001
0000
0000
0000
,
1000
0000
1000
0000
,
1000
0000
0000
0000
,
0010
0000
0000
0000
,
1000
0000
0000
0000
,
0001
0000
0000
0000
,
0100
0000
0000
0000
,
0100
0000
0000
0000
,
0001
0000
0001
0000
,
0001
0000
0000
0000
,
2002
0000
3003
0000
,
0220
0000
0330
0000
,
1000
0000
0001
0000
,
1000
0000
0000
0000
,
1001
0000
0000
0000
,
0110
0000
0000
0000
,
1001
0000
0000
0000
,
0110
0000
0000
0000
,
1001
0000
0000
0000
,
0001
0000
0001
0000
,
1000
0000
1000
0000
,
0010
0000
0000
0000
,
1000
0000
0000
0000
,
0001
0000
0001
0000
,
0001
0000
0000
0000
,
0100
0000
0100
0000
,
0100
0000
0000
0000
,
0010
0000
0000
0000
,
1000
0000
0000
0000
,
0001
0000
0000
0000
,
1000
0000
0000
0000
,
0010
0000
0010
0000
,
0020
0000
0030
0000
,
0100
0000
0100
0000
,
0200
0000
0300
0000
,
0001
0000
0000
0000
,
1000
0000
0000
0000
,
0010
0000
0000
0000
,
0010
0000
0000
0000
,
1000
0000
0000
0000
,
1000
0000
0000
0000
,
0010
0000
0010
0000
,
0010
0000
0000
0000
,
1000
0000
0000
0000
,
0001
0000
0000
0000
,
0100
0000
0000
0000
,
1001
0000
0000
0000
,
0110
0000
0000
0000
,
0010
0000
0010
0000
,
0020
0000
0000
0030
,
1001
0000
0000
0000
;

//--------------- dance-single - Alex ----------------
#NOTES:
     dance-single:
     Alex:
     Easy:
     5:
     0,0,0,0,0:
0000
0000
0000
0000
,
0000
0000
0000
0000
,
0000
0000
0000
0000
,
0000
0000
0000
0000
,
0010
0010
0010
0010
,
1000
0001
0100
0010
,
0100
0001
2000
3000
,
0001
0010
0100
1000
,
0001
0100
0010
0100
,
0002
0003
2000
3000
,
0001
1000
0010
0000
,
0100
0001
0010
0100
,
1000
0001
1000
0001
,
1001
0000
0001
0100
,
0020
0000
0130
0000
,
0100
0001
1000
0001
,
1000
0020
0000
0030
,
0100
0001
1000
0100
,
1000
0002
0000
0003
,
1001
0000
0000
0000
,
0001
0000
1000
0000
,
0010
0000
0100
0000
,
0001
0010
0100
1000
,
0001
1000
0010
0100
,
0002
0000
0003
0100
,
0100
0010
1000
0001
,
2000
0000
3000
0001
,
1000
0010
1000
0001
,
0020
0000
0030
0001
,
0001
0100
0010
0100
,
0002
0000
0003
1000
,
1000
0001
1000
1000
,
0001
0100
0010
1000
,
0001
0010
0100
1000
,
0020
0030
0200
0300
,
0002
0003
2000
3000
,
0001
0010
0100
1000
,
1001
0000
0000
0001
,
1000
0010
0100
0001
,
0020
0000
0030
0001
,
1000
0010
1000
0001
,
0200
0000
0300
0001
,
0001
0000
1000
0000
,
0001
1000
0010
1000
,
0001
0100
0001
0010
,
0200
0300
2000
3000
,
0020
0030
0200
0300
,
0002
0003
2000
3000
,
0001
1000
0001
1000
,
2002
0000
3003
0110
,
0220
0000
0330
1001
,
1001
0001
0100
0010
,
1000
0001
0100
0010
,
0100
0000
0001
0100
,
0001
0000
1000
0010
,
1000
0000
0001
0010
,
0001
0000
0100
0010
,
0100
0000
0001
0010
,
0001
1000
0010
1000
,
0001
0100
0010
1000
,
1001
0000
0001
1000
,
0200
0000
0000
0300
,
1000
0010
1000
0001
,
1000
2000
0000
3000
,
0001
0001
1000
0010
,
0100
0020
0000
0030
,
1001
0000
0000
0000
,
0002
0003
2000
3000
,
0002
0003
0200
0300
,
0010
0100
0001
1000
,
0100
1000
0010
0100
,
0002
0000
0003
0100
,
0100
0001
0010
0100
,
2000
0000
3000
0010
,
0010
1000
0001
0100
,
0020
0000
0030
0100
,
0001
1000
1000
0001
,
0002
0000
0003
0100
,
0200
0300
0002
0003
,
1000
1000
0010
0010
,
1000
0001
0010
0100
,
2000
3000
0002
0003
,
0200
0300
0020
0030
,
2000
3000
0002
0003
,
0020
0000
0030
0001
,
0100
0010
1000
0001
,
0100
0010
0100
0001
,
1000
1000
0001
0001
,
0100
0000
0010
0000
,
2002
0000
0000
0000
,
0000
0000
0000
0000
,
0000
0000
0000
0000
,
0000
0000
0000
0000
,
3003
0000
0000
0000
;

//--------------- dance-single - Alex ----------------
#NOTES:
     dance-single:
     Alex:
     Medium:
     9:
     0,0,0,0,0:
0000
0000
0000
0000
,
0000
0000
0000
0000
,
0000
0000
0000
0000
,
0000
0000
0000
0000
,
0100
0100
0100
0100
,
0001
0000
1000
0000
0010
1000
0010
0000
,
1000
0001
0100
0010
0100
0000
1001
0000
,
0001
0010
0100
1000
0001
0010
0001
1000
,
0010
0100
0001
1000
0100
0010
0001
0100
,
0110
0000
0100
0000
0001
1000
0010
0100
,
0001
0000
1000
0000
0100
1000
0100
1000
,
0100
1000
0001
0100
,
0010
0100
0001
0010
0100
1000
0001
0100
,
0020
0000
0000
0030
1000
0000
0001
0000
,
0100
0010
0100
0001
1000
0100
0010
0000
,
0001
0100
0010
0100
0001
1000
0010
0100
,
0001
1001
0100
1001
,
0001
1000
0010
0100
0001
1000
0100
0010
,
0001
0101
0100
0110
,
2000
3000
0020
0030
0200
0300
0002
0003
,
1000
0000
0001
0100
0010
0000
1000
0001
,
0100
0000
0001
0010
0001
0000
1000
0010
,
0100
0001
0100
0001
0010
0100
1000
0001
,
0100
0000
0010
0000
1000
0100
0010
0001
,
0200
0000
0010
0000
0310
0000
0010
1000
,
0100
0000
1000
0000
0010
1000
0001
1000
,
0020
0000
1000
0000
1030
0000
1000
0001
,
0100
0010
1000
0100
0010
0100
1000
0001
,
0200
0000
0001
0301
,
1000
0000
0001
0010
0100
1000
0001
0100
,
0020
0000
0000
0000
0030
0000
0100
0001
,
1000
0100
1000
0000
0001
0100
0001
0000
,
1000
0010
1000
0001
1000
0001
0100
0010
,
0100
0001
0010
0100
1000
0001
0100
0010
,
0100
0000
0001
0100
0001
0000
1000
0010
,
1000
0000
0001
0010
0001
0000
1000
0000
,
0001
0100
0010
0100
0001
1000
0010
0100
,
0002
0000
0000
0000
0003
0000
1000
0001
,
0100
0010
1000
0100
0010
0001
0100
0010
,
1000
0002
0000
0000
0000
0003
1000
0001
,
0100
0001
1000
0010
1000
0001
0010
0100
,
2000
0000
0000
0000
3000
0000
0001
1000
,
0010
0100
0001
0000
1000
0100
1000
0000
,
0001
0100
0001
0100
0010
0100
0001
0010
,
0100
1000
0001
0100
0010
1000
0001
0010
,
0001
0000
0100
0001
0100
0000
0010
1000
,
0010
0000
1000
0001
1000
0000
0001
1000
,
0010
0000
0100
0001
1000
0000
0001
0100
,
0010
0110
1001
0110
,
2002
0000
3003
0011
,
2200
0000
3300
1100
,
0011
0000
0001
0100
0010
0100
0001
0100
,
0010
1000
0001
0100
,
0110
0000
1100
1100
,
0011
0000
0110
0110
,
1010
0000
1010
1010
,
1001
0000
0110
0110
,
1001
0000
0001
0010
0001
0100
0010
0100
,
0001
0000
0001
1000
0001
0000
0100
0001
,
1000
0000
0010
1000
0001
0100
0010
0000
,
1010
0000
0010
0000
0100
0001
0100
0000
,
0001
1000
0001
0100
0001
0000
1000
0000
,
0010
1000
0100
0010
0001
0100
0010
1000
,
0002
1000
0000
1003
,
0001
1000
0010
1000
0001
0010
0001
0100
,
0020
0100
0000
0130
,
0002
0003
2000
3000
0020
0030
0200
0300
,
0001
0000
1000
0100
1000
0000
0001
0100
,
0001
0000
0010
0001
0010
0000
0001
0100
,
0010
1000
0001
0010
0100
1000
0001
0100
,
0010
0000
1000
0000
0001
0100
0010
0100
,
0002
0000
0100
0000
0103
0000
0010
1000
,
0010
0000
1000
0000
0100
1000
0010
1000
,
0200
0000
1000
0000
1300
0000
1000
0001
,
0100
0010
0100
0001
1000
0010
1000
0001
,
2000
0000
0000
0000
3000
0000
0001
1000
,
0010
0100
0001
0010
0100
1000
0001
0100
,
0002
0000
0000
0000
0003
0000
0100
0010
,
0100
0001
1000
0000
0001
0010
0001
0000
,
1000
0010
1000
0010
1000
0001
1000
0001
,
0100
0010
0100
0001
0010
0100
1000
0001
,
0100
0000
0001
0100
0001
0000
1000
0010
,
1000
0000
0001
1000
0010
0000
0100
0001
,
1000
0000
0001
0010
0001
0000
0100
0010
,
0200
0000
0000
0000
0300
0000
0001
1000
,
0010
1000
0001
0010
0100
1000
0001
0100
,
0010
0100
0001
1000
0010
0100
0001
1000
,
0100
1000
0100
1000
0001
1000
0001
0100
,
0002
0003
2000
3000
,
2002
0000
0000
0000
,
0000
0000
0000
0000
,
0000
0000
0000
0000
,
0000
0000
0000
0000
,
3003
0000
0000
0000
;

//--------------- dance-single - Alex ----------------
#NOTES:
     dance-single:
     Alex:
     Hard:
     11:
     0,0,0,0,0:
0000
0000
0000
0000
,
0000
0000
0000
0000
,
0000
0000
0000
0000
,
0000
0000
0000
0000
,
1001
1001
1001
1001
,
0001
0100
0010
0100
0001
1000
0010
0100
,
0001
1000
0100
0010
0001
0100
0010
0000
,
0100
0001
0010
0100
1000
0001
0100
0010
,
1000
0100
0010
0001
0100
0010
0100
0001
,
0101
0000
1010
0000
0001
1000
0010
1000
,
1010
0101
1010
0101
,
0001
0100
0010
0100
0001
0010
0100
1000
,
0001
0100
0010
1000
0100
0010
0001
0100
,
0010
0000
1000
0000
0001
0100
0010
0100
,
0001
0000
1000
0000
0100
0000
1000
0001
,
0100
0000
0010
0000
0100
0000
0001
0000
0010
0000
0100
0000
1000
0001
1000
0000
,
0020
0100
0001
0130
,
0001
0000
0010
0000
0001
0000
0100
0000
0010
0000
0100
0000
0001
1000
0001
0000
,
2000
0010
0001
3010
,
1010
0101
1010
0101
,
0001
0100
0010
0100
0001
0010
0100
1000
,
0001
0100
0010
1000
0100
0010
0001
0100
,
0010
0000
0010
0000
0100
0000
0100
0000
0001
0000
0001
0000
1000
0100
1000
0100
,
1000
0000
0001
0000
1000
0000
0010
0000
1000
0001
1000
0000
0001
0100
0001
0000
,
0200
0000
0010
0000
0310
0000
0010
1000
,
0001
0000
0010
0000
0001
0000
0100
0000
0010
0100
0010
0000
0100
0001
0100
0000
,
0002
0000
0000
0000
1000
0000
0000
0000
0100
0000
0000
0000
1003
0100
1000
0100
,
1000
0001
0100
0010
0100
0001
1000
0010
,
2000
0000
0000
0000
0001
0000
0000
0000
0010
0000
0000
0000
3001
0010
0001
0010
,
0001
0000
0100
0000
0010
0000
0100
0000
0001
0000
1000
0000
0001
1000
0001
1000
,
0002
0000
0000
0000
1000
0000
0000
0000
1000
0000
0000
0000
1003
0010
1000
0010
,
1000
0001
0100
0010
0100
0001
1000
0100
,
1000
1000
0001
0001
0100
0010
0100
0001
,
0010
0010
0001
0001
0100
0010
0100
0001
,
2000
3000
0001
0100
0020
0030
1000
0100
,
0020
0030
0001
0100
0020
0030
0100
0001
,
0010
0000
0100
0000
1000
0000
0001
0000
0100
0000
0010
0000
1000
0001
1000
0001
,
0200
0000
0000
0000
0000
0000
0000
0000
0300
0000
0000
0000
0010
0100
0010
0100
,
0010
0100
0001
1000
0010
0100
0001
1000
,
0200
0000
0000
0000
1000
0000
0000
0000
0010
0000
0000
0000
1300
0010
1000
0010
,
1000
0001
0100
0010
0100
0001
0010
0001
,
0200
0000
0000
0000
0001
0000
0000
0000
0001
0000
0000
0000
0301
0010
0001
0010
,
0001
0100
0001
1000
0010
0100
0001
1000
,
0001
0001
1000
1000
0010
1000
0001
1000
,
0100
0100
1000
1000
0001
0100
0010
0100
,
0002
0003
1000
0010
2000
3000
0001
0010
,
0002
0003
0100
0001
0200
0300
0010
1000
,
0200
0300
1000
0001
0200
0300
0001
1000
,
1010
1001
0011
0101
,
1001
0000
0001
1000
0010
0000
1010
0000
,
0101
0000
0001
0010
0001
0000
0101
0000
,
0110
0000
0010
1000
0100
0010
0100
1000
,
0001
0100
0010
0100
0001
1000
0010
0100
,
0101
0000
0010
1000
1001
0000
0011
0000
,
1001
0000
0001
1000
1100
0000
1010
0000
,
0101
0000
0001
0010
0011
0000
0101
0000
,
0110
0000
0010
1000
1100
0000
1010
0000
,
0101
0000
0001
0100
0010
0100
0001
1000
,
1001
0001
1000
0010
0100
0001
0010
0100
,
1000
0000
0001
0000
0100
0000
0010
0000
0100
0001
0100
0001
0100
0000
0000
0000
,
0001
0010
0100
1000
0001
0010
0001
1000
,
0010
1000
0001
0100
0001
1000
0100
0010
,
0001
0000
0100
0000
0010
0000
0100
0000
0001
0010
0001
0010
0001
0000
0100
0000
,
0020
0000
1000
0000
0100
0000
1030
0010
,
1000
0000
0001
0000
1000
0000
0010
0000
1000
0010
1000
0010
1000
0000
0001
0000
,
0200
0010
0001
0310
,
1010
0101
1010
0101
,
0001
0010
0001
0100
0010
0100
0001
0010
,
0100
1000
0001
0100
0010
1000
0100
0010
,
0001
0000
0001
0000
0100
0000
0100
0000
0010
0000
0010
0000
1000
0010
1000
0010
,
1000
0001
1000
0010
0100
0001
0010
0100
,
2000
0000
0001
0000
0010
0000
3001
0010
,
0001
0100
0010
0100
0001
1000
0100
0010
,
0002
0000
0100
0000
1000
0000
1003
0010
,
1000
0000
0001
0000
1000
0000
0010
0000
1000
0000
0001
0000
1000
0001
1000
0001
,
2000
0000
0000
0000
0000
0000
0000
0000
0000
0000
3000
0000
0010
1000
0010
1000
,
0010
0000
1000
0000
0001
0000
0100
0000
0010
0000
0100
0000
0001
1000
0001
1000
,
0002
0000
0000
0000
0000
0000
0000
0000
0000
0000
0003
0000
0100
0010
0100
0010
,
0100
0001
0100
0010
0100
0100
0001
1000
,
0010
0010
1000
1000
0001
0010
0100
1000
,
0001
0001
0100
0100
0010
1000
0100
0010
,
0002
0003
1000
0010
2000
3000
0001
0010
,
0002
0003
0100
0010
0200
0300
0001
1000
,
0200
0300
0010
0001
0200
0300
0010
1000
,
0200
0000
0000
0000
0000
0000
0000
0000
0300
0000
0000
0000
1000
0001
1000
0001
,
1000
0000
0001
0000
0100
0000
0010
0000
0100
0000
0001
0000
1000
0010
1000
0010
,
1000
0000
0001
0000
0010
0000
0001
0000
0100
0000
0010
0000
0100
0001
0100
0001
,
0100
0100
0001
0001
1000
1000
0010
0010
,
0200
0000
0000
0300
0002
0000
0000
0003
,
2002
0000
0000
0000
,
0000
0000
0000
0000
,
0000
0000
0000
0000
,
0000
0000
0000
0000
,
3003
0000
0000
0000
;

//--------------- dance-single - Alex ----------------
#NOTES:
     dance-single:
     Alex:
     Challenge:
     14:
     0,0,0,0,0:
0000
0000
0000
0000
,
0000
0000
0000
0000
,
0000
0000
0000
0000
,
0000
0000
0000
0000
,
2002
3003
0220
0330
2200
3300
0022
0033
,
0001
0100
0010
0100
0001
1000
0010
0100
,
0001
1000
0100
0010
0001
0100
0010
0100
,
0001
0100
0001
0000
1000
0000
0010
0000
1000
0010
1000
0000
0001
0000
1000
0000
,
0001
0100
0001
0000
1000
0010
1000
0000
0001
0010
0001
0010
0001
0010
0001
0010
,
0001
0100
0001
1000
0010
0100
0001
1000
,
1000
0001
0100
0010
0100
0100
0001
0001
,
1000
0001
0010
0100
1000
0001
0001
0100
,
0010
0100
0010
0100
0010
0100
0010
0100
0001
0100
0001
0100
0001
0100
0001
0100
,
0010
1000
0001
0010
0100
1000
0001
0100
,
0010
1000
0100
0010
0001
1000
0010
1000
,
0001
1000
0001
1000
0001
1000
0001
1000
0001
0100
0001
0100
0001
0100
0001
0100
,
0001
0010
0001
0100
0010
0100
0001
1000
,
0010
1000
0010
1000
0010
1000
0010
1000
0100
1000
0100
1000
0100
1000
0100
1000
,
0100
1000
0001
0100
0010
0100
0001
1000
,
2002
3003
0202
0303
0220
0330
2020
3030
,
0010
1000
0010
0000
1000
0000
0001
0000
0100
0001
0100
0000
0001
0000
1000
0000
,
0010
1000
0010
0000
1000
0000
0100
0000
0010
0001
0010
0000
0001
0000
0100
0000
,
0010
0000
0010
0000
0100
0000
0100
0000
0001
0000
0001
0000
1000
0001
1000
0001
,
1000
0000
0001
0000
0100
0000
0010
0000
0100
0001
0100
0001
0100
0001
0100
0001
,
0200
0000
0320
0000
2030
0000
3001
0010
,
0001
0000
0100
0000
0010
0000
0100
0000
0001
1000
0001
1000
0001
1000
0010
1000
,
0020
0000
0000
0000
0230
0000
0000
0000
0302
0000
0000
0000
1003
0100
1000
0100
,
1000
1000
0001
0001
0100
0100
0010
0010
,
0200
0000
0000
0000
0010
0000
0000
0000
0310
0000
0000
0000
0010
1000
0010
1000
,
0010
0000
1000
0000
0001
0100
0001
0100
0001
0100
0001
1000
0001
1000
0001
1000
,
0002
0000
0000
0000
1000
0000
0000
0000
1003
0000
0000
0000
1000
0001
1000
0001
,
1000
0001
0100
0010
0100
0100
0001
1000
,
0100
0100
1000
1000
0001
0001
0100
0100
,
0010
0010
1000
1000
0001
0001
0010
0010
,
0022
0033
0001
1000
2020
3030
1000
0001
,
2002
3003
0001
0100
0202
0303
0100
0010
,
0100
0000
0100
0000
0010
0000
0010
0000
1000
0001
1000
0001
1000
0001
1000
0001
,
2002
0000
0000
0000
0000
0000
0000
0000
0000
0000
3003
0000
0001
1000
0001
1000
,
0001
0000
0001
0000
1000
0000
1000
0000
0010
0000
0010
0000
0100
0001
0100
0001
,
0200
0000
0000
0000
0010
0000
0000
0000
0310
0000
0000
0000
0010
1000
0010
1000
,
0010
0000
1000
0000
0010
0000
0010
0000
1000
0000
1000
0000
0001
1000
0001
1000
,
0002
0000
0000
0000
0100
0000
0000
0000
0103
0000
0000
0000
0010
0100
0010
0100
,
0010
0010
0100
0001
1000
1000
0001
0010
,
0001
0001
0100
0100
0010
1000
0100
1000
,
0001
1000
0010
0010
1000
1000
0001
0001
,
0202
0303
0100
0010
0220
0330
0010
1000
,
2200
3300
0010
0001
0022
0033
0001
0100
,
0220
0330
0100
0001
0202
0303
1000
0010
,
1010
1010
1001
1001
,
0001
1000
0001
1000
0001
1000
0001
0100
0001
0100
0001
0100
0010
0100
0010
0100
,
0010
1000
0010
1000
0100
1000
0100
1000
0100
1000
0001
1000
0001
1000
0001
1000
,
0001
1000
0010
0100
0001
0010
0100
1000
,
2200
3300
0022
0033
0202
0303
0220
0330
,
1010
0000
1000
0001
2002
3003
0202
0303
,
0220
0330
0010
1000
2200
3300
0022
0033
,
0202
0303
0100
0010
0220
0330
0202
0303
,
0022
0033
0001
1000
2020
3030
2002
3003
,
0202
0303
0101
0100
0100
0001
0010
0100
,
1100
1000
0100
1000
1001
0001
1000
0010
,
1010
0010
1000
0001
1001
0100
0010
0000
,
1000
0010
0100
0001
0010
0100
1000
0001
,
0100
1000
0100
0001
1000
0010
1000
0001
,
0010
0001
0010
0001
0010
0001
0010
0001
0100
0001
0100
0001
0100
0001
0100
0001
,
0100
0001
1000
0010
0100
0001
0010
0100
,
1000
0010
1000
0010
1000
0010
1000
0010
1000
0001
1000
0001
1000
0001
1000
0001
,
0100
0010
0100
0001
0010
0100
1000
0001
,
0022
0033
0202
0303
0220
0330
2020
3030
,
0010
1000
0010
0000
1000
0000
0001
0000
1000
0100
1000
0000
0001
0000
0100
0000
,
0010
0100
0010
0000
1000
0000
0001
0000
0010
0001
0010
0000
0001
0000
0100
0000
,
0010
0000
0010
0000
1000
0000
1000
0000
0001
1000
0001
1000
0001
1000
0001
1000
,
0001
0000
1000
0000
0010
0000
0100
0000
0001
0100
0001
0100
0001
0100
0001
0100
,
0002
0000
0000
0000
0010
0000
0000
0000
0013
0000
0000
0000
0001
0100
0001
0100
,
0001
0000
0100
0000
0010
0000
0100
0000
0001
1000
0001
1000
0001
1000
0001
1000
,
0002
0000
0000
0000
1000
0000
0000
0000
1003
0000
0000
0000
1000
0010
1000
0010
,
1000
0000
0001
0000
0100
0000
0001
0000
1000
0001
1000
0001
1000
0001
1000
0001
,
0200
0000
0000
0000
0000
0000
0000
0000
0300
0000
0000
0000
0010
0100
0010
0100
,
0010
0000
0100
0000
0001
0000
1000
0000
0001
0010
0001
0010
0001
0010
0001
0010
,
0002
0000
0000
0000
0000
0000
0000
0000
0003
0000
0000
0000
0100
0010
0100
0010
,
0100
0001
1000
0010
1000
1000
0001
0100
,
0010
0100
0001
0010
0100
1000
0001
0100
,
0001
0001
1000
0010
1000
1000
0001
1000
,
0010
1000
0010
0000
1000
0000
0001
0000
0100
0001
0100
0000
0001
0000
0010
0000
,
0100
1000
0100
0000
0010
0000
0001
0000
1000
0010
1000
0000
0001
0000
1000
0000
,
0010
0100
0010
0000
0100
0000
0001
0000
1000
0001
1000
0000
0001
0000
0100
0000
,
0010
0100
0010
0000
0100
0000
0001
0000
0010
0000
0100
0000
1000
0000
0001
0000
,
1000
0010
1000
0010
1000
0010
1000
0010
0100
0010
0100
0010
0100
0010
0100
0001
,
0100
0001
0100
0001
0100
0001
0010
0001
0010
0001
0010
0001
0010
0001
1000
0001
,
1000
1000
0001
0001
0100
0100
0010
0010
,
2020
3030
0202
0303
,
2112
0000
0000
0000
,
0000
0000
0000
0000
,
0000
0000
0000
0000
,
0000
0000
0000
0000
,
3003
0000
0000
0000
;
