#TITLE:Chicken Wing;
#SUBTITLE:;
#ARTIST:Banya;
#TITLETRANSLIT:;
#SUBTITLETRANSLIT:;
#ARTISTTRANSLIT:;
#GENRE:;
#CREDIT:;
#MUSIC:Chicken Wing.ogg;
#BANNER:Chicken Wing.png;
#BACKGROUND:Chicken Wing-BG.png;
#CDTITLE:;
#SAMPLESTART:14.474;
#SAMPLELENGTH:12.750;
#SELECTABLE:YES;
#OFFSET:-0.111;
#BPMS:0.000=200.000;
#STOPS:;
#BGCHANGES:;
#FGCHANGES:;

//--------------- dance-single - Alex ----------------
#NOTES:
     dance-single:
     Alex:
     Beginner:
     2:
     0,0,0,0,0:
0000
0000
0000
0000
,
0000
0000
0000
0000
,
0000
0000
0000
0000
,
0000
0000
0000
0000
,
0010
0000
0000
0000
,
1000
0000
0000
0000
,
0001
0000
0000
0000
,
0001
0000
0000
0000
,
1000
0000
0000
0000
,
1000
0000
0000
0000
,
0001
0000
0000
0000
,
0001
0000
0000
0000
,
0100
0000
0000
0000
,
0100
0000
0000
0000
,
0010
0000
0000
0000
,
0010
0000
0000
0000
,
1000
0000
0000
0000
,
0001
0000
0000
0000
,
1000
0000
1000
0000
,
1000
0000
0000
0000
,
1001
0000
0000
0000
,
0001
0000
0000
0000
,
1000
0000
0000
0000
,
0010
0000
0000
0000
,
0010
0000
0000
0000
,
0100
0000
0000
0000
,
0001
0000
0000
0000
,
0001
0000
0000
0000
,
0100
0000
0000
0000
,
0010
0000
0000
0000
,
1000
0000
0000
0000
,
0001
0000
0000
0000
,
1000
0000
0000
0000
,
1000
0000
0000
0000
,
0001
0000
0000
0000
,
0001
0000
0000
0000
,
1001
0000
0000
0000
,
0000
0000
0000
0000
,
1001
0000
0000
0000
,
0000
0000
0000
0000
,
0100
0000
0000
0000
,
0001
0000
0000
0000
,
0001
0000
0000
0000
,
1000
0000
0000
0000
,
0010
0000
0000
0000
,
0010
0000
0000
0000
,
1000
0000
0000
0000
,
1000
0000
0000
0000
,
1001
0000
0000
0000
,
0001
0000
0000
0000
,
1000
0000
0000
0000
,
0010
0000
0000
0000
,
1000
0000
0000
0000
,
0100
0000
0000
0000
,
0100
0000
0000
0000
,
1000
0000
0000
0000
,
0001
0000
0000
0000
,
0001
0000
0000
0000
,
1000
0000
0000
0000
,
0010
0000
0000
0000
,
0100
0000
0000
0000
,
0100
0000
0000
0000
,
0001
0000
0001
0000
,
0001
0000
0000
0000
,
1001
0000
0000
0000
,
0001
0000
0000
0000
,
1000
0000
0000
0000
,
0010
0000
0000
0000
,
1000
0000
0000
0000
,
1000
0000
0000
0000
,
0001
0000
0000
0000
,
0100
0000
0000
0000
,
0100
0000
0000
0000
,
0010
0000
0000
0000
,
1000
0000
1000
0000
,
0001
0000
0001
0000
,
1001
0000
0000
0000
,
1001
0000
0000
0000
,
0110
0000
0000
0000
,
0110
0000
0000
0000
;

//--------------- dance-single - Alex ----------------
#NOTES:
     dance-single:
     Alex:
     Easy:
     4:
     0,0,0,0,0:
0000
0000
0000
0000
,
0000
0000
0000
0000
,
0000
0000
0000
0000
,
0000
0000
0000
0000
,
0001
0000
1000
0000
,
0001
1000
0001
1000
,
0010
0000
0100
0000
,
0001
0010
0001
0010
,
0001
0000
1000
0000
,
0010
1000
0010
0000
,
1000
0000
0001
0000
,
1000
0001
2000
3000
,
0001
0000
0100
0000
,
0001
1000
0001
1000
,
0001
0000
1000
0000
,
0010
1000
0010
1000
,
0010
0000
0100
0000
,
0001
0000
1000
0000
,
0001
0100
0001
0100
,
0020
0000
0000
0030
,
1000
1000
1000
0000
,
0001
0000
1000
0000
,
0010
0010
0010
0000
,
0100
0000
1001
0000
,
0001
1000
0001
0000
,
1000
0000
0100
0000
,
1000
1000
0001
0001
,
2000
0000
0000
3000
,
0001
0000
0100
0000
,
0010
0100
0010
0000
,
1000
0000
0001
0000
,
1000
0100
1000
0000
,
0001
0000
1000
0000
,
0010
0100
0010
0000
,
1000
1000
0001
0001
,
1000
0001
1000
0001
,
1001
0000
0000
0000
,
1001
0000
0000
0000
,
0110
0000
0110
0000
,
0220
0000
0330
0000
,
0010
0100
0010
0000
,
0100
0000
0001
0000
,
1000
0100
1000
0000
,
0001
0000
0010
0000
,
0001
1000
0001
0000
,
1000
0000
0001
0000
,
1000
0100
1000
0100
,
2000
0000
3000
0000
,
1001
0000
0001
0000
,
1000
0000
1000
0000
,
0001
0000
0010
0000
,
0001
0010
0001
0010
,
0001
0000
0100
0000
,
0010
0000
1000
0000
,
0001
0000
1000
0000
,
0100
1000
0100
1000
,
0100
0000
1000
0000
,
0001
0000
0100
0000
,
0010
0000
0100
0000
,
0001
1000
0001
1000
,
0001
0000
1000
0000
,
0010
0000
1000
0000
,
0100
0000
0100
0000
,
2002
0000
3003
0000
,
0001
0000
1000
0000
,
0001
0010
0001
0000
,
1000
0000
0010
0000
,
1000
0100
1000
0000
,
0001
0000
1000
0000
,
0001
1000
0001
0000
,
1000
0000
0010
0000
,
1000
0010
1000
0000
,
0010
0000
0100
0000
,
0001
0010
0001
0000
,
0100
0100
0001
0001
,
1000
1000
0010
0010
,
0110
0000
0000
0000
,
0110
0000
0000
0000
,
1001
0000
1001
0000
,
1001
0000
0000
0000
;

//--------------- dance-single - Alex ----------------
#NOTES:
     dance-single:
     Alex:
     Medium:
     7:
     0,0,0,0,0:
0000
0000
0000
0000
,
0000
0000
0000
0000
,
0000
0000
0000
0000
,
0000
0000
0000
0000
,
0001
1000
0001
0100
,
0010
0100
0010
0000
0100
0010
0100
0000
,
0001
1000
0100
1000
,
0001
1000
0001
0000
1000
0001
1000
0000
,
0001
1000
0010
0100
,
0001
0100
0001
0200
0000
0000
0310
0000
,
1000
0100
0010
0100
,
1000
0100
1000
0200
0000
0000
0300
0000
,
1000
0001
0100
0010
,
1000
0010
1000
0000
0001
0010
0001
0000
,
0100
0001
0010
0100
,
0010
0001
0010
0000
0001
1000
0001
0000
,
1000
0010
1000
1000
,
0001
0100
0010
0010
,
0100
0001
0100
0000
0001
1000
0001
0000
,
2002
0000
3003
0000
,
0001
0000
1000
0000
0010
1000
0000
0010
,
0000
1000
0001
0200
0000
0000
0301
0000
,
0001
0000
1000
0000
0100
1000
0000
1000
,
0000
0010
1000
0000
0020
0000
0030
0000
,
0100
0000
0001
0000
0100
0001
0000
0100
,
0000
0010
0100
0020
0000
0000
0130
0000
,
0001
1000
0010
0100
,
2002
0000
3003
0000
,
0001
1000
0010
1000
,
0001
0100
0001
0000
0100
0010
0100
0000
,
0001
0010
0100
1000
,
0001
1000
0001
0000
1000
0001
1000
0000
,
0001
0100
0010
0100
,
0001
1000
0010
2000
0000
0000
3010
0000
,
1000
0100
0010
0001
,
0100
0010
0100
0001
,
0011
0000
0101
0000
,
0110
0110
1001
1001
,
0001
1000
0001
1000
0001
1000
0001
1000
,
0020
0000
0000
0030
,
0100
0001
0100
0100
,
0010
0000
1000
0000
0100
1000
0100
0000
,
1000
0001
0100
0010
,
0100
0000
0001
0000
0010
0001
0010
0000
,
0001
1000
0010
1000
,
0001
0000
1000
0000
0100
1000
0100
0000
,
1000
0001
0100
0010
,
0100
0001
1000
0001
2000
0000
3000
0000
,
0001
0000
1000
0000
0001
1000
0001
0000
,
1000
0000
0010
0000
1000
0010
1000
0000
,
0001
0000
0100
0000
0010
0100
0010
0000
,
0100
0000
0001
0000
0010
0001
0010
0000
,
0001
0000
1000
0000
0010
1000
0010
0000
,
1000
0000
1000
0000
0100
1000
0100
0000
,
1000
0000
0001
0000
0100
0001
0100
0000
,
0001
0000
1000
0000
0010
0100
0010
0100
,
0010
0000
1000
0000
0001
0010
0001
0000
,
1000
0000
0100
0000
1000
0100
1000
0000
,
0001
0000
0100
0000
0010
0100
0010
0000
,
0100
0000
0001
0000
0010
0001
0010
0000
,
0001
0000
1000
0000
0010
1000
0010
0000
,
1000
0000
0001
0000
0100
0001
0100
0000
,
0001
0000
1000
0000
0100
1000
0100
1000
,
0200
0000
0300
0000
,
1000
0001
0100
0010
,
0100
0010
0100
0000
0100
0001
0100
0000
,
0001
1000
0010
1000
,
0001
0010
0001
0000
0001
0100
0001
0000
,
0100
0010
1000
0100
,
0010
0001
0010
0002
0000
0000
1003
0000
,
1000
0001
0100
0010
,
1000
0100
1000
0200
0000
0000
1300
0000
,
1000
0010
0100
0010
,
1000
0001
1000
0002
0000
0000
1003
0000
,
0001
1001
1000
1001
,
0001
0101
0100
0110
,
1010
0000
0101
0000
,
0011
0011
1100
1100
,
2002
0000
0000
3003
,
1001
0000
0000
0000
;

//--------------- dance-single - Alex ----------------
#NOTES:
     dance-single:
     Alex:
     Hard:
     10:
     0,0,0,0,0:
0000
0000
0000
0000
,
0000
0000
0000
0000
,
0000
0000
0000
0000
,
0000
0000
0000
0000
,
1001
0000
0001
0100
0010
0100
0000
0101
,
0000
1010
0000
1100
0110
0000
0011
0000
,
1001
0000
0001
1000
0010
0100
0000
0101
,
0000
1010
0000
1100
0011
0000
1001
0000
,
0001
0100
0010
0100
0001
0100
0010
0100
,
0001
0010
0100
1000
0001
0010
0100
0000
,
1000
0010
0100
0001
1000
0100
0010
0001
,
1000
0000
0010
0000
0100
0000
0001
0000
4000
0004
0000
0000
0000
0000
3003
0000
,
1001
0000
0001
0100
0010
0100
0000
0101
,
0000
0011
0000
1001
1010
0000
1001
0000
,
0101
0000
0010
0100
0001
1000
0000
1010
,
0000
0101
0000
0011
0101
0000
0110
0000
,
0010
1000
0001
0100
0010
1000
0001
0010
,
0001
1000
0010
1000
0100
0010
0100
1000
,
0001
0100
0010
0100
0001
1000
0010
0100
,
0004
4000
0000
0000
0000
0000
0000
0000
0000
0000
0000
0000
0000
0000
3003
0000
,
0101
0000
0110
0000
1010
1100
0000
0022
,
0000
0000
0133
0100
0001
1000
0010
0100
,
0101
0000
1010
0000
1100
0110
0000
0011
,
0000
1001
0110
0000
2002
0000
3003
0000
,
1100
0000
1010
0000
0101
0011
0000
0202
,
0000
0000
0313
0020
0000
0000
0000
0030
,
0100
0001
0010
0001
1000
0010
1000
0100
,
0010
0001
0100
0010
1000
0001
0010
0100
,
1100
0000
0010
0001
0100
0010
0000
0110
,
0000
0101
0000
0011
1001
0000
0101
0000
,
1010
0000
0010
1000
0001
0100
0000
0110
,
0000
0101
0000
0011
1001
0000
1010
0000
,
0010
1000
0100
0010
0100
1000
0001
0100
,
0010
0100
0001
0010
0001
1000
0010
0000
,
1000
1000
0001
0001
0100
0100
0010
0010
,
0100
0001
0010
0100
1000
0001
0100
0010
,
1001
0000
1100
0000
,
0011
0110
1100
1010
,
0010
1000
0001
0100
0010
1000
0001
1000
,
0040
0400
0000
0000
0000
0000
0000
0000
0000
0000
0000
0000
0000
0000
0330
0000
,
0001
1000
0010
0100
0000
0100
0001
0010
,
0000
0010
0001
1000
0000
0010
0100
0000
,
0001
1000
0100
1000
0000
0001
0100
0010
,
0000
1000
0010
1000
0000
0001
0100
0000
,
0001
0010
0001
0101
0000
0100
0010
0110
,
0000
0010
1000
1100
0000
0011
1001
0000
,
0001
1000
0010
1010
0000
0010
0100
0101
,
0000
0000
0001
0000
1000
0000
0010
0000
0400
0040
0000
0000
0000
0000
0330
0000
,
0010
0000
1000
0000
0001
0000
0100
0000
0010
0100
0010
0000
1000
0000
0001
0000
,
0010
0000
0001
0000
1000
0000
0010
0000
1000
0010
1000
0000
0001
0000
1000
0000
,
0100
0000
1000
0000
0001
0000
0100
0000
0010
0100
0010
0000
1000
0000
0001
0000
,
0010
0000
0001
0000
1000
0000
0010
0000
0100
0001
0100
0000
0010
0000
0100
0000
,
0001
0000
0010
0000
0001
0000
1000
0000
0010
1000
0010
0000
1000
0000
0001
0000
,
1000
0000
0001
0000
0100
0000
0001
0000
1000
0010
1000
0000
0001
0000
0010
0000
,
0100
0000
1000
0000
0001
0000
0100
0000
0010
0100
0010
0000
0100
0000
0100
0000
,
0001
0000
1000
0000
0010
0000
1000
0000
0004
4000
0000
0000
0000
0000
3003
0000
,
0001
0000
1000
0000
0010
0000
1000
0000
0001
0010
0001
0000
0100
0000
0100
0000
,
0001
0000
0010
0000
0100
0000
0010
0000
0001
1000
0001
0000
1000
0000
0001
0000
,
1000
0000
0100
0000
1000
0000
0001
0000
1000
0010
1000
0000
0001
0000
1000
0000
,
0010
0000
0100
0000
0001
0000
1000
0000
0001
0010
0001
0000
0100
0000
0001
0000
,
0010
0000
0001
0000
0100
0000
0010
0000
0100
0010
0100
0000
0010
0000
1000
0000
,
0100
0000
1000
0000
0010
0000
1000
0000
0001
1000
0001
0000
0100
0000
0001
0000
,
0100
0000
0010
0000
0100
0001
0100
0000
0001
0000
1000
0000
0001
1000
0001
0000
,
4000
0004
0000
0000
0000
0000
0000
0000
0000
0000
0000
0000
0000
0000
3003
0000
,
1001
0000
0001
1000
0010
1000
0000
1001
,
0000
0101
0000
0110
1010
0000
1100
0000
,
0110
0000
0001
0100
0010
0100
0000
0101
,
0000
1010
0000
0011
0101
0000
0110
0000
,
0010
1000
0001
0100
0010
1000
0001
0010
,
0100
1000
0001
0100
0010
1000
0100
0000
,
1000
0100
1000
0010
1000
0001
0100
0010
,
0100
0001
0001
0010
0100
0010
0001
0000
,
0100
0010
0100
0001
1000
0010
0100
0001
,
1000
0100
0010
0001
0100
0010
1000
0000
,
0001
1000
1001
0001
0100
0010
0110
0100
,
0001
0010
0011
0001
1000
0010
1010
1000
,
1001
0000
0110
0000
,
1100
0011
0110
1001
,
0110
0000
0000
0000
0040
0400
0000
0000
0000
0000
0000
0000
0000
0000
0330
0000
,
1001
0000
0000
0000
;
