#TITLE:Caprice of Otada;
#SUBTITLE:;
#ARTIST:Banya Production;
#TITLETRANSLIT:;
#SUBTITLETRANSLIT:;
#ARTISTTRANSLIT:;
#GENRE:;
#CREDIT:;
#MUSIC:Caprice of Otada.ogg;
#BANNER:Caprice of Otada.png;
#BACKGROUND:Caprice of Otada-BG.png;
#CDTITLE:;
#SAMPLESTART:18.063;
#SAMPLELENGTH:11.852;
#SELECTABLE:YES;
#OFFSET:-0.110;
#BPMS:0.000=160.000;
#STOPS:;
#BGCHANGES:;
#FGCHANGES:;

//--------------- dance-single - Alex ----------------
#NOTES:
     dance-single:
     Alex:
     Beginner:
     1:
     0,0,0,0,0:
0000
0000
0000
0000
,
0000
0000
0000
0000
,
0000
0000
0000
0000
,
0000
0000
0000
0000
,
0001
0000
0000
0000
,
1000
0000
0000
0000
,
0010
0000
0000
0000
,
0100
0000
0000
0000
,
1000
0000
0000
0000
,
0010
0000
0000
0000
,
0001
0000
0000
0000
,
0001
0000
0000
0000
,
1000
0000
1000
0000
,
1000
0000
0000
0000
,
0010
0000
0010
0000
,
0010
0000
0000
0000
,
0100
0000
0000
0000
,
0001
0000
0000
0000
,
1000
0000
0000
0000
,
1000
0000
0001
0000
,
2002
0000
0000
0000
,
3003
0000
0000
0000
,
0110
0000
0000
0000
,
0010
0000
0000
0000
,
1000
0000
0000
0000
,
1000
0000
0000
0000
,
0001
0000
0000
0000
,
0100
0000
0000
0000
,
0010
0000
0010
0000
,
0010
0000
0000
0000
,
0110
0000
0000
0000
,
0001
0000
0000
0000
,
1000
0000
0000
0000
,
0001
0000
0000
0000
,
0100
0000
0000
0000
,
1000
0000
0000
0000
,
0010
0000
0000
0000
,
1000
0000
0000
0000
,
0001
0000
0001
0000
,
0001
0000
0000
0000
,
1000
0000
1000
0000
,
1000
0000
0000
0000
,
0010
0000
0000
0000
,
1000
0000
0000
0000
,
0001
0000
0001
0000
,
0200
0000
0300
0000
,
1001
0000
0000
0000
,
0010
0000
0000
0000
,
0001
0000
0000
0000
,
1000
0000
0000
0000
,
0100
0000
0000
0000
,
1000
0000
0000
0000
,
0010
0000
0010
0000
,
0020
0000
0000
0000
,
0030
0000
0000
0000
,
1001
0000
0000
0000
,
0001
0000
0000
0000
,
1000
0000
1000
0000
,
1000
0000
0000
0000
,
0010
0000
0000
0000
,
0100
0000
0000
0000
,
0001
0000
0001
0000
,
0001
0000
0000
0000
,
1000
0000
0000
0000
,
0001
0000
1000
0000
;

//--------------- dance-single - Alex ----------------
#NOTES:
     dance-single:
     Alex:
     Easy:
     4:
     0,0,0,0,0:
0000
0000
0000
0000
,
0000
0000
0000
0000
,
0000
0000
0000
0000
,
0000
0000
0000
0000
,
0010
0000
1000
0000
,
0001
0000
1000
0001
,
1000
0000
0001
0000
,
0100
0000
0010
0100
,
0010
0000
0010
0000
,
1000
0000
1000
0000
,
0001
0000
0100
0000
,
0010
1000
0010
0000
,
1001
0000
1001
0000
,
0110
0110
0110
0000
,
0011
0000
0011
0000
,
0101
0101
0101
0000
,
0100
0100
0010
0000
,
1000
1000
0001
0000
,
1000
0000
0001
0000
,
0100
0001
0100
0010
,
2002
0000
0000
3003
,
1000
0001
1000
0001
,
0100
0000
0001
0010
,
0200
0300
0010
0001
,
2000
3000
0010
1000
,
0002
0003
1000
0100
,
2000
3000
0001
0010
,
0002
0003
0100
0010
,
0200
0000
0300
0010
,
2002
0000
3003
0000
,
0001
1000
0001
1000
,
0100
0000
1001
0000
,
0010
0010
0100
0100
,
0001
0000
1001
0000
,
1000
1000
0010
0010
,
1000
0000
0010
1000
,
0001
0000
0010
0001
,
0100
0000
0110
0000
,
0010
0000
0010
0000
,
1000
0000
2000
3000
,
0001
0000
1000
0000
,
0001
0000
0002
0003
,
0100
0100
0100
0000
,
0001
0001
0001
0000
,
1000
0010
1000
0010
,
0100
0001
0020
0030
,
1001
0000
1001
0000
,
0110
0000
1000
0010
,
1010
0000
1100
0000
,
1001
0000
0001
0100
,
0101
0000
1010
0000
,
0101
0000
0100
0100
,
0110
0000
1010
0000
,
1100
0000
1000
2002
,
0000
0000
3003
0000
,
0001
1000
0001
0000
,
1000
0010
1000
0000
,
0001
0001
0100
0100
,
0001
0000
0101
0000
,
0100
0100
0010
0000
,
1000
1000
0010
0000
,
1010
0000
1001
0000
,
0101
0000
0110
0000
,
0100
0010
0100
0010
,
0100
0100
0020
0000
,
0000
0000
0030
0000
;

//--------------- dance-single - Alex ----------------
#NOTES:
     dance-single:
     Alex:
     Medium:
     6:
     0,0,0,0,0:
0000
0000
0000
0000
,
0000
0000
0000
0000
,
0000
0000
0000
0000
,
0000
0000
0000
0000
,
0001
1000
0010
1000
,
0001
0100
0020
0030
,
1000
0001
0010
0001
,
1000
0100
2000
3000
,
0001
1000
0010
1000
,
0001
0100
0010
0010
,
1000
0001
1000
1000
,
0001
0100
0101
0000
,
0001
0001
0010
0001
,
0100
0100
0220
0330
,
0010
1000
0001
1000
,
1000
0001
0202
0303
,
0001
0010
0001
1001
,
1000
0010
1000
0010
,
1010
1100
1010
1100
,
1000
0001
0100
0010
,
2002
0000
0000
3003
,
1001
0110
1001
0110
,
0020
0030
0100
0001
,
2000
3010
0100
0001
,
0010
0100
1000
0002
,
0103
0010
1000
0001
,
0010
0010
0001
1000
,
2020
0000
3030
1010
,
1001
0001
0100
1000
,
0100
0001
0001
0000
,
1001
0001
1000
0010
,
1000
0000
1000
0000
0001
0000
0100
0001
,
0100
0010
1000
0001
,
0010
0000
0010
0000
0001
0000
1000
0010
,
1000
0001
0100
0010
,
1000
0000
1000
0000
0100
1000
0100
1000
,
0100
1000
0010
0001
,
0010
1000
0010
0001
,
1001
0010
1001
0100
,
0011
1100
0022
0033
,
0101
0010
1010
1000
,
0011
0101
2020
3030
,
1100
1010
1100
0000
,
0011
0101
0110
0000
,
0010
0010
1000
1000
,
0001
0100
0020
0030
,
1000
0000
1000
0000
0010
1000
0010
0000
,
1000
0000
0001
0000
0010
0001
0010
0000
,
0001
0000
0100
0000
0010
0100
0010
0000
,
0100
0000
0001
0000
1000
0001
1000
0000
,
0001
0001
1000
1000
,
0010
0100
0010
0100
0010
0000
1001
0000
,
0001
0001
0100
0100
,
0010
1000
0010
1000
0010
0000
2200
0000
,
0000
0000
0000
3300
,
1001
0000
1001
0000
0010
0100
0010
0000
,
1001
0000
1001
0000
0100
0010
0100
0000
,
0001
0001
1000
1000
,
0001
0010
0001
0000
,
0110
0000
0110
0000
0001
1000
0001
0000
,
0110
0000
0110
0000
1000
0001
1000
0000
,
0001
0001
0100
0100
,
0010
1000
0001
1000
,
0100
0010
0001
0100
,
0010
0000
0100
0010
0200
0000
0000
0000
,
0000
0000
0300
0000
;

//--------------- dance-single - Alex ----------------
#NOTES:
     dance-single:
     Alex:
     Hard:
     9:
     0,0,0,0,0:
0000
0000
0000
0000
,
0000
0000
0000
0000
,
0000
0000
0000
0000
,
0000
0000
0000
0000
,
1001
0000
0001
0100
0020
0030
1000
0100
,
0020
0030
0001
0100
0020
0030
1001
0000
,
0110
0000
0010
1000
0200
0300
1000
0001
,
0020
0030
0001
0100
0020
0030
1001
0000
,
0110
0000
0000
0010
0100
0010
0100
0000
0001
0000
0000
1000
0100
1000
0100
0000
,
1000
0000
0000
0001
1000
0001
1000
0000
0001
0000
0000
0010
0001
0010
0001
0000
,
0100
0000
0000
0010
1000
0010
1000
0000
0001
0000
0000
1000
0001
1000
0001
0000
,
0100
0000
0000
0010
0100
0010
0100
0000
0010
0000
0000
0000
1001
0000
0000
0000
,
0001
0000
1000
0000
0010
1000
0010
0000
1000
0000
0001
0000
0010
0001
0010
0000
,
0001
0000
0100
0000
0010
0100
0010
0100
0010
0000
0000
0000
1001
0000
0000
0000
,
0001
0000
0100
0000
0001
0100
0001
0000
1000
0000
1000
0000
0010
1000
0010
0000
,
1000
0000
0001
0000
0010
0001
0010
0001
0010
0000
0000
0000
1001
0000
0000
0000
,
0001
0000
0100
0000
0010
1000
0010
1000
0010
0000
1000
0000
0002
0000
0003
0000
,
1000
0000
0001
0000
0100
0010
0100
0010
0100
0000
0001
0000
2000
0000
3000
0000
,
0011
0101
0110
1010
,
0010
1000
0001
1000
0010
0100
0001
0000
,
2002
0000
0000
3003
,
1001
0110
1010
1100
,
0012
0003
0100
0010
0100
0001
1000
0010
,
2000
3000
0001
1000
0010
0100
0001
1000
,
0200
0300
1000
0001
0001
0100
0001
0010
,
0002
0003
0100
0010
0100
0001
1000
0010
,
1010
0000
1000
0001
0100
0010
0100
0001
,
0202
0000
0000
0000
0303
0001
1000
0010
,
0100
0001
1000
0010
,
1010
1100
0011
0101
,
0002
0003
1000
0001
0100
0010
1000
0100
,
0020
0000
0000
0000
0030
0000
0001
0000
0100
0000
0000
0000
0001
0000
1000
0010
,
1000
0000
0001
0100
0010
1000
0100
0010
,
0002
0000
0003
1000
0001
0000
1001
0000
,
0002
0000
0003
0100
0010
1000
0100
0010
,
0020
0000
0030
0001
1000
1000
0010
1000
,
0100
0010
0001
0100
0010
0100
0001
0010
,
0100
1000
0001
0100
0010
1000
0001
1000
,
0001
0100
0001
0100
0000
0000
0010
1000
0010
1000
0000
0000
,
0001
0000
0010
0000
0001
0000
0010
0000
0000
0000
0000
0000
0010
0000
0000
0200
0000
0000
0000
0000
0000
0300
0000
0000
,
0010
0001
0010
0001
0000
0000
1000
0001
1000
0001
0000
0000
,
1000
0010
1000
0010
0000
0000
2020
0000
0000
3030
0000
0000
,
1000
0001
1000
0001
0000
0000
0100
0001
0100
0001
0000
0000
,
0100
0010
0100
0010
0000
0000
0010
1000
0010
1000
0000
0000
,
0001
0010
0001
0010
0000
0000
0001
1000
0001
1000
0000
0000
,
0010
0100
0010
0100
0010
0100
0020
0000
0000
0030
0000
0000
,
1000
0001
1000
0010
1000
0001
0010
0100
,
0010
0001
0100
0010
0100
0100
0100
0000
,
0001
1000
0010
1000
0001
0010
0001
0100
,
0010
0100
0001
0010
0100
0100
0100
0000
,
1000
0001
0100
0001
1000
0010
1000
0001
,
0010
0001
0100
0010
1010
0000
0101
0000
,
0001
0010
0100
0010
0001
0100
0010
0100
,
0001
1000
0010
1000
1100
0000
0022
0000
,
0000
0000
0000
0000
0000
0033
0000
0000
,
0001
0100
0010
0100
0001
1000
0020
0030
,
1000
0001
0100
0010
1000
0001
0020
0030
,
0011
0101
1010
1100
,
1000
0001
0100
0010
0200
0300
0020
0030
,
1000
0000
0001
0000
0010
0001
0010
0001
0010
0000
0001
0000
2000
0000
3000
0000
,
0010
0000
0100
0000
0001
1000
0001
1000
0001
0000
1000
0000
0002
0000
0003
0000
,
1001
0010
1001
0100
,
0001
0001
1000
0010
1000
0001
1000
0010
,
1000
0001
0010
0001
0100
0010
1000
0100
,
1100
0000
0000
0000
0001
1000
0001
1000
0020
0000
0000
0000
0000
0000
0000
0000
,
0000
0000
0030
0000
;
