#TITLE:Can Can;
#SUBTITLE:;
#ARTIST:Banya;
#TITLETRANSLIT:;
#SUBTITLETRANSLIT:;
#ARTISTTRANSLIT:;
#GENRE:;
#CREDIT:;
#MUSIC:Can Can.ogg;
#BANNER:Can Can.png;
#BACKGROUND:Can Can-BG.png;
#CDTITLE:;
#SAMPLESTART:12.230;
#SAMPLELENGTH:12.718;
#SELECTABLE:YES;
#OFFSET:-0.071;
#BPMS:0.000=196.770
,192.000=197.000
;
#STOPS:;
#BGCHANGES:;
#FGCHANGES:;

//--------------- dance-single - Alex ----------------
#NOTES:
     dance-single:
     Alex:
     Beginner:
     1:
     0,0,0,0,0:
0000
0000
0000
0000
,
0000
0000
0000
0000
,
1000
0000
0000
0000
,
0001
0000
0000
0000
,
0001
0000
0000
0000
,
1000
0000
0000
0000
,
0010
0000
0000
0000
,
0100
0000
0000
0000
,
0100
0000
0000
0000
,
0001
0000
0000
0000
,
1000
0000
0000
0000
,
1000
0000
0000
0000
,
0010
0000
0000
0000
,
0010
0000
0000
0000
,
1000
0000
0000
0000
,
0001
0000
0000
0000
,
0100
0000
0000
0000
,
0010
0000
0000
0000
,
0100
0000
0000
0000
,
0001
0000
0000
0000
,
0001
0000
0000
0000
,
1000
0000
0000
0000
,
1000
0000
0000
0000
,
0010
0000
0000
0000
,
1000
0000
0000
0000
,
0001
0000
0000
0000
,
1000
0000
0000
0000
,
0001
0000
0000
0000
,
0100
0000
0000
0000
,
0010
0000
0000
0000
,
1000
0000
0000
0000
,
0001
0000
0000
0000
,
0001
0000
0000
0000
,
1000
0000
0000
0000
,
0010
0000
0000
0000
,
0100
0000
0000
0000
,
0001
0000
0000
0000
,
1000
0000
0000
0000
,
0010
0000
0000
0000
,
1000
0000
0000
0000
,
1000
0000
0000
0000
,
0001
0000
0000
0000
,
0001
0000
0000
0000
,
0100
0000
0000
0000
,
0001
0000
0000
0000
,
1000
0000
0000
0000
,
0010
0000
0000
0000
,
0010
0000
0000
0000
,
0100
0000
0000
0000
,
0001
0000
0000
0000
,
1000
0000
0000
0000
,
1000
0000
0000
0000
,
0001
0000
0000
0000
,
0001
0000
0000
0000
,
1000
0000
0000
0000
,
1000
0000
0000
0000
,
0010
0000
0000
0000
,
0100
0000
0000
0000
,
0001
0000
0000
0000
,
0010
0000
0000
0000
,
0001
0000
0000
0000
,
0001
0000
0000
0000
,
1000
0000
0000
0000
,
1000
0000
0000
0000
,
0010
0000
0000
0000
,
0010
0000
0000
0000
,
1000
0000
0000
0000
,
0001
0000
0000
0000
,
1000
0000
0000
0000
;

//--------------- dance-single - Alex ----------------
#NOTES:
     dance-single:
     Alex:
     Easy:
     4:
     0,0,0,0,0:
0000
0000
0000
0000
,
0000
0000
0000
0000
,
0001
0000
1000
0001
,
1000
0000
0001
0100
,
0001
0000
1000
0100
,
1000
0100
1000
0000
,
1000
0000
0001
0100
,
0001
0000
1000
0100
,
1000
0000
0001
0100
,
0010
0000
1001
0000
,
1000
0000
0010
1000
,
0010
0000
1000
0001
,
1000
0000
0001
0100
,
0001
0100
0001
0000
,
1000
0000
0001
1000
,
0001
0000
1000
0010
,
1000
0000
0001
0010
,
0001
0010
0011
0000
,
0001
0000
0010
0100
,
0010
0000
1000
0100
,
1000
0000
0001
0100
,
0010
0100
0001
0000
,
1000
0000
1000
0001
,
0010
0000
0001
1000
,
0010
0000
1000
0001
,
1000
0001
1000
0000
,
1001
0000
0000
0000
,
0110
0000
0000
0000
,
1100
0000
0000
0000
,
0011
0000
0000
0000
,
0001
0000
0100
0001
,
0100
0000
0010
1000
,
0010
0000
1000
0001
,
1000
0001
1000
0000
,
0001
0000
0100
0010
,
0100
0000
0001
0010
,
0001
0000
1000
0100
,
1000
0100
1100
0000
,
1000
0000
1000
1000
,
0010
0000
0100
0100
,
0100
0000
0001
0010
,
0001
0010
0001
0000
,
1000
0000
0010
1000
,
0010
0000
1000
0001
,
1000
0000
0001
0100
,
0001
0100
0001
0000
,
1001
0000
0000
0000
,
0110
0000
0000
0000
,
1001
0000
0000
0000
,
0110
0000
0000
0000
,
0010
0010
0010
0000
,
1000
1000
1000
0000
,
0001
0000
1000
0000
,
1001
0000
0000
0000
,
0001
0001
0001
0000
,
0100
0100
0100
0000
,
0010
0000
0100
0000
,
0110
0000
0000
0000
,
0010
1000
0010
0000
,
1000
0100
1000
0000
,
0001
0000
0010
0000
,
0011
0000
0000
0000
,
0001
0100
0001
0000
,
0100
0010
0100
0000
,
0001
0000
1000
0000
,
1001
0000
0000
0000
,
0001
0000
1000
0000
,
0001
1000
0001
0000
,
1001
0000
0000
0000
;

//--------------- dance-single - Alex ----------------
#NOTES:
     dance-single:
     Alex:
     Medium:
     6:
     0,0,0,0,0:
0000
0000
0000
0000
,
0000
0000
0000
0000
,
0001
1000
0010
0010
,
1000
0001
0100
0100
,
0001
0010
0100
0010
,
0001
0100
0010
1000
,
0001
0001
1000
0100
,
1000
1000
0010
0010
,
1000
0001
0100
0010
,
1000
0001
1001
0000
,
0001
0100
0010
0100
,
0001
0010
0100
1000
,
0001
0001
1000
0010
,
1000
0001
0100
0010
,
0100
0100
0001
0010
,
0001
1000
0100
1000
,
1000
0010
1000
0001
,
0100
0010
0110
0000
,
1001
1000
0010
0010
,
1000
0001
0001
1000
,
0001
0100
0100
0010
,
1000
0100
0010
0100
,
1000
0001
0100
0010
,
0100
0100
0001
0010
,
0100
1000
0001
0100
,
0010
0100
0001
1000
,
1001
0000
0110
0000
,
1001
0000
0110
0000
,
1010
0000
0101
0000
,
1001
0001
1001
1000
,
1001
0001
0100
0010
,
0010
0100
0001
1000
,
0100
1000
1000
0010
,
1000
0001
0100
0010
,
0100
0100
0001
0010
,
0100
0010
0001
1000
,
0010
1000
1000
0001
,
0100
0010
0110
0000
,
0100
0001
1000
1000
,
0001
0010
0001
0100
,
0010
0010
1000
0100
,
0010
0100
1000
1000
,
0001
0100
0010
0100
,
0001
0001
1000
0001
,
0010
0010
0001
1000
,
0010
1000
0001
1000
,
1001
0000
0110
0000
,
1001
0000
0110
0000
,
0011
0000
1100
0000
,
1010
0100
1010
0001
,
1000
0001
1000
0000
,
0001
0100
0001
0000
,
1000
0010
1000
0001
,
0010
0100
1000
0000
,
0001
0100
0001
0000
,
0100
0010
0100
0000
,
0001
0000
1000
0000
,
0001
0010
0001
0100
,
0010
0010
1000
0000
,
0001
1000
0001
0000
,
1000
0000
0001
0000
,
1000
0100
1000
1000
,
0001
0100
0010
0000
,
1000
0001
1000
0000
,
0001
0010
0001
0001
,
0100
0010
0100
0000
,
0001
1000
0100
0100
,
1000
0001
0100
0000
,
1001
0000
0000
0000
;

//--------------- dance-single - Alex ----------------
#NOTES:
     dance-single:
     Alex:
     Hard:
     9:
     0,0,0,0,0:
0000
0000
0000
0000
,
0000
0000
0000
0000
,
0001
0000
1000
0000
0001
0100
0010
0100
,
0001
0000
1000
0000
0100
0010
0001
1000
,
0010
0000
1000
0000
0001
1000
0010
0100
,
0001
1000
0100
0010
0100
1000
0001
0100
,
0010
0000
0100
0000
0001
0001
1000
0010
,
0100
0000
0001
0000
0010
0100
1000
1000
,
0001
0000
0100
0000
0010
0100
0001
0010
,
0001
1000
0010
0100
0001
0000
1000
0000
,
1001
0000
0110
0000
0010
0100
0001
1000
,
0010
0000
1000
0000
0001
1000
0100
1000
,
0001
0000
1000
0000
0001
0010
0001
0100
,
0001
0010
0100
0010
0001
0100
0010
0100
,
0001
0000
1000
0000
0010
0010
1000
0001
,
0100
0000
0010
0000
1000
0100
0010
0001
,
1000
0000
0010
0000
0100
0001
0010
0100
,
1000
0001
0100
0010
1000
0000
0001
0000
,
1001
0000
0110
0000
0010
0100
0001
0100
,
0010
0000
0100
0000
0001
0001
1000
1000
,
0010
0000
1000
0000
0001
1000
0010
0100
,
0001
1000
0100
0010
0100
1000
0001
0100
,
0010
0000
0100
0000
0001
0001
1000
0010
,
1000
0000
0001
0000
0010
0010
0001
0100
,
0001
0000
0100
0000
0010
0100
0001
0010
,
0001
0100
0010
0100
0001
0000
1000
0000
,
1001
0000
0110
0000
,
1010
0000
1100
0000
,
0011
0101
0110
1010
,
1100
0110
1001
0110
,
0110
0000
1001
0000
0001
1000
0100
1000
,
0001
0000
1000
0000
0001
0100
0001
0100
,
0001
0000
0100
0000
0010
0100
0001
0010
,
0001
0100
0010
0100
0001
0010
0100
1000
,
0001
0000
1000
0000
0010
1000
0100
1000
,
0010
0000
1000
0000
0001
1000
0010
0100
,
0001
0000
1000
0000
0001
0010
0100
1000
,
0001
0100
0010
1000
0100
0000
1000
0000
,
1010
0000
1100
0000
0100
1000
0100
1000
,
0100
0000
1000
0000
0001
0100
0001
0100
,
0001
0000
0100
0000
0010
0100
0001
0010
,
0001
1000
0010
1000
0001
1000
0100
0010
,
0001
0000
0100
0000
0010
0010
0100
0100
,
0001
0000
1000
0000
0100
0010
0001
0100
,
0010
0000
0100
0000
0001
1000
0010
1000
,
0001
0010
0001
0100
0010
0000
0110
0000
,
1001
0000
0011
0000
,
0101
0000
0110
0000
,
1010
1100
0110
0011
,
0101
0110
0101
1001
,
0001
1000
0010
1000
0001
1000
0100
0000
,
0010
0001
0100
0010
0100
0001
0010
0000
,
0001
1000
0001
0000
1000
0001
1000
0000
,
0001
1000
2002
3003
,
0001
1000
0010
1000
0001
1000
0100
0000
,
0010
0001
0100
0010
0100
0001
0010
0000
,
0001
1000
0001
0000
1000
0100
1000
0000
,
0001
0100
0010
0100
2002
0000
3003
0000
,
0001
1000
0010
0010
1000
0001
0100
0000
,
0001
0010
0010
0001
0100
0010
0100
0000
,
0001
1000
0100
0000
0010
0001
0100
0000
,
0010
0100
2002
3003
,
0001
1000
0001
0100
0001
1000
0010
0000
,
1000
0001
0010
0001
0100
0010
0100
0000
,
0001
0010
0001
0000
1000
0100
1000
0000
,
0001
0100
0010
1000
2200
0000
3300
0000
,
0010
0001
0010
0000
0001
0100
0001
0000
,
0100
0010
0100
0001
0011
0000
1100
0000
,
2002
0000
0000
0000
,
3003
0000
0000
0000
;
