#TITLE:Butterfly;
#SUBTITLE:;
#ARTIST:MAX&Rorychesell(SID SOUND);
#TITLETRANSLIT:;
#SUBTITLETRANSLIT:;
#ARTISTTRANSLIT:;
#GENRE:;
#CREDIT:;
#MUSIC:Butterfly.ogg;
#BANNER:Butterfly.png;
#BACKGROUND:Butterfly-BG.png;
#CDTITLE:;
#SAMPLESTART:67.511;
#SAMPLELENGTH:13.115;
#SELECTABLE:YES;
#OFFSET:0.165;
#BPMS:0.000=128.000;
#STOPS:;
#BGCHANGES:;
#FGCHANGES:;

//--------------- dance-single - Alex ----------------
#NOTES:
     dance-single:
     Alex:
     Beginner:
     1:
     0,0,0,0,0:
0000
0000
0000
0000
,
0000
0000
0000
0000
,
0000
0000
0000
0000
,
0000
0000
0000
0000
,
0000
0000
0110
0000
,
0000
0000
0001
0000
,
0000
0000
0100
0000
,
0000
0000
0001
0000
,
1000
0000
0001
0000
,
0000
0000
1000
0000
,
0000
0000
0010
0000
,
0000
0000
1000
0000
,
0000
0000
1001
0000
,
0000
0000
0100
0000
,
0000
0000
0001
0000
,
0000
0000
1000
0000
,
1000
0000
1000
0000
,
0000
0000
0001
0000
,
0000
0000
1000
0000
,
0000
0000
0010
0000
,
0000
0000
1001
0000
,
0000
0000
0100
0000
,
0000
0000
0010
0000
,
0010
0000
0010
0000
,
0000
0000
1000
0000
,
0000
0000
0001
0000
,
0000
0000
1000
0000
,
0000
0000
0001
0000
,
0000
0000
0110
0000
,
0000
0000
0010
0000
,
0000
0000
0100
0000
,
0000
0000
0001
0000
,
0001
0000
0100
0000
,
0000
0000
0001
0000
,
0000
0000
1000
0000
,
0000
0000
0010
0000
,
0000
0000
1001
0000
,
0000
0000
1000
0000
,
0000
0000
0010
0000
,
0000
0000
1000
0000
,
0000
0000
0001
0000
,
0001
0000
0001
0000
,
0001
0000
0100
0000
,
0000
0000
0010
0000
,
0000
0000
1001
0000
,
0000
0000
0001
0000
,
0000
0000
1000
0000
,
1000
0000
1000
0000
,
0000
0000
0010
0000
,
0000
0000
1000
0000
,
0000
0000
0100
0000
,
0000
0000
1001
0000
;

//--------------- dance-single - Alex ----------------
#NOTES:
     dance-single:
     Alex:
     Easy:
     4:
     0,0,0,0,0:
0000
0000
0000
0000
,
0000
0000
0000
0000
,
0000
0000
0000
0000
,
0000
0000
0010
1000
,
0001
0000
0100
0000
0020
0000
0030
2000
,
0000
0000
3000
0000
0002
0000
0003
0200
,
0000
0000
0300
0000
0020
0000
0030
0002
,
0000
0003
1000
0000
0001
0000
1000
0000
,
0001
0000
0001
0000
2000
0000
3000
0020
,
0000
0000
0030
0000
0200
0000
0300
0020
,
0000
0000
0030
0000
2000
0000
3000
0002
,
0000
0003
1000
0000
2002
0000
0000
0000
,
3003
0000
0001
0100
,
0001
0000
1000
0010
,
1000
0000
0001
1000
,
0001
0000
1000
0100
,
1100
0000
1000
1000
,
1000
0000
0010
0010
,
0010
0000
1000
0001
,
1000
0001
1001
0000
,
1001
0000
0010
0100
,
0010
0000
0100
0001
,
0100
0000
0001
0000
,
1000
0000
0001
0001
,
1000
1000
0010
0000
,
0100
0000
0001
0000
,
1000
0000
0001
1000
,
0001
1000
0020
0000
,
0030
0000
1001
0000
,
0110
0000
0010
0100
,
0010
0000
1010
0000
,
0101
0000
0001
0100
,
0001
1000
1001
0000
,
1001
0000
0001
0010
,
0001
0000
0101
0000
,
1010
0000
2002
0000
,
3003
0000
0010
0100
,
0010
0000
0100
0001
,
0100
0000
0001
1000
,
0001
0000
1000
0010
,
1000
0000
0001
0100
,
0010
0100
0001
1000
,
1000
0001
0010
0100
,
1000
0010
0200
0000
,
0000
0000
0300
0000
0002
0000
0003
2000
,
0000
0000
3000
0000
0002
0000
0003
0200
,
0000
0000
0300
0000
0020
0000
0030
2000
,
0000
3000
0001
0010
,
0100
1000
0010
0000
,
1010
0000
1000
0001
,
1000
0001
0101
0000
,
0110
0000
1010
0000
;

//--------------- dance-single - Alex ----------------
#NOTES:
     dance-single:
     Alex:
     Medium:
     6:
     0,0,0,0,0:
0000
0000
0000
0000
,
0000
0000
0000
0000
,
0000
0000
0000
0000
,
0000
0000
0000
0000
0001
1000
0001
1000
,
0001
1000
0001
1000
0020
0000
0030
0200
,
0000
0300
0000
0001
0020
0000
0030
0002
,
0000
0000
0003
0000
2000
0000
3000
0020
,
0000
0030
0100
0001
1000
0000
0001
0000
,
0100
0000
0010
0000
2000
0000
3000
0020
,
0000
0000
0030
0100
0002
0000
0003
2000
,
0000
0000
3000
0000
0002
0000
0003
0020
,
0000
0030
1001
0000
0001
0100
0001
0100
,
0001
0100
0001
0000
1001
0000
1000
0000
,
0010
0100
0001
1000
,
0100
0000
0010
0001
0100
0000
0010
0000
,
0100
0001
1000
0010
,
0100
0010
0100
0000
1001
0000
0001
0000
,
1000
0010
1000
0001
,
1000
0000
0100
1000
0100
0000
1000
0000
,
0001
0000
0100
0010
0100
0000
0001
1000
,
0001
1001
0002
0100
,
0103
0000
0100
0010
0200
0000
0001
0000
,
0301
0000
0001
1000
0010
0100
0001
0000
,
1001
0000
0110
0000
0010
0100
0001
0000
,
1000
0100
0010
0000
0002
0000
0100
0000
,
0100
0103
2000
0010
,
0010
0000
3010
0000
0010
1000
0001
0000
,
0100
0001
1000
0000
2002
0000
0000
0000
,
0000
3003
0110
0010
,
1000
0000
0001
0010
0001
0000
0100
0000
,
0100
0000
0010
1000
0010
0000
1000
0000
,
0100
0000
1000
0100
1000
0000
0001
0000
,
0100
0000
0010
0100
0010
0000
1000
0000
,
0001
0000
0010
0001
0010
0000
0001
0000
,
1000
0000
0010
0100
0001
0000
1000
0000
,
0001
0100
0101
1010
,
2002
0000
3003
0000
0001
0100
0001
0000
,
1000
0100
1000
0000
0010
0100
0010
0000
,
1000
0001
1000
0000
0001
0000
0100
0000
,
1000
0100
0001
0100
,
1000
0000
0100
0000
0001
0010
0001
0000
,
0100
0001
0100
0000
0010
0100
0010
0000
,
1000
0010
1000
0000
0001
0000
1000
0000
,
0010
0100
0001
0200
0000
0000
0000
0000
,
0000
0000
0300
0000
0020
0000
0030
2000
,
0000
0000
3000
0001
0020
0000
0030
0002
,
0000
0000
0003
0000
0200
0000
0300
0010
,
0100
0020
0000
0030
1001
0000
0110
0000
,
0010
0100
0001
0100
0010
0000
0100
0000
,
0001
0000
1000
0000
0001
1000
0001
0000
,
1000
0000
0010
0000
1000
0000
0000
0000
0001
0000
0000
1000
0000
0000
0001
0000
,
0000
0100
0000
0020
0000
0000
0000
0000
,
0000
0000
0000
0030
;

//--------------- dance-single - Alex ----------------
#NOTES:
     dance-single:
     Alex:
     Hard:
     9:
     0,0,0,0,0:
0000
0000
0000
0000
,
0000
0000
0000
0000
,
0000
0000
0000
0000
,
0000
0000
0000
0000
0001
1000
0010
0100
,
0001
0000
1000
0000
0001
0100
0001
0100
0002
0000
0000
0000
0003
0000
0200
0000
,
0000
0000
0000
0000
0300
0000
0010
1000
0002
0000
0000
0000
0003
0000
1000
0010
,
2000
0000
0000
3000
0020
0000
0030
0200
,
0000
0000
0300
0000
0001
0000
1000
0000
0100
0000
0000
1000
0001
0000
0000
0000
,
0100
0001
0100
0010
2000
0000
3000
0020
,
0000
0000
0000
0000
0030
0000
0100
0001
0200
0000
0000
0000
0300
0000
0001
1000
,
0020
0000
0000
0030
0200
0000
0300
0020
,
0000
0030
1001
0000
0001
1000
0010
0100
,
0001
1000
0001
1000
0001
0000
0000
0000
0001
0000
0100
0000
0010
0000
0100
0000
,
0001
0100
0010
0100
0001
0010
0100
0010
,
0001
0100
0010
0100
0001
1000
0010
1000
,
0001
0010
0100
1000
0001
0100
0010
0100
,
0001
0100
0000
0100
0002
0000
0003
0000
1000
0000
1000
0000
0001
0000
0100
0000
,
0010
0100
0001
1000
0100
0010
0001
0100
,
0010
0100
0001
0010
0100
1000
0001
0100
,
0010
0100
0001
1000
0010
0000
1000
0001
,
1000
0000
0000
0000
1001
0000
0000
0000
0001
0000
1000
0001
0000
0001
1000
0000
,
0001
0000
1000
0000
0010
0000
0100
0000
0001
0000
0100
0001
0000
0001
0100
0000
,
0010
0000
0100
0000
0001
0000
1000
0000
0100
1000
0000
0001
0000
0000
0100
0000
,
0010
0100
0000
0100
0010
0000
0100
0000
0001
0000
1000
0000
0010
0000
0100
0000
,
0001
0010
0000
0010
0001
0000
0100
0000
0101
0000
0001
0000
0100
0000
0010
0000
,
0100
0001
0000
0001
0100
0000
0010
0000
1000
0000
0001
0000
0010
0000
0100
0000
,
1000
0100
0000
0100
1000
0000
0001
0000
0100
0000
0010
0000
0100
0000
0001
0000
,
1000
0010
0100
0001
2002
0000
0000
0000
,
0000
3003
0000
0000
0001
0100
0010
0100
,
0001
0000
1000
0000
0010
0000
1000
0010
1000
0000
0001
0000
0100
0000
0010
0000
,
0100
0000
0001
0000
1000
0000
0100
0010
0001
0000
0100
0000
0010
0000
0100
0000
,
0001
0000
1000
0000
0010
0000
1000
0000
0001
0010
0000
0010
0001
0000
1000
0000
,
0010
1000
0010
1000
0010
0000
1000
0000
0001
0000
0100
0000
0010
0000
0100
0000
,
0001
1000
0000
1000
0001
0000
1000
0000
0010
0000
1000
0000
0001
0000
0010
0000
,
0001
0100
0000
0100
0001
0000
0100
0000
0010
0000
0100
0000
0001
0000
1000
0000
,
0100
1000
0000
1000
0100
0000
1000
0000
0002
0003
2000
3000
0020
0030
0200
0300
,
0002
0003
1000
0001
0100
0000
1001
0000
0001
0000
1000
0010
1000
0000
0001
0000
,
0100
0000
0010
0100
0001
0000
1000
0000
0100
0000
0010
0000
0001
0000
0100
0000
,
0010
0100
0010
0100
0010
0000
0100
0000
0001
0000
0100
0001
0100
0000
0001
0000
,
1000
0000
0010
1000
0010
0000
1000
0000
0001
1000
0001
1000
0002
0003
0200
0300
,
0010
1000
0010
1000
0020
0030
2000
3000
0001
0000
0100
0001
0100
0000
0010
0000
,
1000
0000
0001
0010
0001
0000
1000
0000
0010
0000
0100
0001
1000
0000
0100
0000
,
0010
0000
0001
0100
0010
0000
0100
0000
0001
0100
0010
0100
0001
0010
0100
1000
,
0001
0100
0010
1000
0100
0010
0001
0200
0000
0000
0000
0000
0000
0000
0000
0000
,
0000
0000
0300
0000
0002
0000
0003
0200
,
0000
0000
0000
0000
0300
0000
0010
1000
0002
0000
0000
0000
0003
0000
1000
0001
,
0020
0000
0000
0030
0002
0000
0003
0100
,
0010
0000
0200
0000
0000
0000
0300
0000
0001
1000
0000
1000
0001
0000
1000
0010
,
1000
0001
0010
0001
0200
0300
0010
2000
,
3000
0000
0002
0000
0003
0000
0200
0000
0300
0000
0001
0010
0100
0000
1000
0000
,
0001
0000
0100
0000
0010
0000
0100
0000
0001
0000
0000
1000
0000
0000
1001
0000
,
0000
0000
0001
1000
0010
0000
0200
0000
0000
0000
0000
0000
0000
0000
0000
0000
,
0000
0000
0000
0300
;

//--------------- dance-single - Alex ----------------
#NOTES:
     dance-single:
     Alex:
     Challenge:
     12:
     0,0,0,0,0:
0000
0000
0000
0000
,
0000
0000
0000
0000
,
0000
0000
0000
0000
,
0000
0000
0000
0000
0000
0000
0000
0000
0001
1000
0010
0100
0001
0010
0100
1000
,
0001
0100
0010
0100
0001
0100
0001
1000
1010
0000
0010
0000
0100
0000
0001
0000
,
0010
0000
0001
0000
1000
0000
0010
0100
0001
0000
1000
0000
0001
0000
1000
0100
,
1000
0001
0100
0010
1010
0100
0001
1001
,
0001
0000
0100
0000
0010
0000
0100
0000
0001
0100
0000
0100
0001
0000
1000
0010
,
1000
0001
0100
0010
0110
0100
0001
1000
,
0010
0000
1000
0000
0001
0000
0010
0001
0010
0000
0001
0000
0100
0000
0010
0100
,
0010
0100
0001
1000
1001
0001
0100
0110
,
0010
0000
1000
0000
1001
0000
0001
0000
1000
0010
0100
0001
0010
0100
1000
0001
,
0100
0010
0100
0002
2000
0000
3003
0000
1001
0000
0001
0000
0100
0000
0010
0000
,
0100
0000
0001
0000
0010
0000
0001
1000
0001
0000
0100
0000
0001
0000
0001
0000
,
1000
0000
0010
0000
1000
0000
0001
0010
0001
0000
0100
0000
0010
0000
0100
0000
,
0001
0000
1000
0000
0100
0000
0010
0001
0100
0000
0010
0000
0100
0000
0001
0000
,
1000
0001
0000
0001
1000
0000
0001
0000
1001
0000
0001
0000
0100
0000
0010
0000
,
0100
0000
0001
0000
1000
0000
0010
1000
0001
0000
0010
0000
0001
0000
0100
0000
,
0010
0000
0100
0000
0001
0000
1000
0100
1000
0000
0001
0000
0100
0000
0010
0000
,
0100
0000
0001
0000
1000
0000
0010
1000
0010
0000
1000
0000
0001
0000
0010
0000
,
0001
0100
0010
0100
0001
0010
0100
1000
1001
0000
0001
1000
0010
0000
0100
0000
,
0001
0000
1000
0000
0100
0000
0010
0000
0001
0000
0100
0010
0100
0000
0001
0000
,
1000
0000
0100
0000
0010
0000
0001
0000
1000
0010
0000
0010
1000
0000
0001
0000
,
0100
0001
0100
0001
0100
0000
0001
0000
0010
0000
0100
0000
1000
0000
0001
0000
,
1000
0010
0100
0001
1000
0000
0001
0000
1001
0000
0001
0100
0001
0000
1000
0000
,
0010
0100
0010
0100
0010
0000
1000
0000
1001
0000
0001
0010
0001
0000
0100
0000
,
0010
0100
0010
0100
0010
0000
0100
0000
0001
0000
0010
0001
0010
0000
0001
0000
,
0100
0010
0100
0001
0010
0100
1000
0001
2002
0000
0000
0000
0000
0000
0000
0000
,
0000
0000
0000
0000
3003
0000
0000
0000
0001
0000
1000
0010
1000
0010
1000
0000
,
0001
0000
0100
0001
0100
0001
0100
0000
0010
0000
1000
0100
0010
0001
1000
0000
,
0001
0000
1000
0010
0100
0001
1000
0000
0001
0000
0010
0001
0010
0001
0010
0000
,
0001
0000
0100
0010
0100
0010
0100
0000
0001
1000
0001
0000
1000
0010
1000
0000
,
0001
0010
0100
1000
1001
0000
0110
0000
0010
0000
0100
0001
0100
0001
0100
0000
,
0001
0000
1000
0010
0100
0001
1000
0000
0100
0000
1000
0010
0100
0010
1000
0000
,
0001
0000
0010
0001
0010
0001
0100
0000
0010
0000
0100
0001
0010
0001
0100
0000
,
0010
0000
1000
0100
0010
0001
1000
0000
1001
0000
0110
0000
0011
0000
1100
0000
,
0010
0001
0100
0010
0100
0000
0001
0000
1000
0010
0100
0001
0010
0100
1000
0001
,
0100
0010
0100
0001
0010
0001
1000
0001
0100
0001
1000
0010
1000
0001
1000
0100
,
0010
0001
0100
0010
0100
0001
0010
0100
0010
0001
0100
0010
0100
0001
0010
0100
,
1000
0001
1000
0010
1000
0001
1000
0100
0010
0100
1000
0001
0100
0010
0100
0001
,
1000
0010
0100
0001
1000
0000
0001
0000
0010
0001
0100
0010
0100
0001
0010
0100
,
0010
0001
0100
0010
0100
0001
1000
0100
0010
0100
1000
0001
0100
0010
0100
0001
,
0010
0100
0010
0001
0100
0010
0100
0001
1000
0010
0100
0001
0010
0100
1000
0001
,
0100
0001
1000
0010
0100
0001
0100
0020
0000
0000
0000
0000
0000
0000
0000
0030
,
1000
0001
0100
0010
0100
0001
1000
0001
1001
0000
0001
0000
0100
0000
0010
0000
,
1000
0000
0001
0000
0010
0000
0001
0100
0001
0000
0100
0000
0010
0000
1000
0100
,
0010
0001
0100
0010
0110
0100
0001
1000
,
0001
0000
0010
0000
0001
0100
0010
0100
0001
0000
0001
1000
0010
0000
0100
0000
,
0101
0000
0100
0000
0110
0000
0010
0000
1010
0000
1000
0100
1000
0000
0001
0000
,
0100
0000
0010
0000
0100
0000
0001
0000
1000
0000
0001
0010
0001
0000
0100
0000
,
0001
0000
1000
0000
0010
0000
0100
0000
0001
0100
0000
0100
0001
0000
0001
1000
,
0010
0000
0100
0000
0001
0000
1000
0002
0200
0000
0000
0000
0000
0000
0000
0000
,
0000
0000
0000
0303
;
