#TITLE:Born To Be Alive;
#SUBTITLE:;
#ARTIST:P.Hernadez & B.Thomas;
#TITLETRANSLIT:;
#SUBTITLETRANSLIT:;
#ARTISTTRANSLIT:;
#GENRE:;
#CREDIT:;
#MUSIC:Born To Be Alive.ogg;
#BANNER:Born To Be Alive.png;
#BACKGROUND:Born To Be Alive-BG.png;
#CDTITLE:;
#SAMPLESTART:38.592;
#SAMPLELENGTH:13.897;
#SELECTABLE:YES;
#OFFSET:-0.067;
#BPMS:0.000=124.400;
#STOPS:;
#BGCHANGES:;
#FGCHANGES:;

//--------------- dance-single - Alex ----------------
#NOTES:
     dance-single:
     Alex:
     Beginner:
     1:
     0,0,0,0,0:
0000
0000
0000
0000
,
0000
0000
0000
0000
,
0000
0000
0000
0000
,
0000
0000
0000
0000
,
0001
0000
0000
0000
,
1000
0000
0000
0000
,
0010
0000
0000
0000
,
1000
0000
0000
0000
,
0100
0000
0000
0000
,
1000
0000
0000
0000
,
0001
0000
0000
0000
,
1000
0000
0000
0000
,
1001
0000
0000
0000
,
0100
0000
0000
0000
,
0001
0000
0000
0000
,
0001
0000
0000
0000
,
0100
0000
0000
0000
,
0100
0000
0000
0000
,
0010
0000
0000
0000
,
1000
0000
0000
0000
,
1001
0000
0000
0000
,
0110
0000
0000
0000
,
1001
0000
0000
0000
,
0000
0000
0000
0000
,
0110
0000
0000
0000
,
1001
0000
0000
0000
,
0110
0000
0000
0000
,
0000
0000
0000
0000
,
0100
0000
0000
0000
,
0100
0000
0000
0000
,
0110
0000
0000
0000
,
1000
0000
0000
0000
,
0001
0000
0000
0000
,
0001
0000
0000
0000
,
0100
0000
0000
0000
,
1000
0000
0000
0000
,
0010
0000
0000
0000
,
0001
0000
0000
0000
,
1001
0000
0000
0000
,
1000
0000
0000
0000
,
0001
0000
0000
0000
,
0001
0000
0000
0000
,
0100
0000
0000
0000
,
0100
0000
0000
0000
,
0001
0000
0000
0000
,
1000
0000
0000
0000
,
1001
0000
0000
0000
,
0010
0000
0000
0000
,
1000
0000
0000
0000
,
0100
0000
0000
0000
,
1000
0000
0000
0000
,
0001
0000
0000
0000
,
0001
0000
0000
0000
,
1001
0000
0000
0000
;

//--------------- dance-single - Alex ----------------
#NOTES:
     dance-single:
     Alex:
     Easy:
     2:
     0,0,0,0,0:
0000
0000
0000
0000
,
0000
0000
0000
0000
,
0000
0000
0000
0000
,
0000
0000
0000
0000
,
0001
0000
1000
0000
,
0001
0000
1000
0000
,
0010
0010
0010
0000
,
1001
0000
0000
0000
,
0100
0000
0100
0000
,
0001
0000
0001
0000
,
1000
1000
1000
0000
,
1001
0000
0000
0010
,
0010
0000
0000
0100
,
0100
0000
0001
0001
,
0001
0000
1000
0000
,
0001
0000
1000
0010
,
0010
0000
0000
1000
,
1000
0000
0000
0001
,
0001
0000
1000
0001
,
1000
0000
0000
0100
,
0100
0000
0010
0000
,
0010
0000
1000
0000
,
0001
0000
1000
0000
,
0100
0100
0100
0000
,
1000
0000
0001
0000
,
1000
0000
0001
0000
,
0010
0000
0010
0000
,
0001
0001
0001
0000
,
1000
0000
1000
0000
,
1001
0000
0000
0000
,
0010
0000
0100
0000
,
0010
0000
0100
0100
,
0100
0000
0000
0000
,
1001
0000
0000
0000
,
0001
0000
0001
0000
,
1000
0000
1000
0000
,
0010
0000
0100
0100
,
0100
0000
0000
0000
,
1001
0000
0001
0000
,
1000
0000
0001
0001
,
0001
0000
0000
0000
,
0101
0000
0000
0000
,
0100
0000
0100
0000
,
0010
0000
1000
1000
,
1000
0000
0000
0000
,
1010
0000
0000
0000
,
1000
0000
1000
0000
,
0001
0000
0001
0000
,
1000
0000
0010
0000
,
0100
0000
0000
0100
,
0100
0000
0000
0000
,
1001
0000
0000
0000
,
0110
0000
0010
0010
,
0010
0000
0000
0000
;

//--------------- dance-single - Alex ----------------
#NOTES:
     dance-single:
     Alex:
     Medium:
     4:
     0,0,0,0,0:
0000
0000
0000
0000
,
0000
0000
0000
0000
,
0000
0000
0000
0000
,
0000
0000
0000
0000
,
1000
1000
1000
0000
,
0001
0001
0001
0000
,
1000
0100
1000
0000
,
0001
0100
0001
0000
,
0100
0100
0100
0000
,
0010
0010
0010
0000
,
1000
0001
1000
0000
,
0001
0100
0001
0000
,
1001
0000
1001
0000
,
0110
0000
0110
0110
,
0110
0000
0010
0000
,
1000
0010
1000
0000
,
1010
0000
1010
0000
,
1100
0000
1100
0000
,
0011
0000
0001
0100
,
0010
0000
0100
0000
,
0100
0001
0100
0000
,
0001
1000
0001
0000
,
1000
0010
1000
0000
,
1001
0000
1001
0000
,
0001
0100
0001
0000
,
0100
0010
0100
0000
,
0001
1000
0001
0000
,
1001
0000
1001
0000
,
1000
0010
1000
0010
,
0100
0100
0100
0100
,
1001
0000
1001
0000
,
0110
0000
0110
0110
,
0110
0000
0010
0000
,
1000
0010
1000
0000
,
1100
0000
1100
0000
,
0011
0000
0011
0000
,
0101
0000
0100
0010
,
0100
0000
0001
0000
,
1001
0000
1001
0000
,
0110
0000
0110
0110
,
0110
0000
0010
0000
,
1000
0010
1000
0000
,
1001
0000
1001
0000
,
0101
0000
0101
0000
,
0110
0000
1010
1010
,
1010
0000
1000
0000
,
0010
1000
0010
0000
,
1000
0100
1000
0000
,
0001
0100
0001
0100
,
0001
0000
1000
0000
,
0001
1000
0001
0000
,
1000
0010
1000
0000
,
0001
0100
0010
0100
,
1001
0000
0000
0000
;

//--------------- dance-single - Alex ----------------
#NOTES:
     dance-single:
     Alex:
     Hard:
     6:
     0,0,0,0,0:
0000
0000
0000
0000
,
0000
0000
0000
0000
,
0000
0000
0000
0000
,
0000
0000
0000
0000
,
0100
0000
0001
0000
1000
0010
1000
0000
,
0001
0000
0010
0000
0001
0010
0001
0000
,
0100
0000
0000
0100
0000
0000
0100
0000
0000
0000
1000
0000
0001
0000
0000
0000
,
1000
0001
1001
0110
,
0010
0000
1000
0000
0001
0100
0001
0000
,
1000
0000
0100
0000
1000
0100
1000
0000
,
0100
0000
0000
0100
0000
0000
0100
0000
0000
0000
1000
0000
0010
0000
0000
0000
,
1000
0001
1000
0000
0001
0100
0001
0000
,
1001
0000
0110
0000
0010
0100
0001
0000
,
1100
0000
0011
0000
1000
0100
1000
0001
,
1000
0000
0001
0000
0100
0001
0100
0000
,
0010
0000
1000
0000
0001
0010
0100
0000
,
1001
0000
0110
0000
0010
0100
0001
0000
,
0011
0000
1100
0000
1000
0100
1000
0000
,
1010
0000
0101
0000
0001
0100
0001
0100
,
0001
1000
0001
1000
,
1000
0001
1000
0001
0100
0000
0101
0000
,
0001
1000
0010
1000
0001
0000
1001
0000
,
0001
0100
0001
0100
0001
0000
0101
0000
,
0010
0010
1000
1000
,
0001
1000
0001
0100
0001
0000
0101
0000
,
0010
1000
0010
1000
0100
0000
1100
0000
,
1000
0010
1000
0010
0100
0000
0101
0000
,
0001
0001
1000
1000
,
0001
0010
0100
1000
,
0001
1000
0001
1000
0001
1000
0001
0000
,
1001
0000
1001
0000
0001
0100
0001
0000
,
0110
0000
0110
0000
0010
0100
0010
1000
,
0100
0100
1000
1000
,
0001
0010
0001
0000
1000
0010
1000
0000
,
1010
0000
1010
0000
1000
0100
1000
0000
,
1001
0000
1001
0000
0001
0100
0001
0000
,
0110
0000
0110
0000
0010
0100
0001
0100
,
0010
0010
1000
1000
,
0011
0000
1100
0000
1000
0100
1000
0000
,
1010
0000
0101
0000
0001
0100
0010
0100
,
0001
1000
0001
0010
,
0001
0010
0001
0000
0100
0001
0100
0000
,
0101
0000
0011
0000
0001
1000
0001
0000
,
1010
0000
1100
0000
1000
0100
1000
0000
,
1010
0000
0101
0000
0001
0100
0010
0100
,
0001
0001
1000
1000
,
0001
0010
0100
1000
0001
0000
1000
0000
,
0010
1000
0001
0100
0010
0000
0100
0000
,
0001
0001
1000
1000
,
0001
0010
0001
0000
1000
0100
1000
0000
,
1010
0000
1010
0000
1000
0010
0100
0000
,
0101
0000
0101
0000
0001
0010
0001
0000
,
1001
0000
1001
0000
0001
1000
0010
0100
,
0001
0000
0000
0000
;

//--------------- dance-single - Alex ----------------
#NOTES:
     dance-single:
     Alex:
     Challenge:
     9:
     0,0,0,0,0:
0000
0000
0000
0000
,
0000
0000
0000
0000
,
0000
0000
0000
0000
,
0000
0000
0000
0000
,
0001
0000
1000
0000
0010
0000
1000
0010
0000
0000
1000
0000
0001
0000
0010
0000
,
0100
0000
1000
0000
0001
0000
0100
0001
0000
0000
0100
0000
0010
0000
0100
0000
,
0101
0000
0000
1010
0000
0000
1001
0000
0000
0000
0001
0000
0100
0000
0010
0100
,
0010
0000
1000
0000
0001
0000
1000
0100
1000
0000
0001
0000
1000
0000
0000
0000
,
0001
0000
0010
0000
0001
0000
1000
0001
0000
0000
1000
0000
0010
0000
1000
0000
,
0001
0000
1000
0000
0100
0000
0010
0100
0000
0000
1000
0000
0001
0000
0100
0000
,
0110
0000
0000
0101
0000
0000
0011
0000
0000
0000
0001
0000
1000
0000
0010
1000
,
0010
0000
1000
0000
0001
0000
0010
0001
0010
0000
0001
0000
0100
0000
0001
0000
,
0101
0000
0000
0001
0100
0000
0001
0000
1000
0000
0000
0010
1000
0000
0001
0000
,
1000
0000
0000
0100
0010
0000
0001
0000
0100
0000
0000
0010
0100
0000
0001
0000
,
0100
0000
0001
1000
0010
0000
1000
0010
,
1000
0001
0100
0010
0100
0001
1000
0001
,
1001
0000
0000
0001
1000
0000
0100
0000
1000
0000
0000
0010
0100
0000
0001
0000
,
0010
0000
0000
0001
1000
0000
0001
0000
1000
0000
0000
0010
1000
0000
0001
0000
,
1000
0000
0000
0001
0100
0000
0010
0000
0100
0001
0100
0001
0100
0000
0001
1000
,
0001
0000
1000
0000
0001
0010
0001
0000
,
1000
0010
1000
1001
0000
0001
0100
0010
,
0100
0001
1000
1100
0000
0100
1000
0010
,
1000
0001
0100
0101
0000
0001
0010
0001
,
0100
0000
0000
0000
0100
0010
0100
0010
0100
0010
0100
0000
0001
0000
1000
0000
,
0001
1000
0010
1010
0000
1000
0001
0100
,
0010
0100
0001
0101
0000
0001
1000
0001
,
0010
0001
1000
1010
0000
0010
1000
0001
,
0100
0000
0000
0000
0001
1000
0001
1000
0001
1000
0001
0000
1000
0000
0001
0000
,
0100
0010
0100
0001
0000
0001
1000
0000
,
0001
0010
0001
0000
1000
0010
1000
0001
,
0101
0000
0000
0001
1000
0000
0001
0000
1000
0000
0000
0010
1000
0000
0001
0000
,
0100
0000
0000
0010
0100
0000
0001
0000
0100
0000
0000
0001
1000
0000
0001
0000
,
0010
0001
1000
0000
0010
1000
0001
0000
,
1000
0100
0010
0001
0100
0010
0100
0001
,
1001
0000
0000
0001
0010
0000
0001
0000
0100
0000
0000
0010
1000
0000
0100
0000
,
0010
0000
0000
0001
1000
0000
0001
0000
1000
0000
0000
0010
1000
0000
0001
0000
,
0100
0000
0000
0000
0001
0000
0000
0000
1000
0100
1000
0100
1000
0000
0001
0100
,
0001
0000
0100
0000
0010
0100
0001
1000
,
1100
0000
0000
0100
1000
0000
0100
0000
1000
0000
0000
0010
1000
0000
0001
0000
,
1000
0000
0000
0010
0100
0000
0001
0000
0100
0000
0000
0001
0010
0000
0001
0000
,
1000
0000
0001
0100
0001
0000
1000
0010
,
1000
0001
0010
0100
1000
0001
0100
0010
,
0110
0000
0000
0010
0100
0000
0010
0000
0100
0000
0000
0001
1000
0000
0001
0000
,
0010
0000
0000
0001
1000
0000
0100
0000
1000
0000
0000
0010
1000
0000
0010
0000
,
0100
0000
0000
0000
0001
0000
0000
0000
1000
0100
1000
0100
1000
0000
0001
0100
,
0001
0000
1000
0000
0001
0010
0001
1000
,
1010
0000
1000
0000
0010
0000
1000
0001
0000
0000
0100
0000
0001
0000
0000
0000
,
0100
0000
0010
0000
0100
0000
0001
0100
0000
0000
0001
0000
1000
0000
0001
0000
,
0001
0010
0001
0000
0100
0010
0100
0000
,
0001
1000
0100
1000
0001
0000
1001
0000
,
0001
0000
0000
1000
0010
0000
1000
0000
0001
0000
0000
0100
0001
0000
0100
0000
,
0010
0000
0000
0100
0001
0000
0010
0000
0001
0000
0000
1000
0010
0000
1000
0000
,
0001
0000
0000
0000
1000
0000
0000
0000
0001
0100
0001
0100
0001
0000
0100
0010
,
0100
2002
0000
0000
0000
0000
3003
0000
;
