#TITLE:Beethoven Virus;
#SUBTITLE:;
#ARTIST:Banya;
#TITLETRANSLIT:;
#SUBTITLETRANSLIT:;
#ARTISTTRANSLIT:;
#GENRE:;
#CREDIT:;
#MUSIC:Beethoven Virus.ogg;
#BANNER:Beethoven Virus.png;
#BACKGROUND:Beethoven Virus-BG.png;
#CDTITLE:;
#SAMPLESTART:17.248;
#SAMPLELENGTH:13.418;
#SELECTABLE:YES;
#OFFSET:-0.072;
#BPMS:0.000=162.000;
#STOPS:;
#BGCHANGES:;
#FGCHANGES:;

//--------------- dance-single - Alex ----------------
#NOTES:
     dance-single:
     Alex:
     Beginner:
     1:
     0,0,0,0,0:
0000
0000
0000
0000
,
0000
0000
0000
0000
,
0000
0000
0000
0000
,
0000
0000
0000
0000
,
0100
0000
0000
0000
,
0100
0000
0000
0000
,
0001
0000
0000
0000
,
0001
0000
0000
0000
,
1000
0000
0000
0000
,
0010
0000
0000
0000
,
1000
0000
0000
0000
,
1000
0000
0000
0000
,
0001
0000
0000
0000
,
0100
0000
0000
0000
,
0010
0000
0000
0000
,
0010
0000
0000
0000
,
0100
0000
0000
0000
,
1000
0000
0000
0000
,
0001
0000
0000
0000
,
1000
0000
0000
0000
,
0001
0000
0001
0000
,
0001
0000
0000
0000
,
1000
0000
1000
0000
,
1000
0000
0000
0000
,
0010
0000
0010
0000
,
0010
0000
0000
0000
,
0100
0000
0100
0000
,
0100
0000
0000
0000
,
1001
0000
0000
0000
,
0001
0000
0001
0000
,
0001
0000
0000
0000
,
1000
0000
1000
0000
,
1000
0000
0000
0000
,
0001
0000
0001
0000
,
0001
0000
0000
0000
,
1000
0000
0000
0000
,
1001
0000
0000
0000
,
1001
0000
0000
0000
,
0110
0000
0000
0000
,
0110
0000
0000
0000
,
0100
0000
0000
0000
,
0001
0000
0000
0000
,
1000
0000
0000
0000
,
1000
0000
0000
0000
,
0010
0010
0010
0000
,
1001
0000
0000
0000
,
1001
0000
0000
0000
,
0100
0000
0000
0000
,
0001
0000
0000
0000
,
0001
0000
0000
0000
,
1000
0000
0000
0000
,
0010
0000
0000
0000
,
0010
0000
0000
0000
,
1001
0000
0000
0000
,
1001
0000
0000
0000
,
0100
0000
0000
0000
,
0100
0000
0000
0000
,
0010
0000
0000
0000
,
0001
0000
0000
0000
,
1000
0000
0000
0000
,
1000
0000
0000
0000
,
0001
0000
0000
0000
,
0100
0000
0000
0000
,
0001
0000
0000
0000
,
1000
0000
0000
0000
,
0010
0000
0000
0000
;

//--------------- dance-single - Alex ----------------
#NOTES:
     dance-single:
     Alex:
     Easy:
     4:
     0,0,0,0,0:
0000
0000
0000
0000
,
0000
0000
0000
0000
,
0000
0000
0000
0000
,
0000
0000
0000
0000
,
0001
1000
0001
0000
,
1000
0001
1000
0000
,
1001
0000
1001
0000
,
1001
0000
0000
0010
,
0100
0000
0001
1000
,
0001
0000
1000
0000
,
0001
0100
0001
0100
,
0002
0000
0003
0000
,
1000
0010
1000
0000
,
0001
0010
0001
0000
,
1001
0000
1001
0000
,
1001
0000
0000
0001
,
1000
0000
1000
0001
,
1000
0000
0001
0000
,
0100
0010
0100
0010
,
0200
0000
0300
0000
,
0010
0010
0010
0000
,
1000
0000
0100
0000
,
1000
1000
1000
0000
,
0001
0000
0100
0000
,
0001
0001
0001
0000
,
0010
0000
0001
0000
,
1000
1000
0010
0000
,
0100
0000
0001
0000
,
1001
0000
1000
0000
,
0001
1000
0001
1000
,
0001
0000
1000
0000
,
0100
1000
0100
1000
,
0100
0000
1000
0000
,
0010
0100
0010
0100
,
0010
0000
0100
0100
,
2002
0000
3003
0000
,
1001
0000
1001
0000
,
0110
0000
0110
0000
,
1100
0000
1100
0000
,
1000
1000
0001
0001
,
0011
0000
0011
0000
,
0101
0000
0101
0000
,
0010
0010
0100
0100
,
0001
0001
1000
0000
,
1001
1001
1001
1001
,
0000
1001
0000
1001
,
0000
1001
1001
0000
,
0010
0010
0100
0100
,
0010
0000
0000
1000
,
0100
0000
1000
0100
,
1000
0000
0001
0000
,
0100
0010
0100
0010
,
0200
0000
0300
0000
,
0000
1001
0000
1001
,
0000
0110
0110
0000
,
1000
0001
1000
0001
,
1000
0000
0000
0001
,
0100
0000
0001
1000
,
0001
0000
1000
0000
,
0001
0010
0001
0010
,
0002
0000
0003
1000
,
0100
0000
1000
0010
,
1000
0000
0010
0000
,
0100
0010
0100
0010
,
0200
0000
0300
0000
,
1001
0000
0000
0000
;

//--------------- dance-single - Alex ----------------
#NOTES:
     dance-single:
     Alex:
     Medium:
     6:
     0,0,0,0,0:
0000
0000
0000
0000
,
0000
0000
0000
0000
,
0000
0000
0000
0000
,
0000
0000
0000
0000
,
1000
0001
1000
1000
,
0001
0100
0010
0010
,
0101
0110
1010
1001
,
0011
0000
0001
0000
0100
0000
0010
0100
,
0010
0000
1000
0000
0001
0000
1000
0100
,
1000
0000
0001
0000
0100
0000
0010
0100
,
0010
0000
1000
0010
1000
0000
0001
0100
,
0020
0000
0030
0000
,
0100
0100
0001
0001
,
1000
1000
0010
0010
,
1001
0110
1001
0110
,
1001
0000
0001
0000
0010
0000
0100
1000
,
0100
0000
1000
0000
0001
0000
0100
0001
,
0100
0000
0010
0000
1000
0000
0001
0010
,
0001
0000
1000
0010
1000
0000
0001
0100
,
0020
0000
0030
0000
,
1000
0100
0010
0100
,
1000
0100
1000
0000
0001
0100
0001
0000
,
1000
0010
1000
0001
,
0010
0001
0010
0000
0001
0100
0001
0000
,
0100
0010
0100
0001
,
1000
0100
1000
0100
1000
0000
0010
0000
,
0100
0001
1000
0010
,
0100
0000
0001
0000
1000
0001
1000
0001
,
2000
0000
0010
3010
,
1000
0001
0100
0010
,
0200
0000
0001
0301
,
0001
1000
0010
0100
,
0002
0000
1000
1003
,
1000
0010
0100
0010
,
2000
0000
0001
3001
,
1001
0000
1001
0000
,
1001
0010
0100
0001
,
1100
1000
0010
0100
,
0011
0001
0100
0010
,
1000
0010
1000
0010
1000
0000
0001
0000
,
0101
0100
0010
1000
,
1001
1000
0001
0010
,
0011
0100
0110
1000
,
1010
0101
1010
0000
,
1001
1001
1001
1001
,
0000
0000
0001
1000
0001
0000
1000
0001
,
1000
1001
1001
0000
,
0010
0100
0010
0000
0100
0010
0100
0000
,
0110
0000
0000
0000
0000
0000
0010
1000
,
0001
0000
1000
0000
0001
0000
0100
0001
,
0100
0000
0001
0000
0010
0000
0100
1000
,
0100
0000
1000
0010
1000
0000
0001
1000
,
0200
0000
0300
0000
,
0000
1001
0000
1001
,
0000
0110
0110
0000
,
1000
0100
1000
0000
0100
1000
0100
0000
,
1100
0000
0000
0000
0000
0000
0100
0001
,
0100
0000
0001
0000
1000
0000
0010
1000
,
0010
0000
1000
0000
0001
0000
0010
0001
,
0010
0000
0001
1000
0001
0000
1000
0100
,
1000
0000
0000
0000
0000
0000
0001
0100
,
0010
0000
0100
0000
0001
0000
1000
0100
,
0010
0000
0001
0000
1000
0000
0010
1000
,
0010
0000
1000
0001
1000
0000
0001
0100
,
0020
0000
0100
0130
,
1001
0000
0000
0000
;

//--------------- dance-single - Alex ----------------
#NOTES:
     dance-single:
     Alex:
     Hard:
     9:
     0,0,0,0,0:
0000
0000
0000
0000
,
0000
0000
0000
0000
,
0000
0000
0000
0000
,
0000
0000
0000
0000
0000
0001
1000
0010
,
0100
0000
0001
1000
0100
0000
0010
0001
,
1000
0000
0000
0000
0001
0000
0000
0000
0100
0000
0010
1000
0010
0000
1000
0000
,
1001
0011
0101
0110
,
2002
0000
0000
0000
3003
0000
0001
1000
,
2010
0000
0000
0000
0100
3000
0010
0001
,
0012
0000
0000
0000
0010
0003
0001
0100
,
0010
0100
0001
0010
0100
1000
0010
0100
,
0001
0000
1000
0000
0001
0100
0010
0100
,
0001
0000
1000
0100
1000
0000
0001
0100
,
0001
0000
0000
0000
1000
0000
0000
0000
0010
0000
1000
0001
1000
0000
0001
0000
,
0101
0110
1010
1100
,
0110
0000
0010
0000
0001
0000
1000
0010
,
0210
0000
0000
0000
0001
0300
0001
1000
,
1020
0000
0000
0000
1000
0030
1000
0100
,
0010
0001
1000
0010
0100
0001
0010
0100
,
1001
0000
0000
0000
0000
0001
1000
0010
,
0100
0001
0010
0001
1000
0010
0100
0001
,
1000
0100
0010
0001
0100
0100
0010
0010
,
1000
0001
0010
0100
1000
0001
0100
0010
,
1000
1000
0001
0001
0100
0010
0100
0001
,
0010
0100
1000
0001
0100
0000
1001
0000
,
0001
1000
0010
1000
0001
0010
0001
0001
,
0100
0010
0100
0001
1000
0000
0100
0010
,
0001
0100
0010
0100
0001
0010
0100
1000
,
0002
0000
0000
0000
0003
0000
1000
0100
1000
0000
0010
0000
0100
0000
0001
0000
,
1000
0100
0001
0100
1000
0010
0100
0001
,
0020
0000
0000
0000
0030
0000
0001
0100
0001
0000
0100
0000
0010
0000
0100
0000
,
0001
0010
0100
0010
0001
0100
0010
0100
,
0002
0000
0000
0000
0003
0000
1000
0001
1000
0001
1000
0000
0001
0000
0100
0000
,
0010
0100
0001
0010
0100
1000
0001
0100
,
0020
0000
0000
0000
0030
0000
1000
0010
1000
0000
0001
0000
0100
0000
0010
0000
,
2002
0000
0000
3003
,
1001
0001
0100
0010
1000
0100
0010
0001
,
0011
0001
0100
0010
0100
0001
1000
0100
,
1100
1000
0010
1000
0001
0100
0010
1000
,
1001
0001
0010
0100
1000
0001
0100
0010
,
0110
0100
0001
0010
0001
1000
0010
1000
,
1001
0001
0100
0010
0100
0001
0010
0100
,
1100
1000
0010
0100
0001
1000
0100
0010
,
0001
0100
0010
1000
0001
0000
0000
0000
,
1001
0000
1001
0000
1001
0001
0100
0010
,
0100
0000
0001
1000
0100
0000
0010
0001
,
1000
0000
0000
0000
1001
0000
0000
0000
1001
0000
0001
1000
0001
0000
0100
0000
,
0010
1000
0100
0001
0100
1000
0010
0001
,
0010
0000
0000
0000
0000
0000
1000
0001
,
1002
0000
0000
0000
0100
0003
0001
1000
,
2100
0000
0000
0000
0010
3000
0010
1000
,
0100
0010
0100
1000
0010
0001
0010
1000
,
0001
0000
1000
0000
0001
0100
0010
0100
,
0001
0000
1000
0100
1100
0000
1000
0010
,
1010
0000
0000
0000
1001
0000
0000
0000
0101
0000
0001
0100
0001
0000
0100
0000
,
0100
0001
0010
1000
0010
0001
1000
0001
,
0100
0000
0000
0000
0000
0000
0001
1000
,
1020
0000
0000
0000
1000
0030
1000
0001
,
0021
0000
0000
0000
0001
0030
0001
0100
,
0010
0100
0001
0010
0100
1000
0010
0001
,
0010
0000
1000
0000
0001
1000
0010
0100
,
0201
0000
0000
0000
0010
0300
0010
1000
,
1200
0000
0000
0000
1000
0300
1000
0010
,
0001
0010
1000
0001
0100
0001
1000
0010
,
0100
0001
0010
0100
1000
0001
0100
0010
,
2002
0000
0000
3003
;
