#TITLE:Bee;
#SUBTITLE:;
#ARTIST:Banya;
#TITLETRANSLIT:;
#SUBTITLETRANSLIT:;
#ARTISTTRANSLIT:;
#GENRE:;
#CREDIT:;
#MUSIC:Bee.ogg;
#BANNER:Bee.png;
#BACKGROUND:Bee-BG.png;
#CDTITLE:;
#SAMPLESTART:57.071;
#SAMPLELENGTH:12.375;
#SELECTABLE:YES;
#OFFSET:-0.118;
#BPMS:0.000=160.000;
#STOPS:;
#BGCHANGES:;
#FGCHANGES:;

//--------------- dance-single - Alex ----------------
#NOTES:
     dance-single:
     Alex:
     Beginner:
     1:
     0,0,0,0,0:
0000
0000
0000
0000
,
0000
0000
0000
0000
,
1001
0000
0000
0000
,
1000
0000
0000
0000
,
0001
0000
0000
0000
,
0100
0000
0000
0000
,
0010
0000
0000
0000
,
0010
0000
0000
0000
,
1000
0000
0000
0000
,
1000
0000
0000
0000
,
0001
0000
0000
0000
,
0100
0000
0000
0000
,
0001
0000
0000
0000
,
0001
0000
0000
0000
,
1000
0000
0000
0000
,
0010
0000
0000
0000
,
1000
0000
0000
0000
,
1000
0000
0000
0000
,
1001
0000
0000
0000
,
0010
0000
0000
0000
,
0100
0000
0000
0000
,
0001
0000
0000
0000
,
1000
0000
0000
0000
,
1001
0000
0000
0000
,
0000
0000
0000
0000
,
0000
0000
0000
0000
,
0110
0000
0000
0000
,
0000
0000
0000
0000
,
0100
0000
0000
0000
,
0010
0000
0000
0000
,
0010
0000
0000
0000
,
1000
0000
0000
0000
,
0100
0000
0000
0000
,
0001
0000
0000
0000
,
0010
0000
0000
0000
,
0010
0000
0000
0000
,
1000
0000
0000
0000
,
0001
0000
0000
0000
,
1000
0000
0000
0000
,
1000
0000
0000
0000
,
0010
0000
0000
0000
,
0100
0000
0000
0000
,
0001
0000
0000
0000
,
1000
0000
0000
0000
,
0010
0000
0000
0000
,
1000
0000
0000
0000
,
1000
0000
0000
0000
,
0001
0000
0000
0000
,
0100
0000
0000
0000
,
0100
0000
0000
0000
,
1001
0000
0000
0000
,
0001
0000
0000
0000
,
1000
0000
0000
0000
,
0010
0000
0000
0000
,
0010
0000
0000
0000
,
1001
0000
0000
0000
;

//--------------- dance-single - Alex ----------------
#NOTES:
     dance-single:
     Alex:
     Easy:
     4:
     0,0,0,0,0:
0000
0000
0000
0000
,
0000
0000
0000
0000
,
0001
0000
0001
0000
,
1000
0000
1000
0000
,
0001
0001
0001
0001
,
1000
1000
1000
1000
,
0010
0000
0100
0000
,
0010
0000
0100
0000
,
0001
0001
0001
0001
,
0100
0100
0100
0100
,
0010
0010
0010
0000
,
1000
1000
1000
0000
,
0001
0001
1000
1000
,
1001
0000
0000
0000
,
0010
0010
0010
0000
,
0100
0100
0100
0000
,
0001
0001
1000
1000
,
1001
0000
0000
0000
,
0001
0000
1000
0000
,
0001
0000
1000
0000
,
0010
0000
0100
0000
,
0010
0010
0100
0100
,
0001
0001
1000
1000
,
1001
0000
0000
0000
,
0110
0000
0000
0000
,
0000
0000
0000
0000
,
2002
0000
0000
0000
,
0000
0000
0000
3003
,
0001
1000
0001
0000
,
1000
0010
1000
0000
,
0001
0100
0001
0000
,
0010
0100
1000
0000
,
0001
1000
0010
0000
,
1000
0100
1000
0000
,
0001
0100
0001
0000
,
0100
0010
0100
0000
,
0001
0001
0001
0000
,
0100
0100
0100
0000
,
0010
0010
0010
0010
,
1001
0000
1001
0000
,
0100
0100
0100
0100
,
1001
0000
1001
0000
,
0001
0010
0001
0000
,
1000
0010
1000
0000
,
0001
0001
0001
0001
,
1001
0000
1001
0000
,
1000
1000
1000
1000
,
1001
0000
1001
0000
,
0010
0100
0010
0000
,
0100
0001
0100
0000
,
0010
0000
1000
0000
,
0001
0000
0100
0000
,
0110
0000
0000
0000
,
1001
0000
0110
0000
,
1001
0000
0110
0000
,
1001
0000
0000
0000
;

//--------------- dance-single - Alex ----------------
#NOTES:
     dance-single:
     Alex:
     Medium:
     6:
     0,0,0,0,0:
0000
0000
0000
0000
,
0000
0000
0000
0000
,
0010
0100
0001
1000
,
0100
0010
0100
1000
,
0001
0100
0001
0000
1000
0010
1000
0000
,
1000
0001
1000
0000
0001
1000
0001
0000
,
0100
0100
0001
0100
,
0001
1000
1000
0001
,
0001
0100
0001
0000
0100
0010
0100
0000
,
0001
1000
0001
0000
1000
0010
1000
0000
,
0001
1000
0001
1000
0002
0000
0003
0000
,
1000
0010
1000
0010
2000
0000
3000
0000
,
0001
1000
0001
0000
1000
0001
1000
0000
,
2002
0000
3003
0000
,
0010
0100
0010
0100
0020
0000
0030
0000
,
0100
0010
0100
0010
0200
0000
0300
0000
,
0001
1000
0001
0000
1000
0001
1000
0000
,
2002
0000
3003
0000
,
0001
1000
0010
0010
,
1000
0001
0010
0100
,
1000
0001
0100
0010
,
0100
0100
0001
0001
,
1000
0000
1000
0000
0010
0100
0010
0100
,
0010
0000
0000
0000
,
1001
0000
0000
0000
,
0110
0000
0000
0000
,
2002
0000
0000
0000
,
0000
0000
0000
3003
,
0001
1000
0001
0001
,
1000
0010
0100
0001
,
1000
0100
0010
0100
,
1000
0000
0001
0000
0100
0010
0100
0010
,
0100
0001
0010
0100
,
1000
0001
1000
1000
,
0001
0100
0001
0001
,
0100
0000
0010
0000
0100
0001
0100
0001
,
0100
0001
1000
0010
,
1000
0001
1000
0100
,
0010
0000
0001
1000
0001
0000
1000
0001
,
1000
0000
1001
0000
,
0010
0000
0100
0010
0100
0000
0010
0100
,
0010
0000
0110
0000
,
0100
0001
0010
0100
,
1000
0001
1000
0010
,
0010
0000
1000
0010
1000
0000
0001
1000
,
0001
0000
1001
0000
,
0100
0000
0001
0010
0001
0000
0001
0100
,
0001
0000
0101
0000
,
0100
0100
0001
0001
,
1000
0010
1000
1000
,
0001
0100
0001
1000
,
0010
1000
0001
0100
,
0110
0000
0000
0000
,
1010
0000
1100
0000
,
0011
0000
0101
0000
,
1001
0000
0000
0000
;

//--------------- dance-single - Alex ----------------
#NOTES:
     dance-single:
     Alex:
     Hard:
     9:
     0,0,0,0,0:
0000
0000
0000
0000
,
0000
0000
0000
0000
,
0001
0100
0010
0100
0001
0100
0010
0100
,
0001
0010
0100
1000
0001
1000
0010
1000
,
0001
0001
1000
1000
0001
0100
0010
1000
,
0100
0010
0001
1000
0010
0100
0001
0000
,
1000
0100
0010
0100
1000
0001
0100
0010
,
0100
0001
0010
0100
1000
0001
1000
0010
,
1000
0001
0100
0001
1000
0001
0001
0100
,
0010
1000
0100
0100
1000
0001
0001
1000
,
0010
0010
0010
0010
0110
0000
0000
0000
,
0100
0100
0100
0100
1001
0000
0000
0000
,
0001
0001
1001
0000
1000
0001
1000
0001
,
2002
0000
3003
0000
,
0001
0001
0001
0001
1001
0000
0000
0000
,
1000
1000
1000
1000
1001
0000
0000
0000
,
0010
0010
0110
0000
0100
0100
0100
0100
,
2002
0000
3003
0000
,
0001
1000
0001
1000
0010
0000
0100
0000
,
0001
0010
0100
1000
0001
0000
1000
0000
,
0100
1000
0010
1000
0100
0010
0100
1000
,
0001
0100
0010
0100
0001
0010
0100
1000
,
0001
0010
0001
1000
0010
0100
0001
1000
,
1001
0000
0000
0000
,
0110
0000
0000
0000
,
0000
0000
0000
0000
,
2002
0000
0000
0000
,
0000
0000
0000
0000
0000
3003
0000
0000
,
0001
1000
0001
0100
0001
1000
0010
1000
,
0001
1000
0100
0010
0001
1000
0010
1000
,
0001
0001
0100
0100
0010
0100
0001
0001
,
1000
1000
0001
0010
0100
1000
0001
0100
,
0010
1000
0100
0010
0010
0100
1000
0001
,
0001
1000
1000
0001
0100
0001
0100
0010
,
0100
0001
0010
0100
1000
0001
0100
0010
,
1000
0100
0010
0001
1000
0010
0100
0001
,
0010
0010
0001
0001
1000
0010
0010
1000
,
0001
0010
0100
1000
0001
0100
0010
1000
,
0100
1000
0001
0100
0010
0000
0100
0001
,
2002
3003
0220
0330
,
0010
0100
0001
0100
0010
0000
1000
0100
,
2200
0000
3300
0000
0011
0000
0001
0100
,
0100
0001
1000
0010
0010
1000
0001
0010
,
0100
1000
0001
0100
0010
1000
0100
0010
,
0001
1000
0001
0100
0001
0000
1000
0010
,
2020
3030
0220
0330
,
0100
0001
0100
0001
0010
0000
0001
1000
,
2002
0000
3003
0000
0110
0000
0010
0100
,
0001
0100
0001
0010
0100
1000
0001
1000
,
0010
1000
0001
0100
0001
0010
0100
1000
,
1001
0000
1001
0000
1000
0001
1000
0001
,
1001
0000
0110
0000
1000
0010
0100
0001
,
0022
0000
0000
0000
0000
0033
0000
0000
,
0011
0000
1100
0000
,
1001
0110
1001
0110
,
2002
0000
0000
0000
,
3003
0000
0000
0000
;

//--------------- dance-single - Alex ----------------
#NOTES:
     dance-single:
     Alex:
     Challenge:
     12:
     0,0,0,0,0:
0000
0000
0000
0000
,
0000
0000
0000
0000
,
0001
1000
0001
0000
1000
0000
0010
0000
0100
0001
0100
0000
0001
0000
0010
0000
,
0100
1000
0010
0000
0100
0000
0001
0000
1000
0010
0100
0000
0001
0000
0010
0000
,
0001
0010
0001
0010
0001
0010
0001
0100
0001
0100
0001
0100
0010
0000
0100
0000
,
0001
0010
0100
1000
0001
0010
0100
1000
0001
0000
1000
0000
0010
0000
1000
0000
,
0001
0100
0010
0100
0001
0010
0100
1000
0001
1000
0010
1000
0001
1000
0100
0010
,
0001
1000
0010
0100
0001
0010
0001
1000
0001
0100
0001
0010
0001
0100
0010
0100
,
0001
0000
0010
0000
0100
0000
1000
0100
1000
0000
0010
0000
0100
0000
0001
1000
,
0001
0000
0100
0000
0001
0000
0010
0001
0010
0000
0001
0000
0100
0000
0010
0000
,
0110
0110
0110
0110
1001
0000
1001
0000
,
0011
0011
0011
0011
1100
0000
1100
0000
,
1010
1010
0101
0000
0011
0011
0011
0011
,
0001
0000
1000
0000
0001
0000
1000
0000
0010
0100
0001
0010
0100
1000
0001
0000
,
1001
1001
1001
1001
0110
0000
0110
0000
,
1100
1100
1100
1100
0011
0000
0011
0000
,
0101
0101
0110
0000
1010
1010
1010
1010
,
1001
0000
0000
0000
1001
0000
0000
0000
0001
1000
0010
0100
0001
1000
0100
0010
,
0001
1000
0001
0100
0001
0010
0001
0100
0010
0100
0001
0010
0100
1000
0001
1000
,
0010
1000
0100
0010
0100
1000
0001
0100
0010
0100
0001
0010
0100
1000
0001
1000
,
0010
1000
0001
0100
0010
1000
0001
0100
0010
1000
0001
0010
0001
1000
0010
1000
,
0100
0010
0001
0100
0010
0100
0001
0010
0100
1000
0001
0010
0100
1000
0001
0010
,
0100
1000
0001
0100
0010
1000
0100
0010
0001
1000
0100
0010
0001
1000
0010
0100
,
0220
0000
0000
0000
0000
0000
0000
0330
0000
0000
0000
0000
0000
0000
0000
0000
,
2002
0000
0000
0000
,
0000
0000
0000
0000
0000
3003
0000
0000
,
0001
1000
0001
1000
0001
1000
0001
1000
0001
1000
0001
1000
0001
1000
0001
1000
,
0001
0010
0100
0010
0100
0010
0100
0010
0100
0010
0100
0010
0100
0010
0100
0010
,
0001
0100
0001
0010
0100
1000
0001
0010
0001
1000
0010
1000
0001
1000
0100
0010
,
0001
1000
0010
0100
0001
0010
0001
1000
0010
0100
0010
1000
0100
0010
0100
1000
,
0001
1000
0001
0100
0001
0010
0001
0100
0010
0100
0001
0010
0100
1000
0001
1000
,
0010
1000
0001
0010
0001
0100
0001
0100
0010
0100
0001
0010
0100
1000
0001
1000
,
0010
1000
0100
0010
0001
1000
0010
0100
0001
0010
0100
1000
0001
0100
0010
0100
,
0001
1000
0100
1000
0001
1000
0001
0100
0001
1000
0010
1000
0001
0010
0001
0100
,
0010
0100
0001
0010
0100
1000
0001
1000
0010
1000
0100
0010
0001
1000
0010
0100
,
0001
1000
0001
0100
0001
1000
0010
1000
0010
0100
0010
1000
0001
1000
0001
0100
,
0001
0010
0100
1000
0001
1000
0010
1000
0100
0010
0100
1000
0001
0100
0010
0100
,
0001
0010
0100
1000
0001
1000
0010
1000
0001
0010
0001
0100
0010
0100
0001
1000
,
0100
1000
0001
0100
0010
0100
0001
1000
,
2002
0000
3003
0000
0220
0000
0330
0000
2002
0000
3003
0000
0001
1000
0001
1000
,
0001
1000
0010
0100
0001
0010
0100
1000
,
2200
0000
3300
0000
0022
0000
0033
0000
2200
0000
3300
0000
0001
0100
0001
0100
,
0010
0100
0001
0010
0100
1000
0001
1000
0010
1000
0001
1000
0100
0010
0100
1000
,
0001
1000
0010
0100
0001
0010
0001
0100
0001
0010
0100
1000
0001
1000
0010
0100
,
0001
1000
0100
1000
0001
0100
0010
0100
,
0202
0000
0303
0000
2020
0000
3030
0000
2200
0000
3300
0000
0100
1000
0100
1000
,
0100
1000
0010
1000
0001
0010
0001
0100
,
0220
0000
0330
0000
0202
0000
0303
0000
0022
0000
0033
0000
0001
1000
0001
1000
,
0001
1000
0100
1000
0010
1000
0001
1000
0001
0100
0001
0010
0100
1000
0001
1000
,
0010
0100
0001
1000
0100
0010
0001
0100
0010
0100
0001
1000
0001
0100
0001
0010
,
0100
1000
0100
1000
0100
0000
1000
0000
0010
1000
0010
1000
0010
0000
1000
0000
,
0001
1000
0001
0100
0001
1000
0010
1000
0010
1000
0001
1000
0001
0010
0100
2000
,
0002
0000
0000
3003
,
2002
3003
0220
0330
,
1100
0011
0101
0110
,
2002
0000
0000
0000
,
3003
0000
0000
0000
;
