#TITLE:Beat The Ghost;
#SUBTITLE:;
#ARTIST:Banya Production;
#TITLETRANSLIT:;
#SUBTITLETRANSLIT:;
#ARTISTTRANSLIT:;
#GENRE:;
#CREDIT:;
#MUSIC:Beat The Ghost.ogg;
#BANNER:Beat The Ghost.png;
#BACKGROUND:Beat The Ghost-BG.png;
#CDTITLE:;
#SAMPLESTART:15.458;
#SAMPLELENGTH:13.931;
#SELECTABLE:YES;
#OFFSET:-0.035;
#BPMS:0.000=124.000
,88.000=31.000
,92.000=62.000
,100.000=124.000
;
#STOPS:;
#BGCHANGES:;
#FGCHANGES:;

//--------------- dance-single - Alex ----------------
#NOTES:
     dance-single:
     Alex:
     Beginner:
     1:
     0,0,0,0,0:
0000
0000
0000
0000
,
0000
0000
0000
0000
,
1000
0000
0000
0000
,
0010
0000
0000
0000
,
1000
0000
0000
0000
,
0001
0000
0000
0000
,
1000
0000
0000
0000
,
0010
0000
0000
0000
,
1001
0000
0000
0000
,
0200
0000
0300
0000
,
0110
0000
0000
0000
,
0002
0000
0003
0000
,
1000
0000
0000
0000
,
0001
0000
0000
0000
,
0100
0000
0000
0000
,
0001
0000
0000
0000
,
0001
0000
0000
0000
,
1000
0000
0000
0000
,
1001
0000
0000
0000
,
0010
0000
0010
0000
,
0010
0000
0000
0000
,
1000
0000
1000
0000
,
1000
0000
0001
0000
,
1000
0000
0100
0000
,
1000
0000
0001
0000
,
1001
0000
0000
0000
,
0010
0000
0000
0000
,
0001
0000
0000
0000
,
1000
0000
0000
0000
,
0200
0000
0000
0300
0000
0000
0000
0000
,
2000
0000
0000
3000
0000
0000
0000
0000
,
0020
0000
0000
0030
0000
0000
0000
0000
,
0002
0000
0000
0003
0000
0000
0000
0000
,
1001
0000
0000
0000
,
0001
0000
0000
0000
,
1000
0000
0000
0000
,
0010
0000
0000
0000
,
0110
0000
0000
0000
,
0001
0000
0000
0000
,
1000
0000
0000
0000
,
0001
0000
0000
0000
,
0100
0000
0100
0000
,
0100
0000
0100
0000
,
1001
0000
0000
0000
;

//--------------- dance-single - Alex ----------------
#NOTES:
     dance-single:
     Alex:
     Easy:
     3:
     0,0,0,0,0:
0000
0000
0000
0000
,
0000
0000
0000
0000
,
0002
0000
0003
0000
,
2000
0000
3000
0000
,
1001
0000
0010
0000
,
1000
0000
1001
0000
,
0001
0000
0101
0000
,
1000
0000
1100
0000
,
2000
0000
3000
0000
,
0020
0030
0010
0010
,
0200
0000
0300
0000
,
0002
0003
1000
1000
,
1001
0000
0001
0000
,
0011
0000
0100
0100
,
1001
0000
0000
0220
0000
0330
0000
0000
,
1100
0000
0000
0022
0000
0033
0000
0000
,
0101
0000
0000
2020
0000
3030
0000
0000
,
1100
0000
0000
0022
0000
0033
0000
0000
,
1001
0000
1001
0000
,
0001
0001
1000
1000
,
1001
0000
1001
0000
,
0010
0000
0100
0100
,
0010
0010
2000
3000
0001
0001
0200
0300
,
0001
0001
1000
1000
,
0010
0010
1000
0001
,
2002
0000
3003
0000
,
0220
0330
0100
0100
,
2002
0000
3003
0000
,
0022
0033
0010
0010
,
0001
0000
0101
0000
,
1000
0000
1010
0000
,
0010
0000
1001
0000
,
0100
0000
1001
0000
,
0220
0000
0330
0000
,
2002
0000
3003
0000
,
0011
0000
0011
0000
,
2200
0000
3300
0000
,
1000
0000
0001
0000
,
1000
0000
0001
0001
,
0001
0000
1000
0000
,
0010
0000
1000
0000
,
1001
0000
0110
0000
,
1001
0000
0110
0000
,
2002
0000
0000
3003
0000
0000
0000
0000
;

//--------------- dance-single - Alex ----------------
#NOTES:
     dance-single:
     Alex:
     Medium:
     5:
     0,0,0,0,0:
0000
0000
0000
0000
,
0000
0000
0000
0000
,
0220
0000
0330
0000
,
2002
0000
3003
0000
1000
0001
1000
0000
,
1001
0000
0000
0010
0100
0000
0000
0001
,
0010
0000
0000
0000
0000
0000
0001
0000
1000
0000
0001
0000
0000
1000
0000
0000
,
0001
0000
0000
0001
0100
0000
0000
0010
,
1000
0000
0000
0000
0000
0000
0001
0000
0010
0000
0001
0000
0000
0100
0000
0000
,
0110
1001
0110
0110
,
1001
0011
2200
3300
,
1010
0101
0011
0101
,
0110
0000
0000
0000
0000
0000
0000
0000
0000
0000
0000
0000
0000
0000
0000
0000
0000
0000
0000
0000
0000
0000
0000
0000
1010
0000
0000
0000
0000
0000
0000
0000
0000
0000
0000
0000
0000
0000
0000
0000
0000
0000
0000
0000
0000
0000
0000
0000
2200
0000
0000
0000
0000
0000
0000
0000
0000
0000
0000
0000
0000
0000
0000
0000
0000
0000
0000
0000
0000
0000
0000
0000
0000
3300
0000
0000
0000
0000
0000
0000
0000
0000
0000
0000
0000
0000
0000
0000
0000
0000
0000
0000
0000
0000
0000
0000
,
1001
0000
0000
0001
1000
0000
0000
0010
,
0100
0000
0000
0000
0000
0000
0001
0000
1000
0000
0001
0000
0000
1000
0000
0000
,
0002
0100
0100
0103
,
0020
1000
1000
1030
,
2000
0001
0001
3001
,
0200
0010
0010
0310
,
1001
0000
0110
0000
,
0001
0010
0001
0000
1000
0100
1000
0000
,
1001
0000
0110
0000
,
0010
1000
0100
0000
0010
0001
0100
0010
,
0100
0000
0010
0000
0100
0000
0010
0010
1000
0000
0001
0000
1000
0000
0001
0001
,
0100
0001
0100
0000
0010
1000
0001
0000
,
1000
0001
1000
0000
0001
0100
0010
1000
,
2002
0000
3003
0000
,
0220
0000
0330
0000
1000
0001
1000
0000
,
0022
0000
0033
0000
,
2200
0000
3300
0000
1000
0010
1000
0000
,
2000
0010
0010
3010
,
0002
0100
0100
0103
,
2000
0001
0001
3001
,
0200
0010
0010
0310
,
1010
0000
1100
0000
,
0011
0000
0101
0110
,
1010
0000
1001
0000
,
0011
0000
0000
0000
0000
0000
1000
0000
0001
0000
1000
0000
0000
0001
0000
0000
,
1000
1000
0001
0001
,
0100
0100
0010
0010
,
1000
0100
1000
0001
,
0001
0100
0010
1000
,
1001
1001
0110
0110
,
0011
1100
1010
0101
,
2002
0000
0000
3003
0000
0000
0000
0000
;

//--------------- dance-single - Alex ----------------
#NOTES:
     dance-single:
     Alex:
     Hard:
     9:
     0,0,0,0,0:
0000
0000
0000
0000
,
0000
0000
0000
0000
,
0002
2000
0000
0000
0000
0000
0000
0000
3003
0000
0000
0000
0000
0000
0000
0000
,
2000
0002
0000
0000
0000
0000
3003
0000
0010
0100
0010
0100
0000
0000
0000
0000
,
0001
1000
0000
0000
0000
0000
1000
0001
1000
0000
0001
0000
0000
0000
0100
0010
,
0100
0000
0100
0000
0000
0000
0010
0100
0010
0000
0100
0000
0000
0010
0000
0000
,
1001
0000
0000
0000
0000
0000
0001
1000
0001
0000
1000
0000
0000
0000
0001
0100
,
0001
0000
0100
0000
0000
0000
0010
1000
0010
0000
0000
1000
0000
0000
0010
0000
,
2000
0020
0000
0000
0000
0000
0000
0000
3030
0000
0000
0000
0000
0000
1000
0001
,
2000
0002
0000
0000
0000
0000
3003
0000
0100
0001
0100
0001
0000
0000
0000
0000
,
0200
0020
0000
0000
0000
0000
0000
0000
0330
0000
0000
0000
0000
0000
1000
0010
,
2000
0020
0000
0000
0000
0000
3030
0000
1000
0001
1000
0001
0000
0000
0000
0000
,
0100
0010
0000
0000
0000
0000
1000
0001
1000
0000
0010
0000
0000
0000
0100
0001
,
0100
0000
0001
0000
0000
0000
1000
0010
1000
0000
0001
0000
0000
0100
0000
0000
,
0100
0010
0100
0000
0001
0100
0001
0200
0000
0000
0000
0000
0010
0000
0310
0000
,
1000
0010
1000
0000
0001
1000
0001
2000
0000
0000
0000
0000
0001
0000
3001
0000
,
0100
0001
0100
0000
0010
1000
0010
2000
0000
0000
0000
0000
0100
0000
3100
0000
,
1000
0001
1000
0000
0001
0100
0001
0200
0000
0000
0000
0000
0001
0000
0301
0000
,
1001
0000
0000
0000
0000
0000
0001
1000
0001
1000
0000
0000
0000
0000
0000
0000
,
0001
0100
0001
0100
0002
0000
0000
0003
1000
0010
1000
0010
2000
0000
0000
3000
,
1001
0000
0000
0000
0000
0000
0010
0100
0010
0100
0000
0000
0000
0000
0000
0000
,
1000
0001
1000
0001
2000
0000
0000
3000
0001
0100
0001
0100
0002
0000
0000
0003
,
1000
0000
0000
1000
0000
0000
0010
0000
0000
0010
0000
0000
0100
0000
0000
0100
0000
0000
0002
0000
0000
0000
0000
0000
0000
0000
0000
0000
0000
0003
0000
0000
1000
0000
0000
1000
0000
0000
0010
0000
0000
0010
0000
0000
1000
0000
0000
1000
0000
0000
0200
0000
0000
0000
0000
0000
0000
0000
0000
0000
0300
0000
0000
0000
,
1000
0000
0001
0000
1000
0001
1000
0001
0000
0000
0000
0000
0100
0000
0010
0000
0100
0000
0001
0000
1000
0010
1000
0010
0000
0000
0000
0000
1000
0000
0001
0000
,
0100
0000
0001
0000
0010
0001
0010
0001
0000
0000
0000
0000
0001
0000
0100
0000
0010
0000
0100
0000
0001
0100
0001
0100
0000
0000
0000
0000
0001
0000
1000
0000
,
0020
0200
0000
0000
0000
0000
0000
0000
0330
0000
0000
0000
0000
0000
0000
0000
,
2000
0002
0000
0000
0000
0000
3003
0000
0001
0100
0001
0100
0000
0000
0000
0000
,
0200
0020
0000
0000
0000
0000
0000
0000
0330
0000
0000
0000
0000
0000
0000
0000
,
0020
2000
0000
0000
0000
0000
3030
0000
1000
0001
1000
0001
0000
0000
0000
0000
,
0001
0100
0001
0000
0100
0010
0100
0020
0000
0000
0000
0000
1000
0000
1030
0000
,
1000
0001
1000
0000
0001
1000
0001
2000
0000
0000
0000
0000
0001
0000
3001
0000
,
0100
0010
0100
0000
0001
0010
0001
0020
0000
0000
0000
0000
0001
0000
0031
0000
,
0001
0100
0001
0000
1000
0010
1000
0010
1000
0000
0001
0000
1000
0010
0000
0010
,
0200
0000
0000
0000
0300
0000
0001
1000
0001
0000
1000
0000
0000
0000
0001
0100
,
0001
0000
0100
0000
0000
0000
0010
1000
0010
0000
1000
0000
0000
0001
0000
0000
,
1001
0000
0000
0000
0000
0000
0001
0100
0001
0000
0100
0000
0000
0000
0010
1000
,
0010
0000
1000
0000
0000
0000
0001
0100
0001
0000
0100
0000
0000
0010
0000
0000
,
1000
0000
0001
0000
1000
0000
0010
1000
0000
1000
0010
0000
0100
0000
0001
0000
,
0010
0000
0100
0000
1000
0000
0001
0100
0000
0100
0001
0000
1000
0000
0001
0000
,
0010
0000
0001
0000
0100
0000
0010
0100
0000
0100
0010
0000
1000
0000
0100
0000
,
0010
0000
0100
0000
1000
0000
0001
0100
0000
0100
0001
0000
1000
0000
0010
0000
,
0200
0000
0300
0001
2000
0000
3000
0001
0020
0000
0030
0001
0200
0000
0300
0010
,
2000
0000
3000
0100
0020
0000
0030
0001
2000
0000
3000
0010
0200
0000
0300
0002
,
2000
0000
0000
3003
0000
0000
0000
0000
;

//--------------- dance-single - Alex ----------------
#NOTES:
     dance-single:
     Alex:
     Challenge:
     11:
     0,0,0,0,0:
0000
0000
0000
0000
,
0000
0000
0000
0000
,
0002
2000
0000
0000
0000
0000
0000
0000
3003
0000
0000
0000
0000
0000
0010
1000
,
0200
0020
0000
0000
0000
0000
0330
0000
0001
0000
1000
0010
0000
0010
1000
0001
,
1000
0000
0000
0001
0000
0000
0000
0000
0000
0001
0000
0000
0100
0000
0000
0000
0000
0000
0010
0000
0100
0000
0010
0000
0100
0000
0010
0000
0100
0000
0010
0000
0000
0000
0000
0000
1000
0000
0000
0000
0000
0000
0001
0000
0000
1000
0000
0000
,
0010
0000
0000
0000
0000
0000
1010
0000
0000
0000
0000
0000
0101
0000
0000
0000
0000
0000
0001
0000
1000
0000
0001
0000
1000
0000
0001
0000
1000
0000
0001
0000
0000
0000
0000
0000
0000
0000
0000
1001
0000
0000
0000
0000
0000
0000
0000
0000
,
0010
0000
0000
1000
0000
0000
0000
0000
0000
1000
0000
0000
0010
0000
0000
0000
0000
0000
1000
0000
0010
0000
1000
0000
0010
0000
1000
0000
0010
0000
1000
0000
0000
0000
0000
0000
0001
0000
0000
0000
0000
0000
0100
0000
0000
0001
0000
0000
,
0100
0000
0000
0000
0000
0000
0101
0000
0000
0000
0000
0000
0110
0000
0000
0000
0000
0000
0010
0000
1000
0000
0010
0000
1000
0000
0010
0000
1000
0000
0010
0000
0000
0000
0000
0000
0000
0000
0000
1010
0000
0000
0000
0000
0000
0000
0000
0000
,
0010
1000
0000
1000
0001
0000
0100
0000
0010
0100
0000
0100
0001
0000
0001
1000
,
0010
0100
0000
0100
0001
0000
1000
0000
1001
0000
0110
0000
0010
0100
0000
0100
,
0001
1000
0000
1000
0010
0000
1000
0000
0001
0100
0001
0000
0100
0000
0010
1000
,
0001
1000
0000
1000
0001
0000
0001
0000
0101
0000
0110
0000
0010
1000
0000
1000
,
0001
0000
0000
1000
0000
0000
0000
0000
0000
1000
0000
0000
0010
0000
0000
0000
0000
0000
0100
0000
0001
0000
0100
0000
0001
0000
0100
0000
0001
0000
0100
0000
0000
0000
0000
0000
0010
0000
0000
0000
0000
0000
1000
0000
0000
0010
0000
0000
,
1000
0000
0000
0000
0000
0000
1010
0000
0000
0000
0000
0000
0101
0000
0000
0000
0000
0000
0001
0000
1000
0000
0001
0000
1000
0000
0001
0000
1000
0000
0001
0000
0000
0000
0000
0000
0000
0000
0000
1001
0000
0000
0000
0000
0000
0000
0000
0000
,
0001
0010
0001
0000
0100
0010
0100
0010
0000
0010
1000
0000
1000
0001
1000
0100
,
1000
0000
1000
0001
0100
0010
1000
0001
0000
0001
0010
0000
0001
0100
0001
0100
,
0001
0000
1000
0010
1000
0010
0100
0001
0000
0001
1000
0000
0001
0010
0100
1000
,
0001
0000
0001
1000
0010
0100
0001
1000
0000
1000
0001
0000
1000
0010
1000
0010
,
2000
0000
0000
0000
3000
0000
0001
1000
0010
0100
1001
0000
0000
0000
0000
0000
,
0001
0010
0001
0010
0001
0010
0001
0000
0000
1000
0000
0000
0010
1000
0010
1000
0010
1000
0010
0000
0000
1000
0000
0000
,
2002
0000
0000
0000
3003
0000
0001
1000
0010
0100
1001
0000
0000
0000
0000
0000
,
0001
0000
1000
0000
0001
0000
1000
0000
0001
0000
1000
0000
0001
0000
0000
0000
0000
0000
0100
0000
0000
0000
0000
0000
0010
0000
0000
0100
0000
0000
0000
0000
0000
0100
0000
0000
0010
0000
0100
0000
0010
0000
0100
0000
0010
0000
0100
0000
,
0010
1000
0000
1000
0010
0000
0010
0100
0000
0100
0001
0000
0001
0010
0000
0010
0001
0000
0001
0100
0000
0100
0010
1000
0001
0100
0000
0100
0000
0001
1000
0001
1000
0010
0000
0010
1000
0000
1000
0001
0000
0001
0100
0000
0100
0001
0000
0001
0010
0000
0010
0001
0000
0001
1000
0010
0100
0001
0000
1000
0000
0001
1000
0010
,
0100
0001
0100
0001
0010
0100
1000
0002
0000
0000
0000
0003
1000
0010
1000
0010
1000
0001
1000
0010
0100
0001
1000
0200
0000
0000
0000
0300
1000
0001
0010
0001
,
1000
0010
1000
0001
0100
0001
0010
0200
0000
0000
0000
0300
0010
0001
0010
0001
0100
0010
0100
0001
0010
0100
1000
0002
0000
0000
0000
0003
1000
0010
0100
0001
,
2000
0020
0000
0000
0000
0000
0000
0000
3030
0000
0000
0000
1000
0001
0100
0010
,
2000
0002
0000
0000
0000
0000
3003
0000
0010
0100
0010
0100
0000
0100
0010
0100
,
0002
2000
0000
0000
0000
0000
0000
0000
3003
0000
0000
0000
0001
1000
0001
0010
,
0002
0200
0000
0000
0000
0000
0303
0000
0101
0000
0110
0000
0010
1000
0000
1000
,
0010
0000
0010
1000
0001
0100
0010
0100
0000
0100
0001
0000
0001
0010
0100
1000
,
0001
0000
0001
1000
0010
1000
0001
1000
0000
1000
0100
0000
1000
0010
1000
0010
,
1000
0000
1000
0001
0010
0001
1000
0010
0000
0010
0100
0000
0100
0001
0100
0001
,
0100
0000
0100
0001
0010
0100
1000
0000
1010
0000
1001
0000
1000
0010
1000
0020
,
2000
0000
0000
0000
0000
0000
0000
0000
0000
0000
0000
0000
3030
0000
0000
0000
0000
0000
0010
0000
0100
0000
0010
0000
0100
0000
0010
0000
0100
0000
0010
0000
0000
0000
0000
0000
1000
0000
0000
0000
0000
0000
0001
0000
0000
0100
0000
0000
,
0001
0000
0000
0000
0000
0000
1001
0000
0000
0000
0000
0000
0110
0000
0000
0000
0000
0000
0010
0000
1000
0000
0010
0000
1000
0000
0010
0000
1000
0000
0010
0000
0000
0000
0000
0000
0000
0000
0000
1001
0000
0000
0000
0000
0000
0000
0000
0000
,
0001
0000
0000
1000
0000
0000
0000
0000
0000
1000
0000
0000
0001
0000
0000
0000
0000
0000
0001
0000
1000
0000
0001
0000
1000
0000
0001
0000
1000
0000
0001
0000
0000
0000
0000
0000
1000
0000
0000
0000
0000
0000
0001
0000
0000
0100
0000
0000
,
0001
0000
0000
0000
0000
0000
0101
0000
0000
0000
0000
0000
1010
0000
0000
0000
0000
0000
0010
0000
1000
0000
0010
0000
1000
0000
0010
0000
1000
0000
0010
0000
0000
0000
0000
0000
0000
0000
0000
1001
0000
0000
0000
0000
0000
0000
0000
0000
,
0001
0000
1000
0010
1000
0001
1000
0010
0000
0010
1000
0000
1000
0001
0010
0001
,
1000
0000
1000
0001
0100
0001
0100
0010
0000
0010
1000
0000
1000
0001
0010
0100
,
1000
0000
1000
0001
0100
0001
1000
0010
0000
0010
1000
0000
1000
0100
1000
0100
,
1000
0000
1000
0001
1000
0001
0100
0000
1001
0000
0110
0000
0010
0100
0010
0100
,
0010
0000
0000
0010
1000
0020
0030
1000
0001
2000
3000
0001
0100
0002
0003
0010
,
0001
0020
0030
0001
0100
0002
0003
0100
0010
0200
0300
0010
1000
0020
0030
1000
,
0001
0100
0010
1000
0100
0020
0002
0000
0000
0000
0033
0000
0000
0000
0000
0000
;
