#TITLE:Beat Of The War;
#SUBTITLE:;
#ARTIST:Banya;
#TITLETRANSLIT:;
#SUBTITLETRANSLIT:;
#ARTISTTRANSLIT:;
#GENRE:;
#CREDIT:;
#MUSIC:Beat Of The War.ogg;
#BANNER:Beat Of The War.png;
#BACKGROUND:Beat Of The War-BG.png;
#CDTITLE:;
#SAMPLESTART:25.891;
#SAMPLELENGTH:9.315;
#SELECTABLE:YES;
#OFFSET:-0.125;
#BPMS:0.000=186.000
,128.000=140.000
,168.000=202.000
;
#STOPS:;
#BGCHANGES:;
#FGCHANGES:;

//--------------- dance-single - Alex ----------------
#NOTES:
     dance-single:
     Alex:
     Beginner:
     1:
     0,0,0,0,0:
0000
0000
0000
0000
,
0000
0000
0000
0000
,
0000
0000
0000
0000
,
0000
0000
0000
0000
,
0000
0000
0000
0000
,
0010
0000
0000
0000
,
0100
0000
0000
0000
,
0010
0000
0000
0000
,
1001
0000
0000
0000
,
0001
0000
0000
0000
,
1000
0000
0000
0000
,
1000
0000
0000
0000
,
0010
0000
0000
0000
,
1000
0000
0000
0000
,
0001
0000
0000
0000
,
0001
0000
0000
0000
,
1000
0000
0000
0000
,
1001
0000
0000
0000
,
0100
0000
0000
0000
,
0100
0000
0000
0000
,
0010
0000
0000
0000
,
0010
0000
0000
0000
,
0001
0000
0000
0000
,
1000
0000
0000
0000
,
1000
0000
0000
0000
,
0001
0000
0000
0000
,
1000
0000
0000
0000
,
0001
0000
0000
0000
,
0100
0000
0000
0000
,
0100
0000
0000
0000
,
0010
0000
0000
0000
,
1000
0000
0000
0000
,
1001
0000
0000
0000
,
0000
0000
0000
0000
,
0000
1000
0000
0000
0000
0000
0000
0000
,
0000
0001
0000
0000
0000
0000
0000
0000
,
0000
1000
0000
0000
0000
0000
0000
0000
,
0000
0010
0000
0000
0000
0000
0000
0000
,
0000
0100
0000
0000
0000
0000
0000
0000
,
0000
0001
0000
0000
0000
0000
0000
0000
,
0000
0001
0000
0000
0000
0000
0000
0000
,
0000
1000
0000
0000
0000
0000
0000
0000
,
1001
0000
0000
0000
,
0000
0000
0000
0000
,
0001
0000
0000
0000
,
1000
0000
0000
0000
,
0001
0000
0000
0000
,
0000
0000
0000
0000
,
1000
0000
0000
0000
,
0010
0000
0000
0000
,
1001
0000
0000
0000
,
1000
0000
0000
0000
,
0001
0000
0000
0000
,
1000
0000
0000
0000
,
0100
0000
0000
0000
,
0100
0000
0000
0000
,
1000
0000
0000
0000
,
1000
0000
0000
0000
,
0010
0000
0000
0000
,
0010
0000
0000
0000
,
1001
0000
0000
0000
,
0001
0000
0000
0000
,
0100
0000
0000
0000
,
0001
0000
0000
0000
,
1001
0000
0000
0000
,
1000
0000
0000
0000
,
0010
0000
0000
0000
,
0010
0000
0000
0000
,
1001
0000
0000
0000
;

//--------------- dance-single - Alex ----------------
#NOTES:
     dance-single:
     Alex:
     Easy:
     4:
     0,0,0,0,0:
0000
0000
0000
0000
,
0000
0000
0000
0000
,
0000
0000
0000
0000
,
0000
0000
0000
0000
,
0000
0000
0000
0000
,
0001
0000
1000
0000
,
0001
0000
1000
0000
,
0001
0000
1000
0001
,
1000
0000
0001
0000
,
0100
0010
0100
0010
,
0100
0000
0001
0000
,
1000
0100
1000
0100
,
1000
0000
0001
0000
,
0010
0001
0010
0001
,
0010
0000
0000
0000
0001
0000
0000
1000
,
0000
0000
0000
0001
0000
0000
1000
0000
,
0001
0001
0001
0001
,
1001
0000
0000
0000
,
0100
0000
0010
0000
,
0100
0000
0010
0000
,
1000
0000
0000
1000
0000
0000
0001
0000
,
1000
0001
1000
0000
,
0001
0000
0100
0000
,
0010
0000
0100
0000
,
0001
0000
0000
0001
0000
0000
1000
0000
,
1000
0001
1000
0000
,
0010
0000
1000
0000
,
0001
0000
0010
0000
,
0001
0000
0000
0001
0000
0000
0100
0000
,
0010
0100
0010
0000
,
1000
0000
0001
0000
,
1000
0000
0001
1000
,
1001
0000
0000
0000
,
0000
0000
0000
0000
,
0000
0010
0000
0000
0000
0100
0000
0000
,
0000
0010
0000
0000
0000
0100
0000
0001
,
0000
0100
0000
0000
0000
0010
0000
0000
,
0000
1000
0000
0000
0000
0001
0000
1000
,
0000
0001
0000
0000
0000
1000
0000
0000
,
0000
0010
0000
0000
0000
1000
0000
0001
,
0000
1000
0000
0000
0000
0001
0000
0000
,
0000
0100
0000
0000
0000
0110
0000
0000
,
1001
0000
0000
0000
,
1001
0000
0000
0000
,
0001
0001
0001
0001
,
1000
1000
1000
1000
,
1001
0000
0000
0000
,
0000
0000
0000
0000
,
0010
0010
0010
0010
,
0100
0100
0100
0100
,
0010
0000
1000
0000
,
0001
0000
1000
0100
,
1000
0000
0001
0000
,
0100
0000
0010
0100
,
0010
0000
0100
0000
,
0001
0000
1000
0001
,
1000
0000
0001
0000
,
0100
0000
0010
0000
,
0100
0100
0100
0100
,
0010
0010
0010
0010
,
1000
0000
0001
0000
,
1000
0000
0100
0000
,
1000
1000
1000
1000
,
0001
0001
0001
0001
,
0100
0000
0010
0000
,
0100
0000
0001
0000
,
0010
0010
0010
0010
,
0001
0001
0001
0001
,
1000
0001
1001
0000
;

//--------------- dance-single - Alex ----------------
#NOTES:
     dance-single:
     Alex:
     Medium:
     6:
     0,0,0,0,0:
0000
0000
0000
0000
,
0000
0000
0000
0000
,
0000
0000
0000
0000
,
0000
0000
0000
0000
,
0000
0000
0000
0000
,
0001
1000
0001
0001
,
1000
0010
1000
1000
,
0001
1000
0100
1000
,
1001
0001
0100
0010
,
1000
0000
0100
0000
1000
0100
1000
0000
,
0010
1000
0001
0010
,
0001
0000
0100
0000
0010
0100
0010
0000
,
0100
0100
0001
1000
,
0100
0000
0010
0000
0001
1000
0001
0000
,
1000
0000
0010
0000
1000
0000
0001
0100
,
0000
0000
0000
1001
0000
0000
0110
0000
,
1001
1001
1001
1001
,
2002
0000
3003
0000
,
0001
1000
0010
1000
,
0001
0010
0100
1000
,
1100
0000
0000
0011
0000
0000
1001
0000
,
0001
0100
0010
0100
,
0001
0001
1000
0010
,
1000
1000
0001
0010
,
0011
0000
0000
0011
0000
0000
1100
0000
,
1000
0010
0100
0010
,
1000
1000
0001
1000
,
0010
1000
0001
0100
,
0110
0000
0000
0110
0000
0000
1001
0000
,
0001
1000
0100
1000
,
0001
1000
1000
0001
,
0100
0010
0100
0001
,
2002
0000
0000
0000
,
0000
0000
0000
3003
,
0000
0001
0000
0100
0000
0010
0000
0100
,
0000
0001
0000
1000
0000
0100
1000
0000
,
1000
0100
0000
1000
0000
0010
0000
1000
,
0000
0001
0000
0010
0000
0001
0100
0000
,
0100
0001
0000
1000
0000
0010
0000
1000
,
0000
0001
0000
1000
0000
0010
0100
0000
,
0100
0010
0000
0100
0000
0001
0000
0010
,
0000
0100
0000
1000
0000
0001
1000
0000
,
2002
0000
3003
0000
,
0220
0000
0330
0000
,
0110
0110
0110
0110
,
1001
1001
1001
1001
,
0220
0000
0000
0000
,
0330
0000
0000
0000
,
0110
0110
0110
0110
,
1001
1001
1001
1001
,
0001
1000
0010
1000
,
0001
0100
0010
0100
,
0001
0001
1000
0100
,
0010
0100
1000
0001
,
0100
0100
0001
0001
,
1000
0010
1000
0001
,
1000
0001
0100
0010
,
0100
0001
1000
0100
,
1100
1100
1100
1100
,
1010
1010
1010
1010
,
0010
1000
0001
0100
,
0010
0100
0001
1000
,
1001
1001
1001
1001
,
0110
0110
0110
0110
,
0100
0001
0010
0100
,
1000
0001
0100
0010
,
1010
1010
1010
1010
,
1001
1001
1001
1001
,
0100
0010
0100
0020
0000
0000
0000
0000
,
0000
0000
0030
0000
;

//--------------- dance-single - Alex ----------------
#NOTES:
     dance-single:
     Alex:
     Hard:
     10:
     0,0,0,0,0:
0000
0000
0000
0000
,
0000
0000
0000
0000
,
0000
0000
0000
0000
,
0000
0000
0000
0000
,
0000
0000
0000
0000
,
0001
0000
0000
1000
0010
0000
1000
0000
0001
0000
0000
1000
0100
0000
0010
0000
,
0001
0000
0000
0100
0010
0000
0100
0000
0001
0000
0000
1000
0010
0000
1000
0000
,
0001
0000
0000
1000
0100
0000
0010
0000
0001
0000
0000
0100
0010
0000
0100
0000
,
0001
1000
0010
1000
0000
0001
0100
0000
,
0001
0010
0100
1000
0001
0100
0010
0100
,
0001
0001
1000
0010
0000
0010
1000
0000
,
0100
1000
0010
1000
0100
0010
0001
0100
,
0010
0010
0100
0001
0000
0001
1000
0000
,
1000
0001
0010
0001
0100
0010
0100
0001
,
1000
0100
0010
0001
0000
0001
0100
0010
,
0000
0100
0001
2000
0000
3000
1001
0000
,
0001
1000
0010
1000
0001
0100
0001
0010
,
0220
0000
0330
0000
,
0010
0001
0100
0010
0100
0001
1000
0010
,
0100
0001
1000
0100
0010
0001
1000
0001
,
0100
0000
0110
0110
0000
1001
1001
0000
,
0001
1000
0010
1000
0001
1000
0100
0000
,
0010
0001
0100
0010
0100
0001
0010
0100
,
0010
0001
1000
0010
1000
0001
1000
0100
,
1100
0000
1010
1010
0000
0101
0101
0000
,
0001
0000
0100
0010
0000
0010
0100
0000
0001
0000
1000
0000
0100
0000
1000
0000
,
0001
0001
1000
0010
1000
0001
0010
0100
,
1000
0001
0100
0010
1000
0100
0010
0001
,
1001
0000
0110
0110
0000
1001
1001
0000
,
0001
1000
0100
1000
0001
1000
0010
1000
,
0001
0010
0100
1000
0001
0100
0010
1000
,
0100
0010
0001
0100
0010
0100
0001
1000
,
2002
0000
0000
0000
,
0000
0000
0000
3003
,
0001
1000
0010
1000
0001
0100
0001
0010
,
0100
1000
0001
0100
0010
0100
0110
0000
,
0100
0100
0001
0010
0100
1000
0001
1000
,
0010
1000
0001
0100
0001
1000
1001
0000
,
0010
0010
0100
0001
0010
0100
1000
0001
,
1000
0010
1000
0100
0010
0001
0101
0000
,
0100
0100
0001
0010
0100
1000
0001
1000
,
0010
1000
0001
0010
0001
1000
0001
0000
,
2002
0000
0000
0000
,
3003
0000
0000
0000
,
1000
0010
1010
1000
0001
0100
0101
0001
,
0010
0100
0110
0010
0001
0100
0101
0001
,
2002
0000
0000
0000
,
3003
0000
0000
0000
,
1000
0001
1001
0001
0100
0010
0110
0100
,
0001
1000
1100
0100
1000
0010
1010
1000
,
1001
0001
1000
0010
0100
0001
0010
0100
,
1000
0001
0100
0010
1000
0100
0010
0000
,
0001
1000
0001
0001
0100
0010
0100
0001
,
0010
0100
1000
0001
1000
0010
1000
0000
,
1001
0001
0100
0010
0100
0001
0010
0100
,
1000
0001
1000
0010
1000
0001
1000
0000
,
1000
0010
1000
0001
1000
0010
1000
0001
,
0010
0100
1000
0001
0100
0010
0100
0000
,
0001
1000
1001
0001
1000
0010
1010
1000
,
0001
0100
0101
0001
1000
0100
1100
1000
,
0010
1000
0010
1000
0001
0100
0001
0010
,
0100
1000
0001
1000
0010
0100
0001
0000
,
1000
0010
1010
1000
0001
1000
1001
0001
,
0100
0001
0101
0100
0010
0100
0101
0001
,
1000
0010
1000
0001
0010
0100
1000
0001
,
0100
0010
0100
0001
1000
0100
0010
0000
,
0001
0100
0101
0001
1000
0010
1010
1000
,
0001
0100
0101
0100
0010
0100
0110
0010
,
1000
0100
0010
2002
0000
0000
0000
0000
,
0000
0000
3003
0000
;
