#TITLE:Beat Of The War 2;
#SUBTITLE:;
#ARTIST:Banya;
#TITLETRANSLIT:;
#SUBTITLETRANSLIT:;
#ARTISTTRANSLIT:;
#GENRE:;
#CREDIT:;
#MUSIC:Beat Of The War 2.ogg;
#BANNER:Beat Of The War 2.png;
#BACKGROUND:Beat Of The War 2-BG.png;
#CDTITLE:;
#SAMPLESTART:81.462;
#SAMPLELENGTH:11.813;
#SELECTABLE:YES;
#OFFSET:-0.085;
#BPMS:0.000=190.000
,152.000=120.000
,158.750=123.000
,165.000=120.000
,207.000=160.000
,255.000=190.000
;
#STOPS:;
#BGCHANGES:;
#FGCHANGES:;

//--------------- dance-single - Alex ----------------
#NOTES:
     dance-single:
     Alex:
     Beginner:
     1:
     0,0,0,0,0:
0000
0000
0000
0000
,
0000
0000
0000
0000
,
0000
0000
0000
0000
,
0000
0000
0000
0000
,
0000
0000
0000
0000
,
0000
0000
0000
0000
,
0001
0000
0000
0000
,
1000
0000
0000
0000
,
0010
0000
0000
0000
,
0100
0000
0000
0000
,
0100
0000
0000
0000
,
0010
0000
0000
0000
,
0001
0000
0000
0000
,
1000
0000
0000
0000
,
2002
0000
0000
0000
,
3003
0000
0000
0000
,
0220
0000
0000
0000
,
0330
0000
0000
0000
,
0010
0000
0000
0000
,
0010
0000
0000
0000
,
1000
0000
0000
0000
,
0002
0000
0003
0000
,
1001
0000
0000
0000
,
1000
0000
0000
0000
,
0001
0000
0000
0000
,
1000
0000
0000
0000
,
0010
0000
0000
0000
,
1000
0000
0000
0000
,
0001
0000
0000
0000
,
0100
0000
0000
0000
,
0010
0000
0000
0000
,
0010
0000
0000
0000
,
1000
0000
0000
0000
,
2000
0000
3000
0000
,
0001
0000
0000
0000
,
1000
0000
0000
0000
,
0001
0000
0000
0000
,
0001
0000
0000
0000
,
1001
0000
0000
0000
,
0000
0000
0000
0110
,
0000
0000
0000
0000
,
0000
0000
0000
0000
,
0000
0000
0000
0100
,
0100
0100
0000
1001
,
0000
0000
0000
0001
,
0000
0000
0000
1000
,
0000
0000
0000
0010
,
0000
0010
0000
0010
,
0000
0000
0000
1000
,
0000
0000
0000
1000
,
0000
0000
0000
0010
,
0000
0000
0000
1001
,
0000
0000
0000
0001
,
0000
0000
0000
0100
,
0000
0000
0000
0001
,
0000
0001
0000
0001
,
0000
0000
0000
1000
,
0000
0000
0000
0010
,
0000
0000
0000
0010
,
0000
0000
0000
2000
,
0000
3000
0000
0020
,
0000
0030
0000
0200
,
0000
0300
0000
0002
,
0000
0003
0000
1001
,
0000
0000
0000
0001
,
0000
0000
0000
0100
,
0000
0000
0000
0001
,
0000
0000
0000
0001
,
0000
0000
0000
1000
,
0000
0000
0000
0010
,
0000
0000
0000
0100
,
0000
0000
0000
0010
,
0000
0010
0000
0010
,
0000
0010
0000
0020
,
0000
0000
0000
0000
,
0000
0030
0000
0000
0000
0000
0000
0000
;

//--------------- dance-single - Alex ----------------
#NOTES:
     dance-single:
     Alex:
     Easy:
     4:
     0,0,0,0,0:
0000
0000
0000
0000
,
0000
0000
0000
0000
,
0000
0000
0000
0000
,
0000
0000
0000
0000
,
0000
0000
0000
0000
,
0000
0000
0000
0000
,
0001
0000
1000
0000
,
0001
0000
1000
0010
,
1000
0000
0001
0000
,
1000
0000
0100
0100
,
1000
0000
0010
0000
,
1000
0000
0001
0001
,
0001
0000
1000
0000
,
0010
0000
1010
0000
,
0100
0100
0100
0100
,
0200
0000
0300
0000
,
0010
0010
0010
0010
,
0020
0000
0030
0000
,
1000
0001
1000
0001
,
2000
0000
3000
0000
,
0001
1000
0001
1000
,
0002
0003
2000
3000
,
1001
0000
0001
0000
,
0100
0000
0010
0000
,
1000
1000
1000
0000
,
0010
0010
0010
0000
,
1000
0000
0001
0000
,
0100
0000
0010
0000
,
0100
0000
0100
0000
,
0010
0010
0010
0000
,
1000
0001
1000
0001
,
0100
0000
0100
0000
,
0001
0010
0001
0010
,
0002
0000
0003
0000
,
1000
0000
0010
0000
,
1000
1000
1000
0000
,
0010
0010
0100
0100
,
0002
0003
2000
3000
,
1001
0000
0000
0000
0000
0000
0000
0000
0000
0000
0000
0000
0000
0000
0000
0000
0000
0000
0000
1001
0000
0000
0000
0000
0000
0000
0000
0000
0000
0000
0000
0000
,
0000
0000
0000
0220
,
0000
0000
0000
0000
,
0000
0330
0000
0000
,
0000
0000
0000
2002
,
0000
3003
0000
0001
,
0000
1000
0000
0001
,
0000
0100
0000
0010
,
0000
0010
0000
1000
,
1000
1000
0001
0100
,
0000
0010
0000
1000
,
0000
0001
0000
0010
,
0000
0001
0000
0100
,
0100
0100
0000
0002
,
0000
0103
0000
0000
0100
0000
0200
0000
,
0000
0310
0000
0000
0010
0000
0020
0000
,
0000
1030
0000
0000
1000
0000
1000
0000
,
0001
0002
0003
0100
,
0010
0100
0000
0001
,
0010
0001
0000
1000
,
0010
1000
0000
0001
,
0100
0001
0000
1000
,
0100
1000
0000
0010
,
1000
0010
0000
0100
,
0010
0100
0000
0001
,
1000
0001
0000
1001
,
0000
1000
0000
0001
,
0000
0100
0100
0100
,
0000
0010
0000
0010
,
0000
1000
1000
1000
,
0000
0001
0000
0010
,
0000
0001
0100
0001
,
0000
0100
0000
0010
,
0000
1000
1000
0001
,
0001
1000
1000
0010
,
0010
0100
0100
0020
,
0000
0000
0000
0000
,
0000
0000
0000
0000
,
0000
0000
0000
0000
0000
0030
0000
0000
;

//--------------- dance-single - Alex ----------------
#NOTES:
     dance-single:
     Alex:
     Medium:
     6:
     0,0,0,0,0:
0000
0000
0000
0000
,
0000
0000
0000
0000
,
0000
0000
0000
0000
,
0000
0000
0010
0000
,
0010
0000
0020
0000
,
0030
0000
1001
0000
,
0001
1000
0010
1000
,
0001
0001
0100
0110
,
0010
1000
0100
0010
,
0100
0100
1000
1000
,
0001
0100
0010
0100
,
0001
1000
0010
1010
,
1000
0001
0100
0010
,
0110
0000
2002
3003
,
0001
1000
0001
0100
,
0020
0000
0030
0000
,
0100
0100
0001
0001
,
2000
0000
3000
0000
,
0001
0001
1000
1000
,
0020
0000
0100
0030
,
0100
0100
0001
0001
,
1000
0010
2020
3030
,
1000
1000
0001
0001
,
0100
0100
0010
0010
,
1000
0100
0010
0100
,
1000
0001
0100
0010
,
0110
0100
0001
1000
,
0010
0100
0001
0010
,
0001
0100
0010
1000
,
0001
0001
2000
3000
,
0001
0001
1000
1000
,
0010
0010
0100
0100
,
0001
0010
0100
1000
,
0002
0000
1003
0000
,
0010
0100
0001
1000
,
0100
0100
1000
1000
,
0010
0100
0001
1000
,
0010
1000
1000
0001
,
1001
0000
0000
0000
0000
0000
0000
0000
0000
0000
0000
0000
0000
0000
0000
0000
0000
0000
0000
1001
0000
0000
0000
0000
0000
0000
0000
0000
0000
0000
0000
0000
,
0000
0000
0000
2002
,
0000
0000
0000
0000
,
0000
3003
0000
0000
,
0000
0000
0000
0010
,
0010
0010
0010
1001
,
0001
0100
0010
0100
,
0001
1000
1000
0001
,
0010
0100
1000
0001
,
0100
0000
0010
0000
0010
0100
0001
0000
,
1000
0000
0100
0000
1000
0100
1000
0000
,
0001
0000
0100
0000
0010
0100
0010
0000
,
1000
0000
0001
0000
0100
0001
0100
0000
,
0001
1000
0001
1001
,
0000
1001
0000
0000
0010
0000
0110
0000
,
0000
0110
0000
0000
0100
0000
1001
0000
,
0000
1001
0000
0000
0001
0000
0001
0000
,
0001
1000
1000
1001
,
0001
0100
0010
0100
,
0100
0001
0001
1000
,
0100
0010
0100
1000
,
1000
0001
0001
0100
,
0010
0100
0001
1000
,
0010
1000
1000
0001
,
0010
0001
0100
0010
,
0100
0001
1000
1001
,
0001
0001
0100
0010
,
1000
0100
1100
1000
,
0010
1000
1000
0001
,
0001
0100
0100
0010
,
0100
0001
1000
0100
,
0010
0001
1001
1000
,
0010
0100
0001
0101
,
0000
0220
0330
0022
,
0033
2200
3300
0202
,
0303
2020
3030
2002
,
0000
0000
0000
0000
,
0000
0000
0000
0000
,
0000
0000
0000
0000
0000
3003
0000
0000
;

//--------------- dance-single - Alex ----------------
#NOTES:
     dance-single:
     Alex:
     Hard:
     10:
     0,0,0,0,0:
0000
0000
0000
0000
,
0000
0000
0000
0000
,
0000
0000
0000
0000
,
0000
0000
1001
0000
,
1001
0000
2002
0000
,
3003
0000
0000
0000
0000
0000
0000
0000
0001
0000
0000
1000
0000
0000
0001
0000
,
0100
0010
0100
0001
0010
0100
1000
0001
,
0100
0010
1000
0100
0010
0001
1001
0000
,
0001
0100
0001
0010
0001
0100
0010
0100
,
0001
0100
0001
0000
1000
0000
0010
1000
0010
0000
1000
0000
0001
1000
0001
0000
,
1000
0100
0010
0001
0100
0010
0100
0001
,
1000
0010
0100
0001
1000
0100
1100
0000
,
0100
1000
0010
0100
0001
1000
0010
0100
,
2002
0000
0000
0000
3003
0000
0000
0000
0010
0000
0000
0100
0000
0000
0010
0000
,
0100
0000
0001
0000
0010
0000
0100
0000
1000
0000
0001
0000
0100
0000
0010
1000
,
0200
1000
0000
1300
,
1000
0000
0001
0000
0010
0000
0001
0000
0100
0000
0010
0000
1000
0000
0001
0100
,
0002
0010
0000
0013
,
0001
0000
0100
0000
0010
0000
0100
0000
0001
0000
1000
0000
0010
0000
0100
0001
,
2000
0010
0000
3010
,
0010
0100
0001
0100
0010
1000
0001
1000
,
0010
0000
0100
0001
1000
0000
0001
0000
0100
0000
0000
0010
0000
0000
0100
0000
,
0101
0000
0001
0000
0010
0000
0100
0000
1000
0000
0001
0000
0100
0000
0010
0100
,
0001
0000
1000
0000
0001
0000
0010
0000
0100
0000
1000
0000
0001
0000
1000
0010
,
1000
0000
0001
0000
0100
0000
0010
0000
0100
0000
0001
0000
1000
0000
0100
0010
,
0001
0000
0100
0000
0010
0000
1000
0001
0100
0000
0010
0000
1000
0001
1000
0000
,
1001
0000
0001
0000
0100
0000
0010
0000
1000
0000
0001
0000
0010
0000
0001
0010
,
0001
0000
0100
0000
0010
0000
1000
0000
0100
0000
1000
0000
0010
0000
1000
0010
,
1000
0001
0100
0010
0100
0001
1000
0010
,
0010
0100
0010
0000
0100
0010
0100
0000
0001
0000
1000
0000
0001
0000
0000
0000
,
1000
0010
0100
0001
1000
0100
0010
0001
,
0100
0001
0000
0000
0001
0100
0000
0000
0100
1000
0000
0000
1000
0100
0000
0000
,
0010
0000
0001
0000
0100
0000
0010
0000
0100
0000
0001
1000
0001
1000
0001
0000
,
1000
0010
0100
0001
0010
0100
1000
0000
,
0001
0100
0010
0100
0001
1000
0010
0100
,
0001
0100
0000
0000
1000
0100
0000
0000
0001
0010
0000
0000
1000
0010
0000
0000
,
0001
0000
0100
0000
0010
0000
0100
0000
0001
0000
1000
0010
1000
0010
1000
0000
,
0001
0000
0100
0000
0001
0000
0000
0000
1000
0000
0100
0000
0010
0001
0010
0000
,
0011
0000
0000
0000
0000
0000
0000
0000
0000
0000
0000
0000
0000
0000
0000
0000
0000
0000
0000
0000
0000
0000
0000
0000
0000
0000
0000
0000
1010
0000
0000
0000
0000
0000
0000
0000
0000
0000
0000
0000
0000
0000
0000
0000
0000
0000
0000
0000
0000
0000
0000
0000
0000
0000
0000
0000
0000
1100
0000
0000
0000
0000
0000
0000
0000
0000
0000
0000
0000
0000
0000
0000
0000
0000
0000
0000
0000
0000
0000
0000
0000
0000
0000
0000
0000
0000
0000
0000
0000
0000
1001
0000
0000
0000
0000
0000
,
0000
0000
0000
0000
0000
0000
0000
0000
0000
0002
0000
0000
2000
0000
0000
0000
,
0000
0000
0000
0000
,
0000
3003
0000
0000
,
0000
0000
0000
0000
0000
0000
0010
0010
,
0010
0010
0100
0001
1000
0100
1100
1000
,
0010
1000
0001
1000
0010
1000
0001
1000
,
0100
0010
0001
0100
0010
0100
0001
0001
,
1000
1000
0010
0010
1000
0001
0010
0100
,
1000
0000
0001
0000
0100
0000
0010
0000
1000
0010
1000
0010
1000
0000
0001
0000
,
0100
0000
0010
0000
0100
0000
0001
0000
1000
0000
0100
0010
0001
0000
0100
0000
,
0010
0000
1000
0001
0100
0000
0001
0000
1000
0000
0010
1000
0010
0000
1000
0000
,
0001
0010
0001
0100
0010
0100
0101
0001
,
1000
0000
0010
0000
0100
0000
0001
0000
1000
0000
1000
0000
0010
1000
0010
0000
,
0000
0000
1000
0100
1000
0000
0000
0000
0001
0100
0001
0000
1000
0010
1000
0000
,
0000
0000
0001
0010
0001
0000
0000
0000
0100
0010
0100
0000
0001
1000
0001
0000
,
0000
0000
1000
0010
1000
0000
0000
0000
0001
0100
0001
0000
0010
0001
0010
0000
,
0001
1000
0001
0000
1000
0000
0010
1000
0010
1000
0010
0000
1000
0000
0010
0000
,
0100
0001
0010
0100
1000
0001
0100
0010
,
0100
0001
1000
0010
1000
0001
0010
0010
,
0001
0100
0010
0100
0001
0010
0100
1000
,
0001
0000
1000
0000
0010
0000
1000
0000
0001
0000
0100
0000
0010
0100
0010
0100
,
0010
0000
0100
0000
0001
0000
0010
0000
0100
0000
1000
0000
0001
1000
0001
1000
,
0001
0000
1000
0000
0010
0000
1000
0000
0001
0000
1000
0000
0100
0010
0100
0010
,
0100
0000
1000
0000
0001
0000
0100
0000
0010
0000
0100
0000
0001
0100
0001
0100
,
0001
1000
0010
1000
0001
0101
0001
0010
,
0100
1000
0001
1000
0010
1000
0001
0100
,
0010
0100
0001
1000
1010
0000
0010
1000
,
0010
0000
0100
0000
0010
0000
1000
0000
0100
0000
0010
0000
0001
0010
0001
0000
,
0100
0000
0001
1000
0001
0000
1000
0000
0010
1000
0010
0000
1010
0000
0010
0000
,
1000
0001
0100
0010
0100
0001
1000
0100
,
0010
0001
1000
0010
1010
0000
0010
0100
,
0001
1000
0100
0010
0001
1000
2002
0000
,
3003
0000
0000
0000
0001
0000
0000
1000
0000
0000
0010
0000
0110
0000
0000
0100
,
0000
0000
0001
0000
1001
0000
0000
1000
0000
0000
0010
0000
1010
0000
0000
1000
,
0000
0000
0001
0000
0011
0000
0000
0001
0000
0000
0100
0000
0220
0000
0000
0000
,
0000
0000
0000
0000
,
0000
0000
0000
0000
,
0000
0000
0000
0000
0000
0330
0000
0000
;

//--------------- dance-single - Alex ----------------
#NOTES:
     dance-single:
     Alex:
     Challenge:
     13:
     0,0,0,0,0:
0000
0000
0000
0000
,
0000
0000
0000
0000
,
0000
0000
0000
0000
,
0000
0000
2002
3003
,
2002
3003
2002
0000
,
3003
0000
0000
0000
0000
0000
0000
0000
0001
0000
0000
1000
0000
0000
0010
0000
,
0110
0100
0001
0010
0100
1000
0001
0100
,
0010
0000
1000
0010
0100
0001
0010
0100
1000
0001
0100
0010
0200
0000
0300
0000
,
0010
1000
0001
0010
0001
1000
0010
0100
,
0001
0100
0001
0100
0001
0000
1000
0010
1000
0010
1000
0000
0001
1000
0010
0100
,
0001
1000
0100
0010
0001
0100
0010
0100
,
0001
0010
0001
0000
1000
0000
0010
0100
0001
0000
0100
0000
2002
0000
3003
0000
,
0001
1000
0010
0100
0001
1000
0100
0010
,
0001
0000
0100
0000
0010
0000
1000
0000
1010
0000
0000
0101
0000
0000
0011
0000
,
0001
1000
0001
1000
0001
0100
0001
1000
0010
1000
0001
1000
0001
0100
0001
1000
,
0020
0100
0000
0130
,
0100
0001
0010
0100
1000
0001
1000
0010
1000
0100
1000
0010
1000
0001
0100
0001
,
2000
0001
0000
3001
,
0001
0100
0010
0100
0001
0100
0001
0100
0010
0100
0010
1000
0010
0100
0010
1000
,
0002
1000
0000
1003
,
0001
1000
0001
0100
0001
1000
0010
1000
0100
1000
0010
1000
0010
0100
0001
1000
,
0010
0000
0100
0001
1000
0000
0001
0000
0101
0000
0000
0011
0000
0000
0110
0000
,
0010
0001
0101
0001
1000
0010
1010
0010
,
1000
0001
0101
0001
0100
0010
1010
1000
,
0100
0010
0011
0001
0100
0010
0110
0100
,
0001
0000
1000
0000
1010
0000
0010
0000
1000
0000
0001
0000
0010
0100
1000
0001
,
0100
0010
0110
0100
0001
1000
1001
0001
,
0010
0001
0101
0001
0100
0010
1010
1000
,
0100
1000
1010
0010
0100
0001
1001
0100
,
0001
1000
0001
0000
1000
0010
1000
0000
0001
0000
0100
0000
0020
0000
0030
0000
,
1000
0100
1100
1000
0010
1000
1001
0001
,
1000
0010
1000
0000
0001
0100
0001
0000
1000
0100
1000
0000
2020
0000
3030
0000
,
0010
0000
0100
0000
0001
0000
0100
0000
0010
0000
1000
0001
0010
0100
1000
0001
,
0100
0000
0010
0000
0100
0000
0001
0000
0010
0000
0100
0000
1000
0001
0100
0010
,
0100
0001
0010
0100
1000
0001
1000
0010
,
1000
0010
1000
0000
0001
0010
0001
0000
0100
0010
0100
0000
0202
0000
0303
0000
,
0010
0000
1000
0000
0001
0000
0010
0000
0001
0000
0100
0010
0100
0001
0010
0100
,
1000
0000
0001
0100
0001
0000
1000
0000
0010
0000
0100
0001
1000
0100
0010
0001
,
1001
0000
0000
0000
0000
0000
0000
0000
0000
0000
0000
0000
0000
0000
0010
0000
0000
0000
0000
0000
0000
0000
0000
0000
0000
0000
0000
0000
1001
0000
0000
0000
0000
0000
0000
0000
0000
0000
0000
0000
0000
0000
0000
0000
0000
0000
0000
0000
0000
0000
0000
0000
0000
0000
0000
0000
0000
0110
0000
0000
0000
0000
0000
0000
0000
0000
0000
0000
0000
0000
0000
0000
0000
0000
0100
0000
0000
0000
0000
0000
0000
0000
0000
0000
0000
0000
0000
0000
0000
0000
1001
0000
0000
0000
0000
0000
,
0000
0000
0000
0000
0000
0000
0000
0000
0000
0002
0000
0000
2000
0000
0000
0000
,
0000
0000
0000
0000
,
0000
3003
0000
0000
,
0000
0000
0000
0000
0000
0000
1001
1001
,
1001
1001
0001
0100
0010
0100
0101
0001
,
1001
1000
1010
0010
0110
0100
0101
0001
,
0011
0001
1001
1000
1010
0010
1010
1000
,
1001
0001
0101
0100
0110
0010
1001
0100
,
1001
0000
0010
0000
0101
0000
0010
0000
1000
0001
0010
0100
1000
0000
0001
0000
,
0100
0010
0100
0000
0001
0010
0001
0000
1000
0000
0010
0100
0001
0000
1000
0000
,
0100
1000
0100
0000
0010
0001
0010
0000
0001
0000
0100
0010
0100
0000
0001
0000
,
1000
0000
0010
1000
0001
0000
0010
0000
0001
0100
0001
0000
0100
0000
0010
1000
,
0010
0000
1000
0000
0001
0000
0010
0000
0100
1000
0100
0000
1000
0001
0200
0000
,
0300
0000
0001
1000
0020
0000
0030
0000
0100
0001
0020
0030
0001
1000
0020
0000
,
0030
0000
1000
0001
2000
0000
3000
0000
0001
0100
0002
0003
1000
0010
0200
0000
,
0300
0000
0001
0010
0200
0000
0300
0000
1000
0001
2000
3000
0001
0100
0002
0003
,
0100
0010
0200
0300
0001
0000
1000
0010
1000
0010
1000
0010
1000
0001
0100
0010
,
1000
0000
0001
0010
0100
1000
0001
0000
0100
0010
0100
0000
0001
0010
0001
0100
,
0001
0000
1000
0010
1000
0100
1000
0000
0010
1000
0010
0000
1000
0001
0010
0100
,
1000
0000
0001
0100
0010
0100
0001
0000
1000
0001
0010
0000
0001
1000
0010
0100
,
0001
0000
1000
0100
0010
0001
0100
0000
0010
0100
0001
0000
1000
0001
0010
0001
,
1000
0000
0010
1000
0001
0100
0010
0000
1000
0100
1000
0000
0001
0100
0001
0010
,
0001
0000
0100
0010
0100
0010
0100
0000
0001
1000
0001
0000
0010
0001
0100
0010
,
0100
0000
0001
1000
0100
0010
0001
0000
0100
0010
0100
0000
0001
0010
0001
1000
,
0010
0000
1000
0001
1000
0100
1000
0000
0001
0100
0010
0100
0101
0000
0001
0000
,
0010
0000
0100
0000
1000
0000
0001
0000
0100
0000
0010
0000
0100
0000
0001
1000
,
0001
0010
0100
1000
0001
0100
0010
1000
0200
0000
0300
0000
1000
0000
0010
0000
,
1000
0000
0001
0000
1000
0000
0010
0000
0100
0000
0001
0000
0010
0001
0010
0100
,
1000
0000
0001
0100
0001
0100
0001
0000
1000
0010
1000
0010
1000
0000
0001
0000
,
0100
0000
0010
0000
0100
0000
0001
0000
1000
0000
0100
0000
0010
0001
0010
0000
,
0001
0000
1000
0010
1000
0000
0001
0000
2002
0000
3003
0000
0001
0000
0100
0000
,
0010
0100
0001
1000
0100
0010
0001
0100
,
0010
0000
0100
0000
0101
0000
0000
0110
0000
0000
1010
0000
1001
0000
0000
0011
,
0000
0000
1100
0000
0110
0000
0000
0101
0000
0000
0110
0000
1010
0000
0000
0011
,
0000
0000
0101
0000
0011
0000
0000
1001
0000
0000
1010
0000
2000
0000
0000
0000
,
0000
0000
0002
0000
0000
0003
0002
0000
0000
0000
0000
0003
0002
0000
0000
0000
,
0000
0003
0002
0000
0000
0000
0000
0000
0000
0000
0000
0000
0000
0000
0003
0002
,
0000
0000
0000
0000
0000
0000
0000
0003
0002
0000
0000
0000
0000
0000
0000
0000
,
0000
0000
0000
0000
,
0000
0000
0000
0000
,
3003
0000
0000
0000
;
