#TITLE:Bambole;
#SUBTITLE:;
#ARTIST:Papa Gonzales;
#TITLETRANSLIT:;
#SUBTITLETRANSLIT:;
#ARTISTTRANSLIT:;
#GENRE:;
#CREDIT:;
#MUSIC:Bambole.ogg;
#BANNER:Bambole.png;
#BACKGROUND:Bambole-BG.png;
#CDTITLE:;
#SAMPLESTART:26.870;
#SAMPLELENGTH:13.037;
#SELECTABLE:YES;
#OFFSET:-0.210;
#BPMS:0.000=128.000;
#STOPS:;
#BGCHANGES:;
#FGCHANGES:;

//--------------- dance-single - Alex ----------------
#NOTES:
     dance-single:
     Alex:
     Beginner:
     1:
     0,0,0,0,0:
0000
0000
0000
0000
,
0000
0001
0000
0000
,
0000
0001
0000
0000
,
0000
1000
0000
0000
,
0000
1000
0000
0000
,
0000
0110
0000
0000
,
0000
0100
0000
0000
,
0000
0001
0000
0000
,
0000
1000
0000
0000
,
0000
0010
0000
0000
,
0000
1000
0000
0000
,
0000
0001
0000
0000
,
0000
0001
0000
0000
,
0000
0100
0000
0000
,
0000
0110
0000
0000
,
0000
0010
0000
0000
,
0000
1000
0000
1000
,
0000
1000
0000
0000
,
0000
0001
0000
0000
,
0000
0001
0000
0000
,
0000
1000
0000
0000
,
0000
0010
0000
0000
,
0000
1001
0000
0000
,
0000
1001
0000
0000
,
0000
0100
0000
0000
,
0000
0010
0000
0000
,
0000
1000
0000
0000
,
0000
1000
0000
0000
,
0000
0001
0000
0000
,
0000
0001
0000
0000
,
0000
0100
0000
0000
,
0000
0010
0000
0000
,
0000
0010
0000
0000
,
0000
1000
0000
1000
,
0000
1000
0000
0000
,
0000
0010
0000
0010
,
0000
0010
0000
0000
,
0000
0001
0000
0001
,
0000
0001
0000
0000
,
0000
0100
0000
0100
,
0000
0100
0000
0000
,
0000
0010
0000
0000
,
0000
0010
0000
0000
,
0000
1001
0000
0000
,
0000
1000
0000
0000
,
0000
0001
0000
0001
,
0000
0001
0000
0000
,
0000
0010
0000
0000
,
0000
1000
0000
0000
,
0000
0100
0000
0100
,
0000
0100
0000
0000
,
0000
0110
0000
0000
;

//--------------- dance-single - Alex ----------------
#NOTES:
     dance-single:
     Alex:
     Easy:
     3:
     0,0,0,0,0:
0000
0000
0000
0000
,
0000
1001
0000
0000
,
0000
1001
0000
0000
,
0000
1000
0000
0001
,
0000
2002
0000
3003
,
0000
0001
0000
1000
,
0000
0001
0000
0001
,
0000
0100
0000
0100
,
0000
0010
0000
1000
,
1000
0001
0000
0010
,
0000
0001
0000
0001
,
0000
1000
0000
0100
,
0000
1000
1000
1000
,
0000
2002
0000
3003
,
0000
0001
0001
0001
,
0000
1000
1000
1000
,
0000
0001
0000
0100
,
0000
0020
0000
0030
,
0000
0100
0100
0100
,
0000
0010
0010
0010
,
0000
1000
0000
0001
,
0000
2000
0000
3000
,
0000
1001
0000
0000
,
0000
1001
0000
0000
,
0000
0001
0000
0001
,
0000
1000
1000
1000
,
0000
0001
0001
0001
,
0000
0100
0000
0010
,
0000
0100
0000
0100
,
0000
0001
0001
0001
,
0000
0010
0010
0010
,
0000
1000
0000
0001
,
0000
0200
0000
0300
,
0000
1001
0000
1001
,
0000
1001
0000
0000
,
0000
0110
0000
0110
,
0000
0110
0000
0000
,
0000
0011
0000
0011
,
0000
0011
0000
0000
,
0000
1100
0000
1100
,
0000
1100
0000
0000
,
0000
1000
0001
1000
,
0001
1000
0001
2000
,
3000
0001
0001
0001
,
0000
1000
1000
1000
,
0000
0010
0000
1000
,
0000
0001
0000
0100
,
0000
0220
0000
0330
,
0000
2002
0000
3003
,
0000
0001
0000
1000
,
0000
0001
0000
1000
,
0001
1000
0000
0000
;

//--------------- dance-single - Alex ----------------
#NOTES:
     dance-single:
     Alex:
     Medium:
     5:
     0,0,0,0,0:
0000
0000
0000
0000
,
0000
0000
0110
0000
0000
0000
0010
0100
,
0010
1001
0000
0010
,
0100
0110
0000
0110
,
0000
1001
1001
2002
,
3003
0001
1000
0001
,
0001
1000
0010
1000
,
1000
0000
0001
1000
0001
0000
0100
0000
,
0010
0000
0100
0000
0000
0000
0001
1000
,
0001
1000
1000
0001
,
0001
0000
0100
0000
0000
0000
0010
0100
,
0010
1010
1000
0100
,
0010
0000
0001
0000
0001
0000
1000
0001
,
1000
0001
1000
2002
,
3003
0000
0001
0000
1000
0000
0010
0100
,
0010
0000
1000
0000
0001
0000
0010
0001
,
0010
0001
0100
0010
,
0100
0001
0001
1000
,
1000
0000
0001
0000
0100
0000
0010
0100
,
0010
0000
1000
0000
0100
0000
0010
0001
,
0010
0001
0100
0010
,
0100
0000
0001
0000
0001
0000
1000
0010
,
1000
1010
0000
0010
,
0100
0101
0000
1010
,
0000
2002
0000
3003
,
0000
0001
1000
0001
,
0000
1000
0010
1000
,
0000
0001
0010
0100
,
1000
0001
0001
1001
,
0000
0100
0010
0100
,
0000
0001
0010
0001
,
0000
1000
0100
1000
,
1000
0001
0100
0220
,
0330
0010
0010
0100
,
0100
0000
0001
0000
0001
0000
1000
0100
,
1000
0100
1000
0000
1000
0000
0001
0000
,
0001
0000
0100
0000
0100
0000
0010
0100
,
0010
0100
0010
0000
0100
0000
0100
0000
,
0001
0000
0001
0000
1000
0000
0001
1000
,
0001
1000
0001
0000
1000
0000
1000
0000
,
0010
0010
1000
0001
,
0100
0000
0010
0100
0010
0000
1000
0100
,
1000
0000
0001
0010
0001
0000
2002
0000
,
3003
0000
0001
0000
0001
0000
0100
0001
,
0100
0000
0010
0000
0010
0000
1000
0100
,
1000
0001
0100
0010
,
0100
0001
0001
1000
,
1000
0000
0001
0000
1000
0000
0001
0100
,
0001
0000
1000
0000
0100
0000
1000
0100
,
1000
0010
1000
0001
,
0010
0000
0100
0000
1000
0000
0001
1000
,
0001
1000
0001
0000
0000
0000
0000
0000
;

//--------------- dance-single - Alex ----------------
#NOTES:
     dance-single:
     Alex:
     Hard:
     8:
     0,0,0,0,0:
0000
0000
0000
0000
,
0000
0000
1001
0000
0000
0000
0001
1000
,
0001
0000
0000
1001
0000
0000
0000
0000
0000
1000
0001
1000
,
0001
0000
1000
0010
1000
0000
0001
0010
,
0001
0000
1000
0100
0010
0001
0200
0000
,
0300
0000
0001
0100
0010
0000
0100
0001
,
1000
0100
0010
0000
0011
0000
0001
0000
,
1001
0000
0000
0000
0000
0000
1000
0000
0010
0000
1000
0000
0010
0000
0000
0000
0000
0000
1000
0000
0000
0010
0000
0000
,
1000
0000
0000
0001
0000
0000
2000
0000
0000
0000
0000
0000
3000
0000
0000
0000
0000
0000
0001
0000
0010
0000
0001
0000
,
0010
0000
0001
0100
0001
0000
0100
0010
,
0100
0000
0000
0001
0000
0000
0020
0000
0000
0000
0000
0000
0030
0000
0000
0000
0000
0000
0001
0000
1000
0000
0010
0000
,
0100
1001
0000
1001
,
0000
0000
0000
0000
0000
0000
0000
0000
0000
0000
0000
0000
0001
0000
0000
0000
0000
0000
0000
0000
0000
0001
0000
0000
0000
0000
0000
0000
0000
0000
1000
0000
0000
0000
0000
0000
0010
0000
0000
0000
1000
0000
0000
0000
0010
0000
0000
0000
,
1000
0000
0000
0000
0000
0000
0001
0000
0000
1000
0000
0000
0100
0000
0000
1000
0000
0000
0001
0000
0010
0000
0001
0000
,
0010
0000
0001
1000
0010
0100
0001
0000
,
1001
0000
1000
0100
0010
0001
1000
0000
,
1001
0000
0001
0010
0001
0000
1000
0010
,
1000
1010
0101
2002
,
3003
0000
1000
0100
0010
0001
0100
0000
,
0101
0000
0001
1000
0010
0100
0001
0000
,
1001
0000
1000
0100
1000
0000
0001
0100
,
0001
0000
0010
0001
1000
0010
0100
0001
,
1000
0100
1100
0000
0000
0000
1000
0010
,
1000
0001
1000
0000
0000
0000
0001
0000
,
0100
0010
0100
0001
,
0001
0000
1000
0100
0010
0001
2000
0000
,
3000
0000
0001
1000
0010
0100
0002
0000
,
0003
0000
0100
0100
0001
0000
1000
0010
,
1000
1010
0011
0202
,
0303
0000
0100
0010
0100
0001
0020
0000
,
0030
0000
0001
1000
0100
1000
0020
0000
,
0030
0000
1000
0001
0100
0000
0001
1000
,
0100
0000
0000
1100
0000
0000
1010
0000
0000
0001
1000
0001
,
1000
0000
0000
0000
0001
0000
0000
0001
0000
0000
0100
0000
0010
0000
0000
0010
,
0000
0000
0010
0000
0000
0000
0000
1000
0000
0001
1000
0000
0001
0000
0001
0000
,
1000
0000
1000
0000
0001
0000
0000
0100
0000
0000
0001
0000
1000
0000
0000
0010
,
0000
0000
0010
0000
0000
0000
0000
0000
1000
0001
0000
1000
0000
0001
0000
2000
,
0000
0000
3000
0000
0010
0000
0000
0010
0000
0000
0100
0000
0001
0000
0000
0001
,
0000
0000
1000
0000
0000
0000
0000
0001
0000
0000
0010
0001
0100
0000
0100
0000
,
0010
0000
0010
0000
1000
0000
0000
0001
0000
0000
1000
0000
0010
0000
0000
0010
,
0000
0000
1000
0000
0000
0000
0000
0000
0001
0100
0000
0001
0000
1000
0000
0020
,
0000
0030
1000
0100
0010
0001
0100
0010
,
0100
0000
0000
0001
0000
0000
0010
0000
0000
0100
0000
0000
1000
0000
0000
0001
0000
0000
0100
0000
0010
0000
0100
0000
,
0010
0000
1000
0001
0010
0100
1000
0000
,
1001
0000
0001
1000
0010
1000
0001
0000
,
0011
0000
0001
0100
0001
0000
0100
0010
,
0100
0101
1010
2200
,
3300
0000
1000
0001
0010
0001
2000
0000
,
3000
0000
0001
0100
0010
0100
0002
0000
,
0003
0000
1000
0010
0100
0000
0001
0010
,
0100
0000
0000
0000
0000
0000
1000
0000
0000
0001
0000
0000
0100
0000
0000
0001
0000
0000
1000
0000
0010
0000
1000
0000
,
0010
1001
0000
0000
;

//--------------- dance-single - Alex ----------------
#NOTES:
     dance-single:
     Alex:
     Challenge:
     9:
     0,0,0,0,0:
0000
0000
0000
0000
,
0000
0000
0000
0000
1001
0000
0001
0100
0000
0010
0000
0100
0110
0000
0110
0000
,
0110
0000
0000
0000
0000
0000
0000
0000
0000
0000
0000
0000
0011
0000
0000
0000
0000
0000
0001
0000
0000
0010
0000
0000
0000
0000
0000
0001
0000
0000
0000
0000
0000
0100
0000
0000
0010
0000
0000
0000
1000
0000
0000
0000
0010
0000
0000
0000
,
1000
0000
0000
0000
0001
0000
1000
0100
0000
1000
0000
0010
0000
0000
1000
0000
,
0001
0010
0001
0000
0100
0001
0101
0101
,
0001
0100
0001
0100
0001
1000
0001
1000
0001
0100
0000
0010
0000
0000
1000
0000
,
0010
0000
1000
0000
1001
0000
0000
0110
0000
0000
1000
0010
1000
0000
0001
0010
,
0001
0000
0000
0000
0000
0000
0100
0000
0000
0000
0000
0000
0010
0000
0000
0000
0100
0000
0000
0000
0001
0000
0000
0000
1000
0000
0000
0000
0000
0000
0000
0000
0000
0001
0000
0000
0100
0000
0000
0000
0000
0000
0001
0000
0000
0000
0000
0000
,
0010
0000
0000
0000
0000
0000
0001
0000
0000
0000
0000
0000
0101
0000
0000
0000
0000
0000
0000
0000
0000
0110
0000
0000
0000
0000
0000
0000
0000
0000
0101
0000
0000
0000
0000
0000
0001
0000
0000
0000
0010
0000
0000
0000
0100
0000
0000
0000
,
1000
0000
0001
1000
0010
0100
0001
0010
,
0100
0000
0000
1000
0000
0000
1010
0000
0000
0010
0000
0000
1000
0000
0000
0001
0000
0000
0100
0000
0001
0000
0100
0000
,
0001
0000
1000
0001
0010
0001
0100
0010
,
0100
0000
0000
0000
0000
0000
0001
0000
0000
0000
0000
0000
1001
0000
0000
0000
0000
0000
0000
0000
0000
0110
0000
0000
0000
0000
0000
0000
0000
0000
1001
0000
0000
0000
0000
0000
0001
0000
0000
0000
0100
0000
0000
0000
0010
0000
0000
0000
,
0100
0000
0000
0000
0000
0000
0000
0000
0000
0000
0000
0000
0001
0000
0000
0000
0000
0000
1000
0000
0000
0010
0000
0000
1000
0000
0000
0010
0000
0000
1000
0000
0000
0000
0000
0000
1000
0000
0000
0000
0001
0000
0000
0000
0100
0000
0000
0000
,
0220
0000
0000
0000
0000
0000
0000
0000
0330
0000
0000
0000
1001
0000
0000
0000
0000
0000
0001
0000
0000
0100
0000
0000
0000
0000
0000
1000
0000
0000
0000
0000
0000
0100
0000
0000
0001
0000
0000
0100
0000
0000
0001
0000
0000
0100
0000
0000
,
0001
0000
1000
0000
0010
0000
1000
0001
0000
0010
0000
0001
1000
0010
0100
0001
,
0000
0001
1000
0000
0100
0000
0001
0100
0000
0010
0000
0100
0000
0000
0001
0000
,
0010
0000
0100
0000
1000
0000
0001
0000
0100
0000
0010
1000
0100
0010
0000
0001
,
0100
0000
0100
0000
0110
0000
0010
0100
0000
0001
0000
1000
0100
1000
0010
0100
,
0001
0000
1000
0000
0001
0000
0100
0010
0000
0100
0000
0001
0000
0000
1001
0000
,
1001
0000
0000
0000
0001
0000
0010
0001
0000
0100
0000
1000
0000
0000
0100
0000
,
0001
0000
0010
0000
1000
0000
0010
0000
0001
0000
1000
0000
0010
1000
0000
0010
,
0000
0100
0001
0000
0101
0000
0000
0001
0100
0000
0010
0000
1000
0001
0000
0100
,
0000
0001
1000
0000
1001
0000
0000
0101
0000
0000
0110
0000
1010
0000
0000
1100
,
0000
0000
0110
0000
0011
0000
0000
0101
0000
0000
0110
0000
0101
0000
0000
1001
,
0000
0000
0001
1000
0010
0000
0100
0000
0001
0000
1000
0100
0000
0000
0010
0000
,
0011
0000
0001
0100
0010
0100
0001
1000
,
1100
0000
0000
0000
0100
0000
1000
0000
0010
0000
1000
0001
0000
0001
1000
0000
,
0001
0000
0100
0000
1000
0000
0000
1001
0000
0000
0001
0000
0100
0001
0100
0001
,
0100
0000
0001
1000
0001
0000
1000
0000
0001
0000
1000
0000
0010
0000
0000
0000
,
0110
0000
0000
0000
0010
0000
1000
0000
0001
0000
0100
0001
0000
0000
0100
0000
,
0101
0000
0000
1000
0001
0010
0000
0000
0001
0000
0100
0000
0001
0000
0000
0101
,
0000
0000
0000
0000
0000
0000
0010
0000
0000
0000
0000
0000
1000
0000
0000
0000
0000
0000
0000
0000
0000
0001
0000
0000
0000
0000
0000
0000
0000
0000
1000
0000
0000
0000
0000
0000
0100
0000
0000
0000
1000
0000
0000
0000
0100
0000
0000
0000
,
1000
0000
0000
0000
1001
0000
0000
0110
0000
0000
1001
0000
0011
0000
0000
0101
,
0000
0000
0110
0000
0000
0000
0000
0010
0000
1000
0010
0000
1000
0000
0001
0000
,
0010
0000
0001
0000
0101
0000
0000
0101
0000
0000
1010
0000
1100
0000
0000
0011
,
0000
0000
0101
0000
0000
0000
0000
0000
0001
1000
0000
0010
0000
1000
0000
0001
,
0000
0100
0010
0000
0110
0000
0000
0101
0000
0000
0011
0000
1001
0000
0000
1010
,
0000
0000
1001
0000
0000
0000
0000
0001
0000
1000
0100
0000
0010
0000
0001
0000
,
0100
0000
0010
0000
0110
0000
0000
0101
0000
0000
0011
0000
1001
0000
0000
1010
,
0000
0000
1001
0000
0000
0000
0000
0000
0001
1000
0000
0001
0000
0100
0000
0010
,
0000
1000
0100
0000
1000
0001
1000
0001
1000
0001
1000
0001
0100
0010
0100
0010
,
0100
0000
0000
0010
0000
0000
0100
0000
0000
0010
0000
0000
0100
0000
0000
0000
0000
0000
0100
0000
0000
0000
0000
0000
0010
0000
0000
0100
0000
0000
0000
0000
0000
0100
0000
0000
0010
0000
0000
0000
1000
0000
0000
0000
0001
0000
0000
0000
,
2002
0000
0000
0000
0000
0000
0000
0000
3003
0000
0000
0000
0001
0000
0000
0000
0000
0000
0100
0000
0000
0001
0000
0000
0000
0000
0000
0100
0000
0000
0000
0000
0000
0010
0000
0000
1000
0000
0000
0100
0000
0000
1000
0000
0000
0010
0000
0000
,
0100
0000
0001
0000
0010
0000
0001
0100
0000
0010
0000
0100
0001
1000
0001
0100
,
0000
0100
0001
0000
1000
0000
0010
1000
0000
0001
0000
0100
0000
0000
0100
0000
,
0001
0000
0010
0000
0100
0000
1000
0000
0010
0000
0100
0001
1000
0100
0000
0100
,
1000
0000
0000
0000
0000
0000
0010
0000
0000
0000
0000
0000
1010
0000
0000
0000
0000
0000
1000
0000
0000
0010
0000
0000
0000
0000
0000
1000
0000
0000
0000
0000
0000
0001
0000
0000
0100
0000
0000
0000
0001
0000
0000
0000
0100
0000
0000
0000
,
0001
0000
1000
0000
0001
0000
0010
0001
0000
0100
0000
0010
1000
0000
0001
0000
,
1001
0000
0000
0000
0001
0000
0100
0001
0000
0100
0000
1000
0000
0000
0100
0000
,
0001
0000
0010
0000
1000
0000
0010
0000
0001
0000
1000
0010
0100
0001
0000
0001
,
0100
0010
2002
0000
0000
3003
0000
0000
;
