#TITLE:Bad Apple!!;
#SUBTITLE:;
#ARTIST:Masayoshi Minoshima feat. Nomico;
#TITLETRANSLIT:;
#SUBTITLETRANSLIT:;
#ARTISTTRANSLIT:;
#GENRE:;
#CREDIT:;
#MUSIC:Bad Apple!!.ogg;
#BANNER:Bad Apple!!.png;
#BACKGROUND:Bad Apple!!-BG.png;
#CDTITLE:;
#SAMPLESTART:41.810;
#SAMPLELENGTH:13.234;
#SELECTABLE:YES;
#OFFSET:-0.125;
#BPMS:0.000=138.000;
#STOPS:;
#BGCHANGES:;
#FGCHANGES:;

//--------------- dance-single - Alex ----------------
#NOTES:
     dance-single:
     Alex:
     Beginner:
     1:
     0,0,0,0,0:
0000
0000
0000
0000
,
0000
0000
0000
0000
,
0000
0000
0000
0000
,
0000
0000
0000
0000
,
0100
0000
0000
0000
,
0010
0000
0000
0000
,
0010
0000
0000
0000
,
1000
0000
0000
0000
,
1001
0000
0000
0000
,
1000
0000
0000
0000
,
0001
0000
0000
0000
,
0001
0000
0000
0000
,
0100
0000
0000
0000
,
0001
0000
0000
0000
,
0001
0000
0000
0000
,
1000
0000
0000
0000
,
1001
0000
0000
0000
,
1000
0000
0000
0000
,
0010
0000
0000
0000
,
1000
0000
0000
0000
,
1000
0000
0000
0000
,
0001
0000
0000
0000
,
0001
0000
0000
0000
,
0100
0000
0100
0000
,
0110
0000
0000
0000
,
0010
0000
0000
0000
,
1000
0000
0000
0000
,
1000
0000
0000
0000
,
0001
0000
0000
0000
,
0100
0000
0000
0000
,
0001
0000
0000
0000
,
1000
0000
1000
0000
,
1001
0000
0000
0000
,
0001
0000
0000
0000
,
0001
0000
0000
0000
,
1000
0000
0000
0000
,
1001
0000
0000
0000
,
0010
0000
0000
0000
,
1000
0000
0000
0000
,
1000
0000
0000
0000
,
1001
0000
0000
0000
,
0001
0000
0000
0000
,
0001
0000
0000
0000
,
0100
0000
0000
0000
,
0110
0000
0000
0000
,
0010
0000
0000
0000
,
1000
0000
0000
0000
,
1000
0000
0000
0000
,
0002
0000
0000
0000
,
0003
0000
0000
0000
,
2000
0000
0000
0000
,
3000
0000
0000
0000
,
0002
0000
0000
0000
,
0003
0000
0000
0000
,
2000
0000
0000
0000
,
3000
0000
0000
0000
,
0020
0000
0000
0000
,
0030
0000
0000
0000
,
0200
0000
0000
0000
,
0300
0000
0000
0000
,
0020
0000
0000
0000
,
0030
0000
0000
0000
,
0200
0000
0000
0000
,
0300
0000
0000
0000
,
1001
0000
0000
0000
,
0001
0000
0000
0000
,
1000
0000
0000
0000
,
0010
0000
0000
0000
,
0110
0000
0000
0000
;

//--------------- dance-single - Alex ----------------
#NOTES:
     dance-single:
     Alex:
     Easy:
     3:
     0,0,0,0,0:
0000
0000
0000
0000
,
0000
0000
0000
0000
,
0000
0000
0000
0000
,
0000
0000
0000
0000
,
1000
0000
1000
0000
,
0010
0000
0010
0000
,
0100
0000
0100
0000
,
0001
0000
2002
3003
,
0001
0000
0001
0000
,
1000
0000
1000
0000
,
0010
0000
0010
0000
,
0100
0000
0100
0000
,
0001
0000
0100
0000
,
0010
0000
0100
0000
,
0001
0000
0001
0000
,
1000
0000
2002
3003
,
1000
1000
1000
0000
,
0010
0000
0100
0000
,
0001
0000
0001
0000
,
0100
0100
0100
0000
,
0001
0001
0001
0000
,
1000
0000
1000
0000
,
0010
0000
0010
0000
,
0100
0000
0220
0330
,
0010
0010
0010
0000
,
1000
0000
1000
0000
,
0001
0000
0100
0000
,
0001
0001
0001
0000
,
1000
1000
1000
0000
,
0001
0000
1000
0000
,
0010
0000
0100
0000
,
0110
0000
0110
0000
,
0010
0010
0010
0000
,
0100
0100
0100
0000
,
0001
0000
1000
0000
,
0001
0000
0010
0000
,
0001
0001
0001
0000
,
1000
1000
1000
0000
,
0100
0000
1000
0000
,
0010
0000
1001
0000
,
0010
0010
0010
0000
,
1000
1000
1000
0000
,
0001
0000
0100
0000
,
0110
0000
0110
0000
,
0010
0010
0010
0000
,
0100
0100
0100
0000
,
0001
0000
1000
0000
,
1001
0000
1001
0000
,
0002
0000
0003
0000
,
2000
0000
3000
0000
,
0020
0000
0030
0000
,
0200
0000
0300
0000
,
0002
0000
0003
0000
,
0020
0000
0030
0000
,
0002
0000
0003
0000
,
0002
0000
0003
0000
,
2002
0000
3003
0000
,
0220
0000
0330
0000
,
2200
0000
3300
0000
,
0022
0000
0033
0000
,
0202
0000
0303
0000
,
0220
0000
0330
0000
,
2002
0000
3003
0000
,
0110
0000
0110
0110
,
0010
0000
1000
0000
,
0001
0000
0100
0100
,
0100
0000
0001
0000
,
1000
0000
0001
0001
,
0002
0000
0000
0000
,
0003
0000
0000
0000
;

//--------------- dance-single - Alex ----------------
#NOTES:
     dance-single:
     Alex:
     Medium:
     5:
     0,0,0,0,0:
0000
0000
0000
0000
,
0000
0000
0000
0000
,
0000
0000
0000
0000
,
0000
0000
0000
0000
,
0001
0001
0001
0001
,
1000
1000
1000
1000
,
0010
0010
0010
0010
,
0100
0100
0100
1001
,
0001
0001
0100
0001
,
1000
1000
0001
0100
,
0010
0010
1000
0100
,
0010
0010
0001
1000
,
0001
0001
0100
0010
,
1000
1000
0100
1000
,
0010
0010
1000
0100
,
1000
1000
2002
3003
,
0001
0001
0100
0010
,
1000
0001
1000
1000
,
0001
0100
0001
0010
,
0100
1000
0020
0030
,
1000
0010
1000
0001
,
0100
0100
0001
0001
,
1000
0001
0010
0001
,
1000
0010
0110
0110
,
0010
0010
1000
1000
,
0001
0010
0001
1000
,
0010
1000
0001
0001
,
0100
0001
0020
0030
,
0001
1000
0010
1000
,
0001
0001
1000
1000
,
0100
1000
0010
0100
,
0101
0101
0110
0110
,
0020
1000
1000
1030
,
2000
0001
0001
3001
,
1000
0010
0100
0100
,
0001
0010
0001
0001
,
0200
0001
0001
0301
,
0002
1000
1000
1003
,
1000
0010
0100
0010
,
1000
0001
0022
0033
,
0001
0001
0101
0101
,
1000
1000
1100
1100
,
1000
1000
1010
1010
,
0010
0010
0110
0110
,
0100
0100
1001
1001
,
0001
0001
0101
0101
,
0100
0100
0110
0110
,
1000
1000
1001
1001
,
0220
0000
0330
0000
,
0022
0000
0033
0000
,
2200
0000
3300
0000
,
2020
0000
3030
0000
,
0202
0000
0303
0000
,
2002
0000
3003
0000
,
0220
0000
0330
0000
,
2002
0000
3003
0000
,
0001
1000
0010
0000
,
0100
0001
1000
0000
,
0001
0010
0001
0000
,
1000
0100
1000
0000
,
0010
1000
0010
0000
,
0100
0001
0100
0000
,
0001
0010
0100
0000
,
1000
0010
0110
0110
,
0100
0100
0001
0001
,
1000
1000
0001
0001
,
0010
0001
0100
0010
,
1000
0001
0001
0100
,
0220
0000
0000
0000
,
0330
0000
0000
0000
;

//--------------- dance-single - Alex ----------------
#NOTES:
     dance-single:
     Alex:
     Hard:
     8:
     0,0,0,0,0:
0000
0000
0000
0000
,
0000
0000
0000
0000
,
0000
0000
0000
0000
,
0000
0000
0000
0000
,
0001
0000
0001
0000
0001
0000
0100
0100
,
0100
0000
0100
0000
0100
0000
0010
0010
,
0010
0000
0010
0000
0010
0000
1000
1000
,
1000
0000
1000
0000
1000
0000
2002
3003
,
0002
0003
1000
0010
0200
0300
0001
1000
,
0200
0300
0010
0001
1000
0010
1000
0001
,
0020
0030
0001
1000
0200
0300
1000
0001
,
0200
0300
0001
0010
0100
0010
0001
0100
,
0020
0030
0100
0001
2000
3000
0001
0010
,
0002
0003
1000
0010
1000
0001
1000
0010
,
0200
0300
0001
1000
0200
0300
0010
0001
,
0200
0300
0010
1000
0001
1000
0001
1000
,
1001
0001
0100
0010
0100
0000
0001
1000
,
0200
0300
2000
3000
0001
0100
0010
0010
,
0100
0001
0010
0100
1000
0000
1000
0001
,
0100
0100
0010
0010
1000
0001
0010
0001
,
1000
1000
0001
0100
0001
0000
1000
0010
,
2000
3000
0002
0003
0010
0001
0100
0010
,
0100
0100
0001
0010
0100
0000
1000
0010
,
0110
0000
0000
1001
0000
0000
0001
1000
0001
1000
0001
1000
,
0001
1000
0010
0100
0001
0000
1000
0100
,
0020
0030
0002
0003
0100
0100
0010
1000
,
0001
0001
0010
0001
1000
0000
0010
1000
,
0001
0001
1000
1000
0001
0100
0001
1000
,
0100
1000
0010
1000
0001
0000
0001
0100
,
0020
0030
2000
3000
0001
0010
0100
0010
,
0001
0100
0010
0100
0001
0000
1000
0010
,
1010
0110
0101
0011
,
0001
1000
0010
0100
0002
0003
1000
1000
,
0001
0010
0001
1000
0020
0030
1000
0100
,
0010
0100
1000
0001
0200
0300
0001
0010
,
0001
0100
0010
0100
0002
0003
1000
1000
,
0001
0100
0001
1000
0020
0030
1000
0001
,
0010
0100
1000
0010
0200
0300
0001
0100
,
0010
0100
0001
0010
0002
0003
1000
0010
,
1000
0000
0000
0001
0000
0000
0100
0000
0000
0010
0000
0000
0100
0000
0010
0000
0100
0000
0010
0000
0100
0000
0010
0000
,
0100
0100
0010
0010
1000
1000
0001
0001
,
0010
0001
1000
0010
0100
0100
0001
0001
,
1000
0100
0010
0100
1000
0001
0100
0010
,
0100
0001
0010
0100
2000
0000
0010
3010
,
0100
0100
0001
0001
0010
0010
0001
0001
,
1000
1000
0010
0010
1000
1000
0001
0100
,
0010
0010
1000
1000
0001
0010
0001
1000
,
0010
0100
0001
1000
0200
0300
0020
0030
,
0002
0000
0103
0000
,
2000
0000
3010
0000
,
0020
0000
0130
0000
,
0200
0000
0301
0000
,
2000
0000
3001
0000
,
0002
0000
0013
0000
,
0200
0000
0301
0000
,
2000
0000
3010
0000
,
1000
0001
0010
0001
2000
0000
3000
0000
,
0001
0100
0010
1000
0200
0000
0300
0000
,
1000
0010
1000
0001
0020
0000
0030
0000
,
0001
0100
0001
1000
0020
0000
0030
0000
,
0100
0001
0010
0100
2000
0000
3000
0000
,
0001
1000
0010
1000
0002
0000
0003
0000
,
0100
0001
0010
0100
2000
0000
3000
0000
,
0001
0100
0010
0100
0110
0000
1001
0000
,
0001
0000
0100
0001
0000
0100
0001
0000
1000
0000
0010
1000
0000
0010
1000
0000
,
0001
0000
1000
0001
0000
1000
0001
0000
0100
0000
0001
0000
0010
0000
0100
0000
,
1000
0000
0001
0100
0000
0001
0100
0000
0010
0000
1000
0010
0000
1000
0010
0000
,
0100
0000
0001
1000
0000
0001
1000
0000
0001
0000
0100
0000
0010
0000
1000
0000
,
2002
0000
0000
0000
,
3003
0000
0000
0000
;

//--------------- dance-single - Alex ----------------
#NOTES:
     dance-single:
     Alex:
     Challenge:
     10:
     0,0,0,0,0:
0000
0000
0000
0000
,
0000
0000
0000
0000
,
0000
0000
0000
0000
,
0000
0000
0000
0000
0000
0000
0001
0100
,
0101
0000
0000
0000
0101
0000
0000
0000
0101
0000
0000
0000
0001
1000
0010
0100
,
0110
0000
0110
0000
0110
0000
0100
0001
,
1001
0000
0000
0000
1001
0000
0000
0000
1001
0000
0000
0000
1000
0010
0100
0001
,
0100
0010
1000
0100
0010
0001
0100
0010
0100
0001
0010
0100
1100
0000
MMMM
0000
,
0001
0000
0100
0001
0000
0100
0001
0100
0010
0000
0010
1000
0000
1000
0001
1000
,
0010
0000
0010
1000
0000
1000
0001
1000
0001
0000
0001
0100
0010
0000
0010
1000
,
0100
0000
0100
1000
0000
1000
0010
1000
0010
0000
0010
0100
0000
0100
0001
0010
,
0001
0000
0001
0100
0000
0100
0001
1000
0001
0000
1000
0001
1000
0000
0001
0010
,
0001
0000
0100
0001
0000
0001
0100
0010
0100
0000
0001
0010
0000
0010
0100
1000
,
0001
0000
0001
1000
0000
1000
0010
0100
0001
0000
0001
1000
0100
0000
1000
0001
,
0100
0000
0001
0100
0000
0100
0010
0100
0001
0000
0001
0010
0000
0010
0001
1000
,
0010
0000
0000
0000
0000
0000
0010
0000
0000
1000
0000
0000
0000
0000
0000
1000
0000
0000
0001
0000
0000
1000
0000
0000
0001
0000
0000
0000
1000
0000
0000
0000
0010
0000
0000
0000
0100
0000
0000
0000
0001
0000
0000
0000
1000
0000
0000
0000
,
0100
1000
0010
0100
0101
0000
0001
0010
,
0022
0033
0202
0303
0100
0010
0100
0001
,
0010
0100
1000
0001
1001
0000
0001
0100
,
0010
0010
1000
1000
0001
0001
0010
0010
,
0001
1000
0010
0100
0110
0000
0001
1000
,
2200
3300
0022
0033
0001
0100
0010
0100
,
0101
0001
0010
0001
1000
0000
0001
0100
,
0101
0000
0000
1010
0000
0000
0010
1000
0100
0010
0001
1000
,
1010
0010
0100
0001
1001
0000
0001
0010
,
0022
0033
2002
3003
0001
1000
0010
0100
,
0001
1000
0100
1000
2200
3300
1000
0010
,
1010
0010
0100
1000
0100
0001
0010
1000
,
0010
0001
0100
0010
1010
0000
0010
0100
,
0202
0303
0022
0033
0001
0001
0100
0001
,
0011
0001
0100
0010
0110
0000
0010
1000
,
1100
MM00
0011
00MM
0110
0MM0
1001
M00M
,
0002
2003
3020
0230
0302
0000
0010
0013
,
0200
2300
3002
0023
0032
0000
1000
1003
,
2000
3020
0230
2300
3200
0000
0010
0310
,
0002
0203
0320
0032
0203
0000
0010
0310
,
2000
3002
0023
0032
0203
0000
0001
0301
,
0002
0023
0230
2300
3020
0000
1000
1030
,
2000
3002
0203
0302
2003
0000
0010
3010
,
0020
0000
0000
0230
0000
0000
0302
0000
0000
2003
0000
0000
3001
0000
0100
0000
0010
0000
0100
0000
0001
0000
1000
0000
,
0010
1000
0020
0030
0100
0001
0200
0300
0001
0010
0002
0003
1000
0001
2000
3000
,
0001
0100
0002
0003
1000
0010
0200
0300
0001
0010
0002
0003
1000
0100
2000
3000
,
0001
0100
0020
0030
0100
0001
0020
0030
0001
1000
0002
0003
0100
0010
2000
3000
,
0001
0010
0002
0003
0100
0001
0200
0300
0010
1000
0020
0030
1000
0100
0020
0030
,
0001
1000
0020
0030
0100
0001
0020
0030
0001
1000
0020
0030
1000
0001
0200
0300
,
0001
0010
0002
0003
0100
0001
0200
0300
0010
1000
0020
0030
1000
0100
2000
3000
,
0001
0010
0002
0003
0100
0001
0200
0300
0010
1000
0020
0030
0100
0010
0200
0300
,
0001
0000
0000
0010
0000
0000
0002
0000
0000
0003
0000
0000
1000
0000
0000
0010
0000
0000
2000
0000
0000
3000
0000
0000
0001
0000
0000
0000
0010
0000
0000
0000
0100
0000
0000
0000
0010
0000
0000
0000
0001
0000
0000
0000
0100
0000
0000
0000
,
0100
0001
0010
0001
2000
3000
0001
1000
,
0010
0100
0001
1000
0200
0300
0100
0100
,
1000
0010
0100
0001
0020
0030
0001
0001
,
0100
0001
1000
0010
2000
3000
0001
1000
,
0010
1000
0001
0010
0002
0003
0100
0100
,
0001
0010
0100
0010
0002
0003
0100
0010
,
0100
0001
1000
0010
0200
0300
0001
1000
,
1001
0001
0100
0010
0220
0330
0010
1000
,
1100
1000
0010
0100
0202
0303
0001
0010
,
1001
1000
0010
1000
2020
3030
0010
1000
,
1001
0001
0100
0001
0022
0033
0101
0100
,
0010
1000
0001
1000
2002
3003
0001
1000
,
1100
1000
0010
0100
0220
0330
0010
1000
,
1001
0010
1000
0001
0202
0303
0001
1000
,
1100
0100
0010
0001
2002
3003
0001
1000
,
0110
0100
0001
1000
2002
3003
0220
0330
,
1001
0000
0001
0100
0000
0100
0001
0100
0010
0000
0010
1000
0000
1000
0001
1000
,
0010
0000
0010
0100
0000
0100
0001
0010
0100
0000
0100
1000
0010
0000
0100
0001
,
0101
0000
0001
0100
0000
0100
0010
0100
0001
0000
1000
0001
0000
0001
1000
0010
,
0100
0000
0100
0001
0000
0001
0010
0001
0100
0010
0100
0001
0010
0100
1000
0001
,
2002
0000
0000
0000
,
3003
0000
0000
0000
;
