#TITLE:Ba Be Loo Be Ra;
#SUBTITLE:;
#ARTIST:Kristeen;
#TITLETRANSLIT:;
#SUBTITLETRANSLIT:;
#ARTISTTRANSLIT:;
#GENRE:;
#CREDIT:;
#MUSIC:Ba Be Loo Be Ra.ogg;
#BANNER:Ba Be Loo Be Ra.png;
#BACKGROUND:Ba Be Loo Be Ra-BG.png;
#CDTITLE:;
#SAMPLESTART:38.093;
#SAMPLELENGTH:14.484;
#SELECTABLE:YES;
#OFFSET:-0.057;
#BPMS:0.000=126.000;
#STOPS:;
#BGCHANGES:;
#FGCHANGES:;

//--------------- dance-single - Alex ----------------
#NOTES:
     dance-single:
     Alex:
     Beginner:
     1:
     0,0,0,0,0:
0000
0000
0000
0000
,
0000
0000
0000
0000
,
1000
0000
0000
0000
,
0001
0000
0000
0000
,
0100
0000
0000
0000
,
0100
0000
0000
0000
,
0001
0000
0000
0000
,
0010
0000
0000
0000
,
1000
0000
0000
0000
,
0100
0000
0000
0000
,
1000
0000
0000
0000
,
0001
0000
0000
0000
,
1001
0000
0000
0000
,
0010
0000
0000
0000
,
1000
0000
0000
0000
,
1000
0000
0000
0000
,
0001
0000
0000
0000
,
0100
0000
0000
0000
,
0010
0000
0000
0000
,
1000
0000
1000
0000
,
1001
0000
0000
0000
,
0001
0000
0000
0000
,
1000
0000
0000
0000
,
0010
0000
0000
0000
,
0001
0000
0000
0000
,
1000
0000
0000
0000
,
0100
0000
0000
0000
,
0100
0000
0000
0000
,
1001
0000
0000
0000
,
0010
0000
0000
0000
,
1000
0000
0000
0000
,
0010
0000
0000
0000
,
0001
0000
0000
0000
,
0100
0000
0000
0000
,
1000
0000
0000
0000
,
0010
0000
0010
0000
,
0110
0000
0000
0000
,
0000
0000
0000
0000
,
1001
0000
0000
0000
,
0000
0000
0000
0000
,
0001
0000
0000
0000
,
1000
0000
0000
0000
,
0010
0000
0000
0000
,
1000
0000
0000
0000
,
0100
0000
0000
0000
,
1000
0000
0000
0000
,
0001
0000
0000
0000
,
0001
0000
0001
0000
,
1001
0000
0000
0000
,
1000
0000
0000
0000
,
0010
0000
0000
0000
,
0100
0000
0000
0000
,
0001
0000
0000
0000
,
0001
0000
0000
0000
,
1000
0000
0000
0000
,
0100
0000
0100
0000
,
0110
0000
0000
0000
;

//--------------- dance-single - Alex ----------------
#NOTES:
     dance-single:
     Alex:
     Easy:
     3:
     0,0,0,0,0:
0000
0000
0000
0000
,
0000
0000
0000
0000
,
0010
0000
0010
0000
,
0020
0000
0030
0000
,
1000
0000
1000
0000
,
0001
0000
0001
0000
,
0100
0000
0100
0000
,
0010
0010
0010
0000
,
0001
0000
0001
0000
,
1000
0000
1000
0000
,
0001
0000
0100
0000
,
0200
0000
0300
0000
,
0001
0001
0001
0000
,
1000
1000
1000
0000
,
0001
0000
1000
0000
,
0020
0000
0030
0000
,
1000
1000
1000
0000
,
0001
0001
0001
0000
,
0100
0000
0010
0000
,
2002
0000
3003
0000
,
0001
1000
0001
1000
,
0002
0000
0003
0000
,
1000
0100
1000
0100
,
2000
0000
3000
0000
,
0010
0000
0010
0000
,
1000
0000
1000
0000
,
0001
0000
1000
0000
,
2002
0000
3003
0000
,
0001
0100
0001
0100
,
0002
0000
0003
0000
,
1000
0100
1000
0100
,
2000
0000
3000
0000
,
0010
0000
1000
0000
,
0001
0000
0001
0000
,
1000
0000
0100
0000
,
1000
1000
0001
0001
,
2002
0000
0000
0000
,
3003
0000
0000
0000
,
0220
0000
0000
0000
,
0330
0000
0000
0000
,
0001
0001
0001
0000
,
1000
1000
1000
0000
,
0001
0000
0100
0000
,
0020
0000
0030
0000
,
1000
1000
1000
0000
,
0100
0100
0100
0000
,
1000
0000
0001
0000
,
0020
0000
0030
0000
,
0001
1000
0001
1000
,
0002
0000
0003
0000
,
1000
0100
1000
0100
,
2000
0000
3000
0000
,
0010
0000
0010
0000
,
1000
0000
1000
0000
,
0001
0000
1000
0000
,
0010
0010
0010
0000
,
0110
0000
0000
0000
;

//--------------- dance-single - Alex ----------------
#NOTES:
     dance-single:
     Alex:
     Medium:
     5:
     0,0,0,0,0:
0000
0000
0000
0000
,
0000
0000
0000
0000
,
0001
0001
1000
1000
,
0001
1000
1001
0000
,
0001
0100
0010
0000
,
1000
0100
0010
0000
,
0001
1000
0100
1000
,
0001
0100
0100
0000
,
0001
0010
0001
0000
,
1000
0010
1000
0000
,
0001
0100
0010
0100
,
0001
0001
1001
0000
,
1000
0010
1000
0000
,
0001
0010
0001
0000
,
0100
0010
0100
0000
,
0001
1000
1001
0000
,
1000
1000
0010
0000
,
0100
0001
0001
0000
,
1000
0100
1000
0001
,
0100
0010
0220
0330
,
0010
1000
0001
0010
,
0002
0003
1001
0000
,
1000
0001
1000
0100
,
2000
3000
1010
0000
,
0010
1000
0010
1000
0010
0000
0000
0000
,
1000
0100
1000
0100
1000
0000
0000
0000
,
0001
0100
0010
0000
,
1001
0000
1001
0000
,
0001
1000
0001
1000
,
0020
0030
0110
0000
,
0100
0001
0100
0001
,
0200
0300
0110
0000
,
0010
1000
0010
1000
0010
0000
0000
0000
,
1000
0100
1000
0100
1000
0000
0000
0000
,
0001
0100
0001
0000
,
1000
0010
1000
0001
,
0012
0000
0010
0000
,
0100
0000
0103
0100
,
0020
0000
1000
0000
,
1000
0000
0130
0100
,
0001
1000
0001
0001
,
1000
0010
1000
0000
,
0001
0010
0100
1000
,
0001
0100
0010
0000
,
0100
0001
0010
0001
,
1000
0010
1000
0000
,
0001
1000
0100
0010
,
0001
1000
2002
3003
,
0001
1000
0010
0100
,
0002
0003
1001
0000
,
1000
0100
1000
0100
,
2000
3000
1010
0000
,
0010
1000
0010
1000
0010
0000
0000
0000
,
1000
0100
1000
0100
1000
0000
0000
0000
,
0001
0100
0010
0000
,
0100
0001
0010
0100
,
1001
0000
0000
0000
;

//--------------- dance-single - Alex ----------------
#NOTES:
     dance-single:
     Alex:
     Hard:
     7:
     0,0,0,0,0:
0000
0000
0000
0000
,
0000
0000
0000
0000
,
1000
1000
0001
0001
,
1000
0001
1001
0000
,
0001
0100
0010
0100
0002
0000
0003
0000
,
1000
0100
0010
0001
2000
0000
3000
0000
,
0001
0100
0010
0100
,
0001
0010
0100
1000
0020
0000
0030
0000
,
1000
0010
1000
0010
2000
0000
3000
0000
,
0001
0100
0001
0100
0002
0000
0003
0000
,
1000
0100
0010
0100
,
1000
0100
1000
0000
0001
0100
0001
0000
,
1000
0010
1000
0001
0020
0000
0030
0000
,
0001
0100
0010
0100
0002
0000
0003
0000
,
1000
0100
0010
0001
2000
0000
3000
0001
,
1000
0010
0100
0001
0020
0000
0030
0000
,
0001
1000
0100
1000
0002
0000
0003
1000
,
0010
1000
0001
1000
0200
0000
0300
0000
,
1000
1000
0001
0001
0100
0000
0010
0000
,
0100
0001
0010
0100
2000
0000
3000
0000
,
1010
1001
0011
1001
,
0110
0000
0000
0000
0010
0100
0001
1000
,
1100
0110
0011
0101
,
0110
0000
1001
0000
,
0001
1000
0010
0100
0002
0000
0003
0000
,
1000
0100
0010
0001
2000
0000
3000
0000
,
0001
1000
0010
0100
,
0001
0010
0001
0000
1000
0100
1000
0000
,
0011
0101
0110
1010
,
1100
0000
0000
0100
1000
0100
0010
0001
,
1000
1001
0101
0110
,
0101
0000
0000
0000
1001
0000
0000
0001
,
1000
0100
1000
0001
0200
0000
0300
0000
,
0001
0010
0100
1000
0020
0000
0030
0000
,
1000
0010
1000
0001
,
0010
0001
0100
0000
0010
1000
0100
0000
,
1100
0000
0000
0100
1000
0000
0000
0010
,
0100
0000
0000
0001
0000
0000
1000
0000
0000
0000
0001
0000
0010
0000
0001
0000
,
1000
0000
0000
0010
0100
0000
0000
0001
,
1000
0000
0000
0100
0000
0000
0010
0000
0000
0000
0001
0000
0100
0000
0010
0000
,
0100
0001
0010
0100
1000
0000
0001
0000
,
1000
0010
1000
0001
0020
0000
0030
0000
,
0001
0100
0010
0100
0001
0000
1000
0000
,
0100
0010
0001
0100
0020
0000
0030
0000
,
1000
0010
1000
0010
1000
0000
0001
0000
,
0010
0001
0100
0001
0200
0000
0300
0000
,
0010
1000
0100
0010
0100
0000
1000
0000
,
0001
1000
0010
0100
0002
0000
0003
0000
,
1001
0011
1001
1010
,
1100
0000
0000
0000
0100
1000
0010
0100
,
0101
0101
1010
1010
,
1100
0000
0000
0000
0011
0000
0000
0001
,
0100
0010
0100
0001
2000
0000
3000
0000
,
0001
1000
0010
1000
0002
0000
0003
0000
,
0100
0010
1000
0100
,
0010
0001
0100
0000
0010
1000
0001
1000
,
0002
0000
0000
0003
0000
0000
0000
0000
;

//--------------- dance-single - Alex ----------------
#NOTES:
     dance-single:
     Alex:
     Challenge:
     9:
     0,0,0,0,0:
0000
0000
0000
0000
,
0000
0000
0000
0000
,
0001
0000
1000
0010
1000
0000
0001
0000
0100
0000
0001
0100
0001
0000
0100
0000
,
0010
0100
0010
0000
1000
0100
1000
0000
0001
0010
0001
0000
1001
0000
0000
0000
,
0001
0000
0100
0010
0000
0100
0000
0001
0000
0000
1000
0000
0010
0000
1000
0000
,
0001
0000
0010
0001
0000
0100
0000
0010
0000
0000
1000
0000
1100
0000
0000
0000
,
0010
0000
0001
0100
0000
0010
0000
0100
0000
0000
0001
0000
0010
0000
0100
0000
,
1000
0000
0001
1000
0000
0010
0000
0200
0000
0000
0001
0000
0301
0000
1000
0000
,
0010
0000
1000
0010
0000
1000
0000
0001
0000
0000
0010
0000
0001
0000
0100
0000
,
0010
0000
0100
0001
0000
1000
0000
0100
0000
0000
1000
0000
1010
0000
0000
0000
,
0010
1000
0010
0000
1000
0000
0001
1000
0001
0000
1000
0000
0100
1000
0100
0000
,
1000
0010
1000
0000
0001
0100
0001
0000
0010
0100
1000
0001
0100
0010
0100
0000
,
0001
0000
1000
0001
0000
1000
0000
0010
0000
0000
0100
0000
1000
0000
0100
0000
,
0001
0000
0010
0001
0000
0100
0000
0010
0000
0000
0110
0000
0110
0000
0000
0000
,
0010
1000
0000
0010
0000
1000
0000
0010
0000
0000
0100
0000
0001
0000
0100
0000
,
0010
0000
0100
0001
0000
0010
0000
0100
0000
0000
1100
0000
1100
0000
0000
0000
,
1000
0000
0010
1000
0000
0001
0000
0100
0000
0000
1000
0000
0100
0000
0001
0000
,
0100
0000
1000
0000
0001
0100
0000
0010
0000
0000
0110
0000
0110
0000
0000
0000
,
0010
0100
0000
0001
0000
1000
0000
0000
0100
0000
1000
0010
0000
0010
1000
0000
,
0001
0000
0100
0000
0001
0000
0100
0000
0010
1000
0010
1000
0100
1000
0100
0000
,
1000
0010
0100
0001
0010
0100
1000
0001
,
0100
0000
0010
0000
0100
0000
0001
0000
1000
0000
0100
0000
0010
0001
0000
1001
,
0000
0001
1000
0010
1000
0001
0010
0001
,
0100
0000
0010
0000
0100
0000
0001
1000
0200
0000
0000
0000
2300
0000
0010
0000
,
3010
0100
0000
0001
0000
1000
0100
0000
1000
0000
0010
0000
1010
0000
0000
0000
,
0010
1000
0001
0010
0001
0100
0010
0100
,
0102
2003
3020
0230
,
0301
0010
0001
0000
1000
0100
1000
0000
0010
0100
0010
0100
0010
0100
0010
0000
,
1000
0100
0001
0100
1000
0001
0010
0001
,
1000
0000
0010
0000
1000
0000
0001
0100
0010
0100
0000
0001
0000
1000
0000
1010
,
0000
0010
1000
0001
0010
0100
1000
0001
,
0100
0000
0010
0000
1000
0000
0001
0100
0020
0000
0000
0000
0230
0000
0010
0000
,
0310
0000
1000
0000
0001
0100
0001
0100
0000
0000
0010
0000
1010
0000
0000
0000
,
0010
1000
0001
0010
0001
0100
0010
0100
,
0002
0023
0230
2300
,
3001
1000
0001
0000
1000
0010
1000
0000
0001
0010
0001
0010
0001
0010
0001
0000
,
0100
0000
0010
1000
1100
0000
0010
0001
,
0101
0000
0000
0100
0010
0000
0100
0000
0001
0000
0010
0000
0100
0000
1000
0000
,
1001
0000
0001
0100
0101
0000
0010
1000
,
1010
0000
0000
0010
1000
0000
0001
0000
0100
0001
0100
0001
0100
0001
0100
0000
,
0001
0010
0000
0100
0000
1000
0000
0001
0000
0100
0000
0010
0000
0100
0001
0100
,
0001
0000
1000
0010
0000
0010
0000
1000
0000
0000
1001
0000
1001
0000
0000
0000
,
0001
0100
0000
0001
0000
0100
0000
1000
0000
0100
0000
0001
0000
0000
0010
0000
,
0100
0000
1000
0001
0000
1000
0000
0010
0000
0000
1010
0000
1010
0000
0000
0000
,
0010
1000
0000
0001
0000
0010
0000
0001
0000
0100
0000
0010
0000
0000
0100
0000
,
0100
0000
0001
1000
0000
0010
0000
1000
0000
0000
1001
0000
1001
0000
0000
0000
,
0001
0100
0000
0010
0000
0100
0000
0001
0000
0010
0000
0100
0000
0000
1000
0000
,
0010
0000
1000
0000
0001
0000
0100
0000
0001
1000
0001
1000
0001
1000
0001
0000
,
1000
0010
1000
0001
0010
0100
1000
0001
,
0100
0000
0010
0000
0100
0000
0001
0000
1000
0000
0100
0000
0010
0001
0000
0101
,
0000
0001
0100
0010
0100
0001
0001
1000
,
0100
0000
0010
0000
0001
0000
1000
0010
0200
0000
0000
0000
0302
0000
1000
0000
,
1003
0010
0000
1000
0000
0001
0100
0000
0000
0000
0101
0000
0101
0000
0000
0000
,
0001
0010
0100
1000
0001
1000
0010
1000
,
0002
2003
3020
0230
,
0301
0000
1000
0000
0100
0000
0010
0000
0001
1000
0010
0100
0001
1000
0010
0200
,
0002
0000
0000
0303
0000
0000
0000
0000
;
