#TITLE:Arch of Darkness;
#SUBTITLE:;
#ARTIST:Yahpp;
#TITLETRANSLIT:;
#SUBTITLETRANSLIT:;
#ARTISTTRANSLIT:;
#GENRE:;
#CREDIT:;
#MUSIC:Arch of Darkness.ogg;
#BANNER:Arch of Darkness.png;
#BACKGROUND:Arch of Darkness-BG.png;
#CDTITLE:;
#SAMPLESTART:36.589;
#SAMPLELENGTH:12.141;
#SELECTABLE:YES;
#OFFSET:0.000;
#BPMS:0.000=135.900
,41.000=271.800
,61.000=135.900
,121.000=67.950
,138.000=271.800
,158.000=135.900
;
#STOPS:;
#BGCHANGES:;
#FGCHANGES:;

//--------------- dance-single - Alex ----------------
#NOTES:
     dance-single:
     Alex:
     Beginner:
     1:
     0,0,0,0,0:
0000
0000
0000
0000
,
0000
0000
0000
0000
,
0000
0000
0000
0000
,
0000
0001
0000
0000
,
0000
1000
0000
0000
,
0000
0001
0000
0000
,
0000
1000
0000
0000
,
0000
0010
0000
0000
,
0000
1000
0000
0000
,
0000
0001
0000
0000
,
0000
1001
0000
0000
,
0000
0000
0000
0000
,
0000
0000
0000
0000
,
0000
0000
0000
0000
,
0000
0000
0000
0000
,
0000
0001
0000
0000
,
0000
1000
0000
0000
,
0000
0001
0000
0000
,
0000
0100
0000
0000
,
0000
0001
0000
0000
,
0000
0010
0000
0000
,
0000
0001
0000
0000
,
0000
1001
0000
0000
,
0000
0010
0000
0000
,
0000
1000
0000
0000
,
0000
0001
0000
0000
,
0000
1000
0000
0000
,
0000
0010
0000
0000
,
0000
1000
0000
0000
,
0000
0100
0000
0100
,
0000
0100
0000
0000
,
1001
0000
0000
0000
,
0110
0000
0000
0000
,
1001
0000
0000
0000
,
0110
0000
0000
0000
,
0000
0000
0000
0000
,
0000
0000
0000
0000
,
0000
0000
0000
0000
,
0000
0000
0000
0000
,
0000
0000
0001
0000
,
0000
0000
0001
0000
,
0000
0000
1000
0000
,
0000
0000
0010
0000
,
0000
0000
1000
0000
,
0000
0000
1000
0000
,
0000
0000
0100
0000
,
0000
0000
1001
0000
,
0000
0000
1000
0000
,
0000
0000
0010
0000
,
0000
0000
1000
0000
,
0000
0000
0001
0000
,
0000
0000
1000
0000
,
0000
0000
0100
0000
,
0000
0000
1000
0000
,
1000
0000
1000
0000
;

//--------------- dance-single - Alex ----------------
#NOTES:
     dance-single:
     Alex:
     Easy:
     2:
     0,0,0,0,0:
0000
0000
0000
0000
,
0000
0000
0000
0000
,
0000
0000
0000
0000
,
0000
0020
0000
0030
,
0000
2000
0000
3000
,
0000
0001
0000
0001
,
0000
2000
0000
3000
,
0000
0010
0000
0010
,
0000
0200
0000
0300
,
0000
0001
0000
0010
,
0000
1001
0000
0000
,
0000
0000
0000
0000
,
0000
0000
0000
0000
,
0000
0000
0000
0000
,
0000
0000
0000
0000
,
0000
1000
0000
0001
,
0000
1000
0000
0010
,
0000
0100
0000
0100
,
0000
0001
0000
1000
,
0000
0001
0000
0010
,
0000
0001
0000
1000
,
0000
0010
0000
1000
,
0000
2002
0000
3003
,
0000
0001
0001
0001
,
0000
1000
0000
0010
,
0000
1000
1000
1000
,
0000
0001
0000
1000
,
0000
0100
0100
0100
,
0000
1000
0000
0001
,
0000
0010
0000
0010
,
0000
2002
3003
0000
,
1001
0000
0010
0000
,
0100
0000
0001
0001
,
1000
0000
0010
0000
,
1000
0000
1001
0000
,
0000
0000
0000
0000
,
0000
0000
0000
0000
,
0000
0000
0000
0000
,
0000
0000
0000
0000
,
0000
0000
1000
0000
,
0010
0000
1000
0000
,
1000
0000
0001
0000
,
1000
0000
0010
0000
,
0100
0000
0001
0000
,
0001
0000
1000
0000
,
0100
0000
1000
0000
,
0010
0000
2020
0000
,
3030
0000
1000
1000
,
1000
0000
0001
0000
,
1000
0000
0001
0001
,
0001
0000
0100
0000
,
0010
0000
0100
0100
,
0100
0000
0010
0000
,
0010
0000
1000
0000
,
0001
0000
1001
0000
;

//--------------- dance-single - Alex ----------------
#NOTES:
     dance-single:
     Alex:
     Medium:
     5:
     0,0,0,0,0:
0000
0000
0000
0000
,
0000
0000
0000
0000
,
0000
0000
0000
0000
,
0000
0001
1000
0010
,
0000
0100
0001
0010
,
0000
0001
1000
0010
,
0000
1000
0001
1000
,
0000
0001
0100
0001
,
0000
1000
0100
1000
,
0000
0010
0010
0100
,
0000
0020
0000
0000
,
0000
0000
0000
0000
,
0000
0000
0000
0000
,
0000
0000
0000
0000
,
0000
0000
0000
0030
,
0000
1000
1000
0001
,
0001
0100
0100
0010
,
0010
1000
0001
0010
,
0001
0001
0100
0010
,
1000
0001
1000
1000
,
0100
1000
0010
0010
,
1000
0001
1000
1000
,
0001
2002
0000
0000
,
3003
0001
0100
0010
,
0100
0001
0100
0000
0001
0000
1000
0000
,
0100
1000
0100
0000
1000
0000
0001
0000
,
0100
0010
0100
0000
0001
0000
1000
0000
,
0010
1000
0010
0000
1000
0000
1000
0000
,
0001
0010
0001
0000
0100
0000
0100
0000
,
0001
1000
0001
0000
0100
0000
0010
0000
,
1000
0020
0000
0030
,
1000
0010
1000
0000
0001
0100
0001
0000
,
1000
0001
1000
0000
0001
0010
0001
0000
,
0100
0001
0100
0000
0010
1000
0001
0000
,
0100
0010
0100
0000
0020
0000
0000
0000
,
0000
0000
0000
0000
,
0000
0000
0000
0000
,
0000
0000
0000
0000
,
0000
0000
0000
0000
,
0030
0000
0001
0001
,
1000
1000
0010
0010
,
0100
0100
0001
0010
,
0001
0001
1000
1000
,
0010
1000
0001
0100
,
0010
1000
1000
0001
,
0100
0100
0010
0010
,
1000
0001
0022
0000
,
0000
0033
0001
0100
,
0010
0000
1000
0001
1000
0000
0001
0000
,
1000
0000
0010
1000
0010
0000
1000
0000
,
1000
0000
0001
0100
0001
0000
0100
0000
,
0100
0000
0010
0100
0010
0000
1000
0000
,
0001
0000
0001
0010
0001
0000
1000
0000
,
0100
0000
1000
0100
1000
0000
1000
0000
,
0001
0001
2002
0000
,
3003
0000
0000
0000
;

//--------------- dance-single - Alex ----------------
#NOTES:
     dance-single:
     Alex:
     Hard:
     8:
     0,0,0,0,0:
0000
0000
0000
0000
,
0000
0000
0000
0000
,
0000
0000
0000
0000
,
0000
0000
1000
0000
0010
0100
0000
2002
,
3003
0000
0001
0000
0010
0001
0000
0202
,
0303
0000
0100
0010
1000
0010
0000
2020
,
3030
0000
1000
0001
0100
0010
0000
2002
,
3003
0000
0001
1000
0100
1000
0000
2200
,
3300
0000
1000
0010
1000
0001
0000
0022
,
0033
0000
0001
0100
0010
0100
0000
0001
,
1000
0010
0200
0000
0000
0000
0000
0000
,
0000
0000
0000
0000
,
0000
0000
0000
0000
,
0000
0000
0000
0000
,
0000
0000
0000
0000
0000
0000
0000
0300
,
0000
0000
0000
0000
0100
0000
0000
0001
0000
1000
0000
0010
0000
0000
0100
0000
,
0001
0000
1000
0000
0100
0000
0000
1000
0000
0001
0000
0100
0000
0000
0001
0000
,
1000
0000
0010
0000
0100
0000
0000
0001
0000
0010
0000
0001
0000
0000
1000
0000
,
0010
0000
1000
0000
0001
0000
0000
1000
0000
0100
0000
1000
0000
0000
0001
0000
,
0100
0000
0010
0000
0110
0000
0000
0100
0000
0001
0000
0100
0000
0000
0001
0000
,
1000
0000
0010
0000
1000
0000
0000
0001
0000
0010
0000
0001
0000
0000
0100
0000
,
0001
0000
1000
0000
0010
0000
0000
0100
0000
0001
0000
1000
0000
0000
0001
0000
,
0100
0010
2000
0000
0000
0000
0000
0000
,
3000
0000
0001
1000
0010
0100
0002
0000
,
0103
0000
0010
1000
0100
0010
0200
0000
,
1300
0000
0001
1000
0010
1000
0002
0000
,
0103
0000
0010
1000
0001
0010
0002
0000
,
0103
0000
1000
0001
1000
0100
2000
0000
,
3001
0000
0100
0010
1000
0001
0020
0000
,
0031
0000
0001
0100
0010
1000
0100
0010
,
0001
0100
0220
0000
0000
0000
0000
0330
,
0010
0000
1000
0010
0100
0002
0000
0000
0103
0000
0010
1000
0001
2000
0000
0000
,
3001
0000
1000
0001
0100
0002
0000
0000
0103
0000
0010
1000
0100
2000
0000
0000
,
3010
0000
1000
0001
0100
0020
0000
0000
0130
0000
0001
0100
0001
2000
0000
0000
,
3001
0000
0001
1000
0010
0200
0000
0300
0020
0000
0000
0000
0000
0000
0000
0000
,
0000
0000
0000
0000
,
0000
0000
0000
0000
,
0000
0000
0000
0000
,
0000
0000
0000
0000
,
0000
0000
0000
0000
0030
0000
0000
0000
0010
0000
0000
0001
0000
1000
0000
0010
,
0000
0000
0100
0000
0001
0000
1000
0000
0100
0000
0000
1000
0000
0001
0000
1000
,
0000
0000
0001
0000
0100
0000
0010
0000
0100
0000
0000
0001
0000
0100
0000
0010
,
0000
0000
1000
0000
0001
0000
0100
0000
0010
0000
0000
1000
0000
0010
0000
1000
,
0000
0000
0001
0000
0100
0000
0001
0000
1000
0000
0000
0001
0000
0010
0000
0001
,
0000
0000
0100
0000
0010
0000
0100
0000
0001
0000
0000
1000
0000
0100
0000
1000
,
0000
0000
0001
0000
1000
0000
0010
0000
1000
0000
0000
0001
0000
0100
0000
0001
,
0000
1000
0010
0100
2002
0000
0000
0000
,
0000
0000
3003
0000
0001
1000
0100
1000
,
0002
0000
0103
0000
0001
0010
0100
1000
,
0020
0000
1030
0000
1000
0010
1000
0001
,
2000
0000
3001
0000
0001
0100
0010
1000
,
0002
0000
0013
0000
0001
1000
0100
1000
,
0002
0000
0103
0000
0010
1000
0100
1000
,
0002
0000
0103
0000
0010
1000
0001
0010
,
0100
1000
0001
1000
2002
0000
0000
0000
,
3003
0000
0000
0000
;

//--------------- dance-single - Alex ----------------
#NOTES:
     dance-single:
     Alex:
     Challenge:
     9:
     0,0,0,0,0:
0000
0000
0000
0000
,
0000
0000
0000
0000
,
0000
0000
0000
0000
,
0000
0000
1001
0000
0010
0100
0000
0022
,
0033
0000
1100
0000
0010
0001
0000
2020
,
3030
0000
1000
0010
0100
0101
0000
2020
,
3030
0000
1000
0001
0010
0011
0000
2200
,
3300
0000
1000
0001
0100
0110
0000
0202
,
0303
0000
0001
0010
0100
1100
0000
0022
,
0033
0000
0001
0100
0010
1010
0000
1000
,
0001
0101
2002
0000
0000
0000
0000
0000
,
0000
0000
0000
0000
,
0000
0000
0000
0000
,
0000
0000
0000
0000
,
0000
0000
0000
0000
,
3000
0000
0000
0000
0000
0003
0000
0000
0000
0000
0000
0000
0000
0000
0000
0000
0000
0000
0000
0000
0000
0000
0000
0000
0000
0000
0000
0000
0000
0000
0000
0000
0000
0000
0000
0000
0000
0000
0000
0000
0000
0000
0000
0000
0000
0000
0000
0000
0001
0000
0000
0000
0000
0000
0000
0000
0000
0000
0000
0000
0000
0000
0000
0000
0000
0000
0000
0000
0000
0000
0000
0000
1000
0000
0000
0000
0000
0000
0000
0000
0000
0000
0000
0000
0010
0000
0000
0000
0000
0000
0000
0000
0000
0000
0000
0000
0000
0000
0000
0000
0000
0000
0000
0000
0000
0000
0000
0000
0100
0000
0000
0000
0000
0000
0000
0000
0000
0000
0000
0000
0000
0000
0000
0000
0000
0000
0000
0000
0000
0000
0000
0000
0001
0000
0000
0000
0000
0000
0000
0000
0000
0000
0000
0000
0000
0000
0000
0000
0000
0000
0000
0000
0000
0000
0000
0000
0010
0000
0000
0000
0000
0000
0000
0000
0000
0000
0000
0000
0001
0000
0000
0000
0000
0000
0000
0000
0000
0000
0000
0000
0000
0000
0000
0000
0000
0000
0000
0000
0000
0000
0000
0000
,
0100
0001
0100
0001
0100
0000
0010
1000
0000
0001
0000
1000
0000
0010
1000
0000
,
0001
1000
0001
1000
0001
0000
0001
0100
0000
0010
0000
0100
0000
0001
0100
0000
,
0001
1000
0010
0100
0001
0000
1000
0001
0000
1000
0000
0010
0000
1000
0001
0000
,
1000
0001
1000
0001
1000
0000
0001
0100
0000
0010
0000
0100
0000
0001
0100
0000
,
0001
1000
0010
0100
0001
0000
0010
0001
0000
0100
0000
0001
0000
0100
0010
0000
,
1000
0001
0100
0010
1000
0000
0001
1000
0000
0001
0000
0100
0000
0010
0100
0000
,
0001
0010
0100
2000
0002
0000
0000
0000
0000
0000
0000
0000
0000
0000
0000
0000
,
3003
0000
0000
0000
0001
0000
1000
0000
0010
0000
0100
0001
0100
0000
0001
0000
,
1001
0000
0001
0000
0010
0000
0001
0000
0100
0000
0010
1000
0100
0000
1000
0000
,
1010
0000
0010
0000
1000
0000
0001
0000
0100
0000
0010
0100
0001
0000
0100
0000
,
0101
0000
0001
0000
0010
0000
0100
0000
1000
0000
0001
1000
0010
0000
0100
0000
,
0101
0000
0001
0000
1000
0000
0010
0000
1000
0000
0001
0010
0001
0000
1000
0000
,
1010
0000
0010
0000
1000
0000
1000
0000
0001
0000
0100
0010
0100
0000
0001
0000
,
0101
0000
0001
0000
1000
0010
0100
0000
0001
0010
0100
0000
1000
0001
0100
0000
,
0010
1000
0001
0000
2002
0000
0000
0000
0000
0000
0000
0000
0000
0000
3003
0000
,
0001
0010
0100
1000
0010
0200
0000
0000
0301
0010
0001
1000
0010
2000
0000
0000
,
3010
0100
0001
1000
0100
0020
0000
0000
0031
0100
1000
0100
0001
2000
0000
0000
,
3010
0010
1000
0001
0100
0020
0000
0000
0130
0001
0010
0100
1000
0002
0000
0000
,
1003
0010
0100
0001
1000
0100
0010
0001
2002
0000
0000
0000
0000
0000
0000
0000
,
0000
0000
0000
0000
,
0000
0000
0000
0000
,
0000
0000
0000
0000
,
0000
0000
0000
0000
,
0000
0000
0000
0000
3003
0000
0000
0000
1000
0000
0001
1000
0000
0010
0000
1000
,
0000
0001
0100
0000
0001
1000
0010
0100
0001
0000
0010
0001
0000
0100
0000
0001
,
0000
0100
0010
0000
0100
0001
0100
0001
0100
0000
0001
1000
0000
0010
0000
1000
,
0000
0001
1000
0000
0001
1000
0010
0100
0001
0000
0010
0001
0000
0100
0000
0010
,
0000
1000
0100
0000
1000
0010
1000
0010
1000
0000
0001
1000
0000
0001
0000
0100
,
0000
0001
0100
0000
0010
0100
0001
0010
0100
0000
1000
0001
0000
0100
0000
0001
,
0000
1000
0010
0000
1000
0001
0010
0100
1000
0000
0001
0100
0000
0001
0000
1000
,
0000
0010
1000
0000
0001
0010
0001
0020
0002
0000
0000
0000
0000
0000
0000
0000
,
0000
0000
0000
0000
0033
0000
0000
0000
0001
0000
1000
0000
0010
0000
0100
0001
,
0100
0000
0001
0000
0011
0000
0001
0000
0100
0000
0010
0000
1000
0000
0100
1000
,
0100
0000
1000
0000
1010
0000
0010
0000
1000
0000
0001
0000
0100
0000
0010
1000
,
0001
0000
0010
0000
0011
0000
0001
0000
0100
0000
0010
0000
1000
0000
0100
1000
,
0100
0000
1000
0000
1001
0000
0001
0000
0100
0000
0010
0000
0100
0000
0001
1000
,
0010
0000
0100
0000
0101
0000
0001
0000
1000
0000
0100
0000
1000
0000
0010
1000
,
0010
0000
1000
0000
1001
0000
0001
0000
0100
0010
0100
0000
0001
0010
0001
0000
,
1000
0010
1000
0000
0001
0100
0001
0000
2002
0000
0000
0000
0000
0000
0000
0000
,
3003
0000
0000
0000
;
