#TITLE:Another Truth;
#SUBTITLE:;
#ARTIST:Novasonic;
#TITLETRANSLIT:;
#SUBTITLETRANSLIT:;
#ARTISTTRANSLIT:;
#GENRE:;
#CREDIT:;
#MUSIC:Another Truth.ogg;
#BANNER:Another Truth.png;
#BACKGROUND:Another Truth-BG.png;
#CDTITLE:;
#SAMPLESTART:4.325;
#SAMPLELENGTH:15.579;
#SELECTABLE:YES;
#OFFSET:-0.410;
#BPMS:0.000=136.000;
#STOPS:;
#BGCHANGES:;
#FGCHANGES:;

//--------------- dance-single - Alex ----------------
#NOTES:
     dance-single:
     Alex:
     Beginner:
     1:
     0,0,0,0,0:
0000
0000
0000
0000
,
0000
0000
0000
0000
,
0000
1000
0000
0000
,
0000
0001
0000
0000
,
0000
1000
0000
0000
,
0000
1000
0000
0000
,
0000
0010
0000
0000
,
0000
0010
0000
0000
,
0000
0100
0000
0000
,
0000
0001
0000
0000
,
0000
0001
0000
0000
,
0000
0010
0000
0000
,
0000
0001
0000
0000
,
0000
1000
0000
0000
,
0000
0100
0000
0000
,
0000
0100
0000
0000
,
0000
1000
0000
0000
,
0000
1000
0000
0000
,
0000
0001
0000
0000
,
0000
0001
0000
0000
,
0000
0010
0000
0000
,
0000
0001
0000
0000
,
0000
1000
0000
0000
,
0000
1000
0000
0000
,
0000
0001
0000
0000
,
0000
0001
0000
0000
,
0000
1001
0000
0000
,
0000
1001
0000
0000
,
0000
1001
0000
0000
,
0000
0010
0000
0010
,
0000
0010
0000
0000
,
0000
0100
0000
0000
,
0000
0100
0000
0000
,
0000
0001
0000
0001
,
0000
0001
0000
0000
,
0000
1000
0000
0000
,
0000
1000
0000
0000
,
0000
0010
0000
0010
,
0000
0010
0000
0000
,
0000
0110
0000
0000
,
0000
0100
0000
0000
,
0000
0001
0000
0000
,
0000
1000
0000
1000
,
0000
1000
0000
0000
,
0000
0001
0000
0000
,
0000
0001
0000
0000
,
0000
0100
0000
0000
,
0000
0010
0000
0000
,
0000
0010
0000
0000
,
0000
1000
0000
0000
,
0000
0001
0000
0001
,
0000
0001
0000
0000
;

//--------------- dance-single - Alex ----------------
#NOTES:
     dance-single:
     Alex:
     Easy:
     3:
     0,0,0,0,0:
0000
0000
0000
0000
,
0000
0000
0000
0000
,
0000
0010
0000
0010
,
0000
1000
0000
1000
,
0000
0001
0000
0001
,
0000
1000
0001
1000
,
0000
0001
0000
0100
,
0000
0001
0000
0001
,
0000
1000
0000
1000
,
0000
0010
0000
1000
,
0001
1001
0000
1001
,
0000
0010
0000
0100
,
0100
0100
0000
0001
,
0000
1000
0000
0010
,
0000
1001
0000
0001
,
0000
1000
0000
0001
,
0001
0001
0000
1000
,
0000
0100
0000
1000
,
1000
1001
0000
1001
,
0000
0010
0010
0010
,
0000
1000
0000
0001
,
0000
1000
0000
1000
,
0000
1001
0000
1001
,
0000
0001
1000
0001
,
0000
0100
0000
0010
,
0000
0100
0000
0001
,
1000
0020
0000
0030
,
0000
0200
0000
0300
,
0000
0002
0000
0003
,
0000
1000
0000
1000
,
0000
1001
0000
1001
,
0000
0010
0010
0010
,
0000
0100
0100
0100
,
0000
0001
0000
1000
,
0000
1001
0000
1001
,
0000
0001
0001
0001
,
0000
1000
0000
1000
,
0000
0010
0010
0010
,
0000
2002
0000
0000
,
3003
0001
1000
0001
,
0000
1000
0001
1000
,
0000
0001
0000
0100
,
0000
0010
0000
0010
,
0000
1000
0100
1000
,
0000
0001
0100
0001
,
0000
1000
0000
0001
,
0000
1000
0000
1000
,
0000
0010
0000
0010
,
0000
0100
0000
0100
,
0000
2002
0000
3003
,
0000
0010
0100
0010
,
0100
0010
0000
0000
;

//--------------- dance-single - Alex ----------------
#NOTES:
     dance-single:
     Alex:
     Medium:
     5:
     0,0,0,0,0:
0000
0000
0000
0000
,
0000
0000
0000
0000
,
0000
1001
1001
0110
,
0110
1010
1010
0101
,
0101
0001
0010
0001
,
1000
0010
0010
1000
,
1000
1100
0011
0101
,
1010
1001
1001
0110
,
0110
0100
0001
0010
,
0100
0000
1000
0000
1000
0000
0001
1000
,
0001
0000
1000
0000
0010
0000
1000
0010
,
1000
0000
0001
0000
0100
0000
0001
0100
,
0001
0000
0010
0000
0100
0000
1000
0100
,
1000
0000
0010
0000
1000
0000
0001
0010
,
0001
0011
0011
0101
,
0101
1010
1100
0110
,
0011
0001
0100
0010
,
0100
0001
0001
1000
,
1000
0000
0001
0000
0100
0000
0010
0100
,
0010
0000
1000
0000
0001
0000
1000
0100
,
1000
0000
0001
0000
0100
0000
0010
0100
,
0010
0000
0100
0000
0001
0000
0010
0001
,
0010
0011
0011
1100
,
1100
1010
0101
0011
,
1001
0001
1000
0010
,
1000
0000
0001
0000
1000
0000
0100
0010
,
0100
1001
0000
0110
,
0000
1000
0001
1000
,
0000
0001
1000
0001
,
0000
1001
0000
1001
,
0000
0001
1000
0010
,
0010
1000
0001
0010
,
0100
0010
0001
0100
,
0010
0110
0000
0110
,
0000
1001
0001
1000
,
1000
0010
0100
0001
,
0010
0001
1000
0010
,
1000
1001
0000
0110
,
0000
2002
0000
0000
,
3003
0000
0001
0000
1000
0000
0001
0100
,
0001
0000
1000
0000
1000
0000
0100
1000
,
0100
1000
0010
0100
,
0001
0010
0001
1000
,
1000
0000
0001
0000
0100
0000
0010
0100
,
0010
0000
0100
0000
0001
0000
1000
0100
,
1000
0001
1000
0010
,
0100
1001
0000
1001
,
1001
0110
0000
0110
,
0110
1010
0000
1010
,
1010
1100
0000
2002
,
3003
0001
1000
0010
,
0100
1001
0000
0000
;

//--------------- dance-single - Alex ----------------
#NOTES:
     dance-single:
     Alex:
     Hard:
     8:
     0,0,0,0,0:
0000
0000
0000
0000
,
0000
0000
0000
0000
,
0000
0000
0000
0000
1001
0000
0000
0000
0110
0000
0000
0010
0100
0000
0001
0000
,
1000
0000
0000
0000
0100
0000
0010
0000
0001
0000
0100
0001
0000
0000
0100
0000
,
0010
0000
1000
0000
0000
0000
0001
0000
1000
0000
0100
1000
0100
0000
1000
0000
,
0010
0000
0100
0000
0001
0000
0000
1000
0000
0000
0010
0000
0100
0000
0000
0001
,
0000
0000
0010
0000
0011
0000
0000
0000
0001
0000
0000
0100
0001
0000
0100
0000
,
0010
0000
0100
0000
0001
0000
0010
0000
0100
0000
1000
0100
0000
0000
1000
0000
,
0010
0000
0100
0000
0000
0000
0001
0000
1000
0000
0010
1000
0000
0000
0001
0000
,
0100
0010
0100
0001
0000
1000
0001
1000
,
1001
0000
0001
0100
0010
0000
0100
0001
,
1000
0000
0001
1000
0100
1000
0001
0100
,
0010
0100
0001
1000
0010
0000
1000
0001
,
0010
0000
0001
1000
0010
0100
0001
1000
,
0001
0000
1000
0000
1001
0000
0000
0000
0110
0000
0000
0010
0100
0000
0001
0000
,
0010
0001
1000
0010
0000
1000
0001
0100
,
0010
0000
0100
0001
0010
0010
0001
1000
,
0010
1000
0001
0100
0000
0001
1000
0010
,
0110
0000
0001
1000
0100
0000
1000
0001
,
0100
0000
0001
0010
0001
0100
0010
0100
,
0001
1000
0100
0100
1000
0000
0010
0010
,
1000
0000
0001
1000
0010
0100
0001
1000
,
0100
0000
0010
0000
0011
0000
0000
0000
1100
0000
0000
0100
1000
0000
0010
0000
,
0100
0001
1000
0000
0001
0010
0100
0010
,
0001
0000
0100
0000
0000
0000
0010
0000
1000
0000
0001
1000
0000
0000
0010
0000
,
0100
0001
1000
0100
0000
0010
0001
1000
,
1001
0002
1000
0010
,
1003
2000
0010
0100
,
3010
0002
0100
0010
,
0103
0000
0000
0000
0001
0000
0000
0001
0000
0000
1000
0000
1000
0000
0000
1000
,
0000
0010
0100
0001
0100
0000
0001
1000
,
0100
0000
1000
0001
0100
0010
0100
0001
,
0010
0100
1000
0001
1000
0000
0010
1000
,
0001
0000
0000
0000
1000
0000
0000
1000
0000
0000
0001
0000
1000
0000
0000
0001
,
0000
0001
0100
0010
0100
0000
0001
0010
,
0001
0000
1000
0010
1000
0001
1000
0100
,
0010
0000
0001
0100
0010
0000
0100
0001
,
1000
0000
0000
0000
0001
0000
0000
1000
0000
0000
0001
0000
0100
0000
0000
0010
,
0000
0100
2002
0000
0000
0000
0000
0000
,
3003
0000
0001
1000
0010
1000
0001
1000
,
0100
0000
1000
0001
0100
0010
0100
0001
,
0100
0000
0010
1000
0001
0010
0100
1000
,
0001
0000
0100
0000
0010
0000
0000
0010
0000
0000
0100
0000
0100
0000
0000
0100
,
0000
0010
1000
0001
1000
0100
1000
0001
,
1000
0000
0001
0010
0100
1000
0001
0010
,
0001
0000
0100
0010
0100
0100
0001
1000
,
0100
0000
0010
0000
0001
0000
0000
0100
0000
0000
0001
0000
0001
0000
0000
1000
,
0000
0000
0010
0000
1010
0000
0000
1000
0000
0000
0001
0000
0100
0000
0000
0010
,
0000
0000
0100
0000
0101
0000
0000
0001
0000
0000
0001
0000
1000
0000
0000
0010
,
0000
0000
1000
0000
1001
0000
0000
0010
0000
0000
0010
0000
2002
0000
0000
0000
,
3003
0000
0001
1000
0100
1000
0001
0100
,
0010
1000
1001
1001
0000
0000
0000
0000
;
