#TITLE:Achluoias;
#SUBTITLE:;
#ARTIST:D_AAN;
#TITLETRANSLIT:;
#SUBTITLETRANSLIT:;
#ARTISTTRANSLIT:;
#GENRE:;
#CREDIT:;
#MUSIC:Achluoias.ogg;
#BANNER:Achluoias.png;
#BACKGROUND:Achluoias-BG.png;
#CDTITLE:;
#SAMPLESTART:19.233;
#SAMPLELENGTH:14.269;
#SELECTABLE:YES;
#OFFSET:-0.070;
#BPMS:0.000=200.000
,30.000=203.500
,32.000=200.000
,256.000=204.500
,259.000=200.000
;
#STOPS:;
#BGCHANGES:;
#FGCHANGES:;

//--------------- dance-single - Alex ----------------
#NOTES:
     dance-single:
     Alex:
     Beginner:
     3:
     0,0,0,0,0:
0000
0000
0000
0000
,
0000
0000
0000
0000
,
0000
0000
0000
0000
,
0000
0000
0000
0000
,
0000
0000
0000
0000
,
0000
0000
0000
0000
,
0000
0000
0000
0000
,
0000
0000
0000
0000
,
1000
0000
0000
0000
,
0001
0000
0000
0000
,
0100
0000
0000
0000
,
0001
0000
0000
0000
,
0010
0000
0000
0000
,
0001
0000
0000
0000
,
1000
0000
0000
0000
,
0001
0000
0001
0000
,
1001
0000
0000
0000
,
1000
0000
0000
0000
,
0010
0000
0000
0000
,
0100
0000
0100
0000
,
0100
0000
0000
0000
,
0010
0000
0000
0000
,
1000
0000
0001
0000
,
1000
0000
0001
0000
,
1001
0000
0000
0000
,
0100
0000
0000
0000
,
0001
0000
0000
0000
,
0001
0000
1000
0000
,
0001
0000
0000
0000
,
0100
0000
0000
0000
,
0001
0000
0000
0000
,
1000
0000
1000
0000
,
0010
0000
0000
0000
,
1000
0000
0000
0000
,
0001
0000
0000
0000
,
0100
0000
0010
0000
,
0100
0000
0000
0000
,
0001
0000
0000
0000
,
1000
0000
1000
0000
,
0001
0000
0001
0000
,
1001
0000
0000
0000
,
0010
0000
0000
0000
,
0100
0000
0000
0000
,
0001
0000
0001
0000
,
0001
0000
0000
0000
,
1000
0000
0000
0000
,
0010
0000
0000
0000
,
0100
0000
0010
0000
,
0200
0000
0300
0000
,
0002
0000
0003
0000
,
0020
0000
0030
0000
,
0001
0000
1000
0000
,
0002
0000
0003
0000
,
2000
0000
3000
0000
,
0200
0000
0300
0000
,
1000
0000
0010
0000
,
2000
0000
3000
0000
,
0020
0000
0030
0000
,
2000
0000
3000
0000
,
0002
0000
0003
0000
,
0200
0000
0300
0000
,
0020
0000
0030
0000
,
0200
0000
0300
0000
,
0002
0000
0003
0000
,
1001
0000
0000
0001
,
0001
0000
0000
1000
,
1000
0000
0000
0010
,
0010
0000
0010
0000
,
0010
0000
0000
0000
,
0100
0000
0000
0000
,
0010
0000
0000
0000
,
1000
0000
0001
0000
,
1001
0000
0000
0000
,
0001
0000
0000
0000
,
1000
0000
0000
0000
,
0010
0000
0010
0000
,
0010
0000
0000
0000
,
1000
0000
0000
0000
,
0001
0000
0100
0000
,
0001
0000
0100
0000
,
0110
0000
0000
0000
,
1001
0000
0000
0000
,
0110
0000
0000
0000
,
1001
0000
0000
0000
,
0001
0000
0001
0000
,
1000
0000
1000
0000
,
0010
0000
0010
0000
,
0100
0000
0100
0000
,
0020
0000
0030
0000
,
0200
0000
0300
0000
,
0002
0000
0003
0000
,
2000
0000
3000
0000
,
1001
0000
0000
0000
;

//--------------- dance-single - Alex ----------------
#NOTES:
     dance-single:
     Alex:
     Easy:
     6:
     0,0,0,0,0:
0000
0000
0000
0000
,
0000
0000
0000
0000
,
0000
0000
0000
0000
,
0000
0000
0000
0000
,
0000
0000
0000
0000
,
0000
0000
0000
0000
,
0000
0000
0000
0000
,
0000
0000
0000
0000
,
0200
0000
0000
0000
0000
0000
0000
0300
,
0020
0000
0000
0000
0000
0000
0000
0030
,
2000
0000
0000
0000
0000
0000
0000
3000
,
0002
0000
0000
0000
0000
0000
0000
0003
,
0200
0000
0000
0000
0000
0000
0000
0300
,
0002
0000
0000
0000
0000
0000
0000
0003
,
2000
0000
0000
0000
0000
3000
0010
0000
,
0010
0000
1001
1001
,
0001
0001
1000
1000
,
0010
0010
0100
0100
,
0001
0001
0100
0010
,
1000
0001
0010
0001
,
0101
0100
0110
0010
,
1010
1000
0001
0100
,
0100
0001
1000
0100
,
1000
0010
1000
0010
2000
0000
3000
0000
,
0002
1000
1000
1003
,
2000
0010
0010
3010
,
0020
0100
0100
0100
,
0130
1001
1001
1001
,
0001
0100
0010
1000
,
0001
0001
1000
1000
,
0001
0100
0010
1000
,
0001
1000
0001
1000
0001
0000
1001
0000
,
0001
0001
0100
0100
,
0010
0010
1000
0100
,
1000
0010
0100
0001
,
0010
0001
0001
0100
,
0110
0100
0101
0001
,
1001
1000
1000
0001
,
0100
0010
1000
0001
,
0100
0001
0100
0001
0100
0000
0110
0000
,
0020
0100
0100
0130
,
0200
0001
0001
0301
,
0002
1000
1000
1000
,
1003
1001
1001
1001
,
0001
0001
1000
1000
,
0010
0100
0001
0010
,
0100
0000
0010
0000
0001
0100
0001
0000
,
0100
0010
0100
0000
0001
1000
0001
0000
,
0002
0000
0103
0000
,
0200
0000
0310
0000
,
0020
0000
1030
0000
,
1000
0001
0010
0001
,
2000
0000
3100
0000
,
0002
0000
0103
0000
,
0200
0000
0310
0000
,
0010
0100
0001
1000
,
2020
0000
3030
0000
,
0202
0000
0303
0000
,
0022
0000
0033
0000
,
2002
0000
3003
0000
,
0220
0000
0330
0000
,
2200
0000
3300
0000
,
0022
0000
0033
0000
,
0202
0000
0303
0000
,
0200
0000
0300
0010
,
0020
0000
0030
1000
,
1000
0000
0001
0100
0001
0000
1000
0000
,
0010
0100
0001
0010
,
0100
0010
0002
0003
,
0100
0100
0010
0010
,
1000
0001
0010
0001
,
1001
0000
0110
0110
,
0010
0010
1000
1000
,
0001
0001
0010
0001
,
0100
0010
0100
0001
,
1000
0100
1000
0010
,
1010
1000
1001
0001
,
0101
0100
0100
0001
,
0010
0100
1000
0010
,
0100
0010
0100
0010
0100
0000
1001
0000
,
0002
0003
0200
0300
0020
0030
2000
3000
,
0002
0003
0020
0030
0002
0003
2000
3000
,
0200
0300
0020
0030
0200
0300
2000
3000
,
0020
0030
0200
0300
0002
0003
0020
0030
,
0001
0000
0001
0000
1000
0001
1000
0000
,
0001
0000
0001
0000
0100
0001
0100
0000
,
0010
0010
1000
1000
,
0001
1000
0001
0000
1000
0001
1000
0000
,
2002
0000
3003
0000
,
0220
0000
0330
0000
,
0022
0000
0033
0000
,
0202
0000
0303
0000
,
2002
0000
0000
0000
,
0000
0000
0000
0000
,
0000
0000
0000
0000
,
0000
0000
0000
3003
;

//--------------- dance-single - Alex ----------------
#NOTES:
     dance-single:
     Alex:
     Medium:
     10:
     0,0,0,0,0:
0000
0000
0000
0000
,
0000
0000
0000
0000
,
0000
0000
0000
0000
,
0000
0000
0000
0000
,
0000
0000
0000
0000
,
0000
0000
0000
0000
,
0000
0000
0000
0000
,
0000
0000
0000
0000
,
0002
0000
0000
0000
0000
0000
0000
0003
,
0000
0200
0000
0000
0000
0000
0000
0000
0000
0000
0000
0000
0000
0000
0000
0300
,
0020
0000
0030
0000
1000
0000
0010
0000
0200
0000
0000
0000
0000
0000
0000
0300
,
0000
0002
0000
0000
0000
0000
0000
0000
0000
0000
0000
0000
0000
0000
0003
0000
,
2000
0000
0000
0000
0000
0000
0000
0000
0000
0000
0000
0000
0000
0000
0000
3000
,
0000
0020
0000
0000
0000
0000
0000
0000
0000
0000
0000
0000
0000
0000
0030
0000
,
0200
0000
0000
0000
0000
0000
0000
0000
0000
0300
0000
0000
0010
0000
0100
0000
,
0001
0000
1000
0000
0000
0000
0001
0000
1000
0000
0000
0001
0000
0000
1000
0000
,
0010
0000
0010
1000
0010
0000
0100
0000
,
0001
0000
0010
0001
0010
0000
0001
0000
,
1000
0000
0001
0100
0010
0100
0001
0010
,
0100
1000
0001
1000
0001
1000
0010
0100
,
0002
0003
0100
0010
2000
3000
0001
0010
,
0100
1000
0001
0100
0010
0100
0002
0003
,
1000
0010
0100
0001
0010
0001
1000
0010
,
1000
0000
0001
0000
0100
0000
0010
0000
0100
0000
0000
0100
0000
0000
0100
0000
,
0010
1000
1010
1010
,
0001
0100
0101
0101
,
1001
0000
0001
1000
0010
0100
0001
0100
,
0010
1010
0101
1010
,
0010
1000
0100
0010
0100
1000
0001
0100
,
0010
0100
0001
0010
0100
1000
0001
1000
,
0010
0010
1000
1000
0001
0010
0001
0100
,
0010
0000
0010
0000
0100
0000
0100
0000
0001
0000
0000
1000
0000
0000
0001
0000
,
0100
0000
0001
0100
0001
0000
1000
0000
,
0010
0000
1000
0010
1000
0000
0001
0000
,
1000
0000
0001
0100
0010
0100
0001
0010
,
0100
0010
0001
0100
0010
0100
0001
1000
,
0020
0030
1000
0001
0200
0300
0001
1000
,
0100
1000
0001
1000
0001
0100
0020
0030
,
0100
0100
0001
0001
1000
0010
1000
0001
,
0010
0000
0010
0000
0100
0000
0100
0000
1000
0000
0000
1000
0000
0000
1000
0000
,
0001
0010
0011
0011
,
1000
0010
1010
1010
,
1001
0000
0001
0100
0010
0100
0001
1000
,
0010
1010
0101
1010
,
0010
1000
0100
0010
0100
1000
0001
0100
,
0010
0100
0001
0010
0100
1000
0001
0100
,
0010
1000
0001
0010
0001
1000
0010
1000
,
0001
1000
0001
1000
0001
0000
1000
0000
0010
0000
0100
0010
0000
0010
0100
0000
,
0002
0000
0013
0000
,
2000
0000
3100
0000
,
0002
0000
0103
0000
,
1000
0000
0001
0000
0100
0000
0001
0000
1000
0000
0000
0001
0000
0000
0100
0000
,
0020
0000
0130
0000
,
0200
0000
0301
0000
,
0002
0000
1003
0000
,
1000
0000
0010
0000
0000
0000
0010
0000
1000
0000
0000
0010
0000
0000
1000
0000
,
2010
0000
3001
0000
,
0012
0000
0103
0000
,
0210
0000
0301
0000
,
1002
0000
1003
0000
,
2010
0000
3100
0000
,
0012
0000
0103
0000
,
0210
0000
0301
0000
,
1002
0000
1003
0000
,
2002
0000
3003
0001
,
0200
0000
0000
0000
0000
0300
0010
0000
,
1010
0000
1000
0010
0100
0000
0001
0000
,
0100
0010
0100
0001
,
1001
0000
1000
0001
0200
0000
0300
0001
,
0010
0011
0101
0110
,
0101
0000
0001
1000
0010
0000
0100
0001
,
1000
0000
0100
0000
0000
0000
1000
0000
0010
0000
0000
0100
0000
0000
0010
0000
,
0100
0000
0001
0100
0001
0000
1001
0000
,
0110
0000
0010
1000
0100
0000
1100
0000
,
0011
0000
0001
0100
0010
0100
0001
0010
,
0100
1000
0001
1000
0010
1000
0001
0010
,
0002
0003
0100
0001
0200
0300
0010
1000
,
0100
0010
0100
1000
0001
1000
0020
0030
,
1000
1000
0001
0001
0100
0010
0100
0001
,
0010
0000
0100
0000
1000
0000
0010
0000
0100
0000
0000
0100
0000
0000
0100
0000
,
0010
1000
0010
1000
0010
1000
0010
1000
,
0010
1000
0001
1000
0001
1000
0001
1000
,
0001
0100
0001
0100
0001
0100
0001
0100
,
0010
0100
0010
0100
0010
0100
0110
0000
,
0010
0000
1000
0000
0001
0000
0010
0000
0001
0000
1000
0000
0010
1000
0010
0000
,
1000
0000
1000
0000
0001
0000
0100
0000
0001
0000
1000
0000
0010
1000
0010
0000
,
1000
1000
0001
0100
0010
0100
0001
1000
,
0001
0000
1000
0000
0100
0000
0010
0000
0011
0000
0000
1100
0000
0000
0011
0000
,
0200
0000
0310
0000
,
0020
0000
1030
0000
,
2000
0000
3001
0000
,
0002
0000
0013
0000
,
2002
0000
0000
0000
,
0000
0000
0000
0000
,
0000
0000
0000
0000
,
0000
0000
0000
3003
;

//--------------- dance-single - Alex ----------------
#NOTES:
     dance-single:
     Alex:
     Hard:
     11:
     0,0,0,0,0:
0000
0000
0000
0000
,
0000
0000
0000
0000
,
0000
0000
0000
0000
,
0000
0000
0000
0000
,
0000
0000
0000
0000
,
0000
0000
0000
0000
,
0000
0000
0000
0000
,
0000
0000
0000
0000
,
0002
0000
0000
0003
,
2000
0000
0000
3000
,
0020
0030
0100
0001
0020
0000
0000
0030
,
0002
0000
0000
0000
0000
0000
0000
0003
,
2000
0000
0000
0000
0000
0000
0000
3000
,
0020
0000
0000
0000
0000
0000
0000
0030
,
0200
0000
0000
0000
0000
0000
0300
0000
0002
0000
0003
0000
1000
0001
1000
0001
,
1000
0000
0020
0000
0000
0030
0100
0000
0001
0000
0100
0001
0000
0001
0100
0000
,
0101
0000
0001
0000
0100
0000
0010
0100
0010
0000
1000
0000
0001
0000
0010
0000
,
0001
0000
1000
0000
0010
0000
1000
0010
1000
0000
0001
0000
0100
0000
0010
0000
,
0100
0000
0100
0000
0001
0000
1000
0100
1000
0000
0001
0000
0100
0000
0010
0000
,
0100
0000
0001
0100
0001
0100
0001
0000
0100
0000
0010
0100
0000
0100
0010
0000
,
1020
0030
0100
0001
0020
0030
0001
1000
,
0010
1000
0001
0100
0010
0100
0101
0000
,
0001
0001
0100
0100
0010
1000
0001
0010
,
0100
0000
1000
0001
0100
0010
1000
0001
0100
0000
0000
0101
0000
0000
1001
0000
,
0002
1000
0010
1003
,
2000
0100
0010
3100
,
0002
0100
0010
0100
,
0013
1001
0110
1001
,
0001
0000
0100
0000
0010
0000
0100
0000
0001
0000
0010
0000
0100
0000
1000
0001
,
1000
0000
0001
0000
0100
0000
0010
0100
0010
0000
0100
0000
0001
0000
0010
0001
,
0010
0000
0001
0000
1000
0000
0010
0000
1000
0010
0100
0001
0020
0030
0002
0003
,
1000
0001
0100
0010
2000
3000
0002
0003
0101
0000
0100
0010
0000
0010
0100
0000
,
0110
0000
0010
0000
1000
0000
0001
0010
0001
0000
1000
0000
0001
0000
0100
0000
,
0010
0000
0010
0000
0100
0000
0001
0100
0001
0000
0100
0000
0010
0000
1000
0000
,
0001
0000
0010
0000
0100
0000
1000
0100
1000
0000
0010
0000
0100
0000
0001
0000
,
0101
0000
0010
0100
0010
0100
0010
0000
0110
0000
0010
1000
0000
1000
0010
0000
,
1020
0030
1000
0100
2000
3000
0001
0100
,
0010
1000
0001
0010
0001
1000
0020
0030
,
1000
1000
0001
0001
0100
0100
0010
0100
,
0001
0000
0100
0001
0010
0100
1000
0010
0100
0000
0000
1001
0000
0000
0110
0000
,
0200
0001
0010
0301
,
2000
0010
0100
3010
,
0002
0100
0010
0100
,
1003
1001
0110
1001
,
0001
0000
0100
0000
0010
0000
0100
0000
0001
0000
0010
0000
0100
0000
1000
0100
,
1000
0000
0001
0000
1000
0000
0010
0100
0010
0000
0100
0000
0001
0000
0010
0000
,
0001
1000
0001
1000
0001
0000
1000
0000
0010
1000
0010
1000
0010
0100
0001
0000
,
1000
0100
0010
0001
0100
0010
1000
0000
1001
0000
0000
0110
0000
0000
1001
0000
,
1002
0000
1003
0000
,
2010
0000
3100
0000
,
0012
0000
0103
0000
,
0100
0000
0010
0000
0100
0001
0100
0000
0101
0000
0001
1000
0000
1000
0010
0000
,
2010
0000
3100
0000
,
0102
0000
0103
0000
,
0021
0000
0031
0000
,
0101
0000
0110
0000
0000
0000
1010
0000
1001
0000
0000
0101
0000
0000
1010
0000
,
2020
0000
3130
0000
,
0022
0000
0133
0000
,
2002
0000
3013
0000
,
2200
0000
3310
0000
,
0022
0000
0133
0000
,
2002
0000
3013
0000
,
0220
0000
0331
0000
,
2020
0000
3130
0000
,
0020
0000
0000
0000
0000
0030
0101
0000
,
0002
0000
0000
0000
0000
0003
1001
0000
,
1000
0000
0010
0100
0001
0000
1000
0000
,
1100
0011
1100
0011
,
0001
0100
0010
0100
0002
0000
0003
1000
,
0001
0101
0110
1010
,
1100
0000
0000
0000
1000
0000
0100
0000
0010
0000
0001
0000
0100
0010
0100
0010
,
0100
0000
0002
0000
0000
0003
1000
0000
0010
0000
1000
0010
0000
0010
1000
0000
,
1010
0000
0010
0000
1000
0000
0001
0100
0001
0000
1000
0000
0010
0000
0100
0000
,
0001
0000
0010
0000
0100
0000
1000
0100
1000
0000
0001
0000
0100
0000
0010
0000
,
0100
0000
0001
0000
1000
0000
0010
0100
0010
0000
0100
0000
0001
0000
0010
0000
,
0001
0000
1000
0001
1000
0001
1000
0000
0001
0000
0100
0001
0000
0001
0100
0000
,
0210
0300
0001
0010
0200
0300
1000
0010
,
0100
0001
0010
0001
1000
0010
2000
3000
,
0001
0001
0100
0100
0010
1000
0100
0010
,
0001
0000
1000
0010
0100
0001
0010
0100
1000
0000
0000
1001
0000
0000
0110
0000
,
0020
0030
0200
0300
0002
0003
0020
0030
0002
0003
0200
0300
2000
3000
0200
0300
,
0002
0003
0020
0030
0002
0003
0200
0300
0020
0030
2000
3000
0020
0030
0002
0003
,
0020
0030
2000
3000
0002
0003
0020
0030
0002
0003
0200
0300
0020
0030
0200
0300
,
0002
0003
0020
0030
0200
0300
2000
3000
0020
0030
0200
0300
0002
0003
2000
3000
,
0001
0000
0010
0000
0100
0000
1000
0000
0001
0000
0100
0000
0010
0100
0010
0000
,
0100
0000
0001
0000
1000
0000
0100
0000
0010
0000
0001
0000
0100
0001
0100
0001
,
0100
0000
0010
0000
1000
0010
1000
0010
1000
0000
0001
1000
0001
1000
0001
1000
,
0010
0100
0001
0010
0100
1000
0010
0100
0001
0100
0010
0100
0001
0010
0100
1000
,
0020
0000
0130
0000
,
0200
0000
0301
0000
,
0002
0000
1003
0000
,
2000
0000
3010
0000
,
2112
0000
0000
0000
,
0000
0000
0000
0000
,
0000
0000
0000
0000
,
0000
0000
0000
3003
;

//--------------- dance-single - Alex ----------------
#NOTES:
     dance-single:
     Alex:
     Challenge:
     14:
     0,0,0,0,0:
0000
0000
0000
0000
,
0000
0000
0000
0000
,
0000
0000
0000
0000
,
0000
0000
0000
0000
,
0000
0000
0000
0000
,
0000
0000
0000
0000
,
0000
0000
0000
0000
,
0000
0000
0000
0000
,
1002
0000
0000
0003
,
2010
0000
0000
3000
,
0210
0000
0000
0300
0001
0010
0100
1000
0020
0000
0000
0000
0000
0000
0030
0000
,
2010
0000
0000
3000
,
1002
0000
0000
0003
,
0201
0000
0000
0300
,
0120
0000
0030
0000
1000
0001
0010
0001
2000
0000
0000
3000
0001
0100
0010
0100
,
0001
0000
0200
0000
0000
0300
0010
0000
1001
0000
0001
1000
0000
1000
0001
0000
,
1001
0000
0001
0000
0100
0000
0010
0100
0001
0000
0010
0100
1000
0000
0001
1000
,
0010
0000
1000
0000
0001
0000
1000
0100
1000
0000
0001
0100
0001
0000
0100
0010
,
0100
0000
0001
0000
0010
0000
0001
0100
0010
0000
0100
0000
0001
0000
1000
0000
,
1010
0000
0010
1000
0010
1000
0010
0000
0110
0000
0010
0100
0000
0100
0001
0000
,
1001
0000
0001
0000
0010
0100
1000
0001
0100
0000
0100
0000
0100
0001
0010
0100
,
1000
0010
0100
0001
0010
0001
1000
0010
1000
0001
1000
0100
2000
0000
0000
3000
,
0001
0001
1000
1000
0010
0010
0100
0100
,
0001
0100
0010
0100
0001
0010
0100
1000
1001
0000
0000
0110
0000
0000
1001
0000
,
0001
0010
0002
0003
0100
0001
0200
0300
0010
1000
0020
0030
1000
0100
0020
0030
,
0100
1000
0002
0003
0100
0001
0200
0300
0010
1000
0020
0030
0100
0001
0020
0030
,
0001
1000
0020
0030
0100
0001
2000
3000
0001
0010
0200
0300
1000
0010
0200
0300
,
1001
0000
0010
1000
0001
0000
0100
0001
1000
0000
0001
0010
0002
0000
0000
0003
,
0100
0001
0100
0000
0010
0000
1000
0000
0001
0010
0100
0000
1000
0000
0001
0000
,
0100
0010
0100
0000
0001
0000
0010
0000
0001
1000
0001
0000
1000
0000
0010
0000
,
1000
0010
1000
0000
0001
0000
1000
0000
0010
0100
0001
0010
0100
1000
0001
1000
,
0100
1000
0010
0100
0001
0010
0100
1000
0010
0000
1000
0010
0000
0010
1000
0000
,
1010
0000
0010
0000
1000
0000
0001
0100
0001
0000
0100
0010
0100
0000
0001
1000
,
0001
0000
1000
0000
0010
0000
0100
0001
0010
0000
0001
1000
0010
0000
0100
0001
,
1000
0000
0001
0000
0100
0000
0010
0100
0001
0000
0010
0000
0100
0000
1000
0000
,
1001
0000
0001
1000
0001
1000
0001
0000
0011
0000
0001
0010
0000
0010
0001
0000
,
0100
0000
0001
0000
1000
0001
0010
0001
1000
0000
1000
0000
1000
0001
0100
0010
,
1000
0001
0010
0100
1000
0010
0100
0001
0100
0010
1000
0001
2000
0000
0000
3000
,
0010
0010
1000
1000
0001
0001
0010
0010
,
0001
0100
0010
0100
0001
0010
0100
1000
1010
0000
0000
0110
0000
0000
0101
0000
,
0001
0100
0002
0003
0010
0001
0020
0030
0001
1000
0020
0030
1000
0010
2000
3000
,
0001
1000
0002
0003
1000
0100
2000
3000
0001
0100
0002
0003
0010
0100
0020
0030
,
0001
0100
0020
0030
0100
0001
0200
0300
0001
1000
0002
0003
1000
0010
2000
3000
,
0010
0100
1001
0010
1001
0100
2002
3003
,
0001
0010
0001
0000
0100
0000
0100
0000
0001
1000
0001
0000
1000
0000
1000
0000
,
0010
1000
0010
0000
0100
0000
0100
0000
0001
0010
0001
0000
0100
0000
0100
0000
,
0010
1000
0010
1000
0010
0000
0100
0000
0001
0100
0001
0100
0001
0100
0001
0010
,
0100
1000
0001
0100
0010
1000
0100
0010
0011
0000
0000
0101
0000
0000
0110
0000
,
2002
0000
0010
3003
,
0022
0000
0000
0000
0100
0033
0000
0000
,
2200
0000
0000
0000
0010
3300
0000
0000
,
1001
0000
0110
0000
0010
0100
0001
0000
0101
0000
0001
0100
0000
0100
0010
0000
,
2020
0000
0000
0000
0100
3030
0000
0000
,
0022
0000
0000
0000
0100
0033
0000
0000
,
2002
0000
0000
0000
0100
3003
0000
0000
,
0110
0000
0101
0000
0000
0000
0011
0000
1001
0000
0000
0110
0000
0000
1001
0000
,
2002
0000
0010
3003
,
0202
0000
0010
0303
,
2200
0000
0010
3300
,
0202
0000
0010
0303
,
0001
0010
0100
1000
0010
0100
0001
1000
0002
0000
0000
0000
0000
0000
0003
0000
,
0202
0000
1000
0303
,
2200
0000
0010
3300
,
2002
0000
0010
3003
,
0101
0001
0010
0100
1000
0001
1001
0010
,
1001
0001
0100
0010
0100
0001
0011
0100
,
0011
0000
0100
0000
1000
0100
0010
0001
0100
0000
0010
0000
0110
0000
0100
0000
,
0101
0001
1001
1000
1010
0010
1010
1000
,
1001
0000
0001
0000
0100
0001
0010
0100
1000
0000
0010
0000
0100
0000
0001
0000
,
0101
0100
0110
0010
1010
1000
1001
0001
,
0011
0000
0010
0000
0001
0100
0010
0100
0001
0000
0001
0000
1000
0100
0010
0001
,
1000
0001
0100
0000
0010
0000
0100
0001
1000
0000
0001
1000
0000
1000
0001
0000
,
1001
0000
1000
0000
0001
0000
0100
0001
0100
0000
0010
0100
0010
0000
1000
0010
,
1000
0000
0001
0000
1000
0000
0001
0100
0001
0000
0010
0001
0100
0000
0010
1000
,
0100
0000
0010
0000
0001
0000
1000
0010
0100
0000
0001
0000
1000
0000
0001
0000
,
0101
0000
0100
0001
0100
0010
0100
0000
0101
0000
0001
1000
0000
1000
0010
0000
,
1000
0000
0010
0000
1000
0010
0100
0001
0010
0000
0010
0000
0010
0001
0100
0010
,
0100
0001
0010
0100
1000
0010
0100
0001
1000
0010
1000
0001
0200
0000
0000
0300
,
0001
0000
0001
0000
1000
0000
1000
0000
0010
0000
0010
0000
0100
0001
0100
0001
,
0100
0010
1000
0001
0010
0100
1000
0010
0110
0000
0000
0101
0000
0000
1001
0000
,
0001
1000
0001
0100
0001
1000
0010
1000
0001
1000
0100
0010
0100
1000
0001
0100
,
0010
0100
0001
0010
0100
1000
0001
0100
0010
1000
0001
0010
0001
1000
0010
1000
,
0001
1000
0100
0010
0100
1000
0001
0100
0010
0100
0001
0010
0100
1000
0001
0100
,
0010
0100
0001
0010
0001
1000
0010
0100
0001
1000
0100
1000
0002
0000
0000
0003
,
1000
0001
0100
0001
0100
0010
0100
0001
0010
0100
1000
0010
0100
0001
0010
0001
,
1000
0010
1000
0001
1000
0100
0010
0100
1000
0001
1000
0001
0100
0001
0100
0010
,
0100
0001
0010
0100
0010
0001
0100
0010
0100
0001
0010
0100
1000
0010
0100
0001
,
1000
0010
1000
0001
0010
0001
1000
0100
0010
0001
0100
0010
0100
0001
1000
0010
,
0200
0000
0310
0000
,
0020
0000
1030
0000
,
2000
0000
3001
0000
,
0002
0000
0013
0000
,
2112
0000
0000
0000
,
0000
0000
0000
0000
,
0000
0000
0000
0000
,
0000
0000
0000
3003
;
