#TITLE:Accident;
#SUBTITLE:;
#ARTIST:MAX;
#TITLETRANSLIT:;
#SUBTITLETRANSLIT:;
#ARTISTTRANSLIT:;
#GENRE:;
#CREDIT:;
#MUSIC:Accident.ogg;
#BANNER:Accident.png;
#BACKGROUND:Accident-BG.png;
#CDTITLE:;
#SAMPLESTART:67.094;
#SAMPLELENGTH:12.753;
#SELECTABLE:YES;
#OFFSET:-0.250;
#BPMS:0.000=183.000;
#STOPS:;
#BGCHANGES:;
#FGCHANGES:;

//--------------- dance-single - Alex ----------------
#NOTES:
     dance-single:
     Alex:
     Beginner:
     1:
     0,0,0,0,0:
0000
0000
0000
0000
,
0000
0000
0000
0000
,
0000
0000
0000
0000
,
0010
0000
0000
0000
,
0000
0000
0000
0000
,
0001
0000
0000
0000
,
0000
0000
0000
0000
,
0100
0000
0000
0000
,
0000
0000
0000
0000
,
0010
0000
0000
0000
,
0000
0000
0000
0000
,
1001
0000
0000
0000
,
1000
0000
0000
0000
,
0001
0000
0000
0000
,
0100
0000
0000
0000
,
0100
0000
0000
0000
,
0010
0000
0000
0000
,
0010
0000
0000
0000
,
1000
0000
0000
0000
,
0002
0000
0003
0000
,
0100
0000
0000
0000
,
0020
0000
0030
0000
,
1000
0000
0000
0000
,
0200
0000
0300
0000
,
1000
0000
0000
0000
,
0020
0000
0030
0000
,
1000
0000
0000
0000
,
1001
0000
0000
0000
,
0001
0000
0000
0000
,
1000
0000
0000
0000
,
0010
0000
0000
0000
,
0010
0000
0000
0000
,
0100
0000
0000
0000
,
0200
0000
0000
0000
,
0300
0000
0000
0000
,
1001
0000
0000
0000
,
0001
0000
0000
0000
,
0001
0000
0000
0000
,
1000
0000
0000
0000
,
0010
0000
0000
0000
,
1000
0000
0000
0000
,
0100
0000
0000
0000
,
0100
0000
0000
0000
,
0110
0000
0000
0000
,
0001
0000
0000
0000
,
1000
0000
0000
0000
,
1000
0000
0000
0000
,
0010
0000
0000
0000
,
0010
0000
0000
0000
,
0200
0000
0000
0000
,
0300
0000
0000
0000
,
1001
0000
0000
0000
,
0010
0000
0000
0000
,
1000
0000
0000
0000
,
0001
0000
0000
0000
,
0001
0000
0000
0000
,
0100
0000
0000
0000
,
0010
0000
0000
0000
,
0020
0000
0030
0000
,
1001
0000
0000
0000
,
0001
0000
0000
0000
,
1000
0000
0000
0000
,
1000
0000
0000
0000
,
0010
0000
0000
0000
,
0010
0000
0000
0000
,
0100
0000
0000
0000
,
0001
0000
0000
0000
,
0002
0000
0000
0000
,
0003
0000
0000
0000
,
1001
0000
0000
0000
,
0010
0000
0000
0000
,
1000
0000
0000
0000
,
0100
0000
0000
0000
,
0100
0000
0000
0000
,
1000
0000
0000
0000
,
0001
0000
0000
0000
,
0001
0000
0000
0000
,
1001
0000
0000
0000
;

//--------------- dance-single - Alex ----------------
#NOTES:
     dance-single:
     Alex:
     Easy:
     3:
     0,0,0,0,0:
0000
0000
0000
0000
,
0000
0000
0000
0000
,
0000
0000
0000
0000
,
0002
0000
0003
0000
,
2000
0000
3000
0000
,
0200
0000
0300
0000
,
2000
0000
3000
0000
,
0020
0000
0030
0000
,
2000
0000
3000
0000
,
0002
0000
0003
0000
,
0200
0000
0300
0000
,
1001
0000
0001
0000
,
1000
0000
0001
0000
,
0100
0000
0010
0000
,
0100
0010
0100
0000
,
0001
0000
0010
0000
,
0001
0000
1000
0000
,
0100
0000
1000
0000
,
0001
0001
0100
0100
,
0020
0000
0030
0000
,
1000
0000
0001
0000
,
0020
0000
0030
0000
,
0001
0000
0100
0000
,
0002
0000
0003
0000
,
1000
0000
0100
0000
,
2000
0000
3000
0000
,
1001
0000
0110
0000
,
1001
0000
0001
1000
,
0001
0000
1000
0100
,
1000
0000
0010
1000
,
0010
0000
0010
0100
,
0010
0000
0100
0001
,
0100
0000
0001
1000
,
0010
0000
0100
0000
,
2002
0000
3003
0000
,
0001
0001
0001
0000
,
1001
0000
1001
0000
,
1000
1000
1000
0000
,
1001
0000
0110
0000
,
0010
0010
0010
0000
,
0110
0000
0110
0000
,
0100
0000
0001
0000
,
0200
0000
0300
0000
,
1000
1000
1000
0000
,
1001
0000
1001
0000
,
0010
0010
0010
0000
,
0110
0000
0110
0000
,
0100
0100
0100
0000
,
1001
0000
0110
0000
,
2002
0000
0000
0000
,
3003
0000
0000
0000
,
0001
0000
0001
0000
,
1000
0000
1000
0000
,
0010
0000
0100
0000
,
0001
0100
0001
0000
,
0100
0000
0001
0000
,
1000
0000
1000
0000
,
0001
0000
0010
0000
,
0200
0000
0300
0000
,
1000
1000
1000
0000
,
0010
0010
0010
0000
,
1000
1000
1000
0000
,
0001
0001
0001
0000
,
0100
0100
0100
0000
,
0010
0010
0010
0000
,
1000
1000
1000
0000
,
0001
0000
1000
0000
,
2002
0000
0000
0000
,
3003
0000
0000
0000
,
1001
0000
0001
0000
,
1000
0000
0010
0000
,
1000
0000
0100
0000
,
1000
0000
1000
0000
,
0001
0000
0010
0000
,
0001
0000
0100
0000
,
0010
0000
0010
0000
,
1000
0000
0001
0000
,
1001
0000
0000
0000
;

//--------------- dance-single - Alex ----------------
#NOTES:
     dance-single:
     Alex:
     Medium:
     6:
     0,0,0,0,0:
0000
0000
0000
0000
,
0000
0000
0000
0000
,
0000
0000
0000
0000
,
0002
0000
0003
0000
,
2000
0000
0000
0000
3000
0020
0000
0030
,
0200
0000
0300
0000
,
0002
0000
0003
2000
0000
3000
0020
0030
,
2000
0000
3000
0000
,
0002
0000
0000
0000
0003
0200
0000
0300
,
0002
0000
0003
0000
,
2002
0000
3003
0000
,
0001
0000
1000
0001
0000
0001
1000
0000
,
0010
0000
0100
0010
0000
0010
0100
0000
,
0001
0000
1000
0100
0000
0100
1000
0000
,
0001
0100
0010
0100
,
0001
0000
1000
0010
0000
0010
1000
0000
,
0001
0000
0001
0100
0000
0100
0001
0000
,
1000
0000
0100
1000
0000
1000
0100
0000
,
1100
0000
0000
1100
0000
0000
0011
0000
,
1001
0000
0001
1000
,
0020
0000
0030
0000
0200
0000
0300
0001
,
0020
0000
0000
0000
0030
0000
0000
0001
,
1000
0000
1000
0002
0000
0003
0200
0300
,
0020
0000
0030
1000
,
0002
0000
0000
0003
1000
0000
0100
0000
,
0020
0000
0030
0002
0000
0003
0100
0000
,
0010
0000
0100
0010
0000
0010
0100
0000
,
1001
0001
0100
0010
,
1000
0000
0001
0000
1000
0100
1000
0000
,
0001
0001
0100
0100
,
0010
0000
1000
0000
0001
0010
0001
0000
,
1000
0010
1000
0001
,
0100
0000
0010
0000
1000
0100
1000
0000
,
0001
0100
0010
1000
,
2002
0000
3003
0000
,
0001
0001
0100
0100
,
0110
0000
0010
1000
0000
1000
0100
0000
,
1000
0001
0100
0001
,
1001
1000
0010
0100
,
0110
0010
1000
0100
,
0001
0100
1000
0010
,
1000
0001
0100
0010
,
1001
0000
0000
0110
0000
0000
1001
0000
,
0001
0100
0010
0100
,
0101
0000
0001
1000
0000
1000
0001
0000
,
1000
0010
1000
0001
,
0010
0010
0001
0100
,
0110
0010
0100
0001
,
1000
0000
0001
0100
0000
0100
0001
0000
,
2000
0000
3000
0020
0000
0000
0030
0000
,
0220
0000
0330
0000
,
0100
0000
0001
0100
0000
0100
0001
0000
,
1000
0000
0100
1000
0000
1000
0100
0000
,
1000
0000
0010
1000
0000
1000
0010
0000
,
1000
1000
0001
0001
,
0100
0000
0001
0010
0000
0010
0001
0000
,
0100
0000
0010
0100
0000
0100
0010
0000
,
1000
0000
0001
1000
0000
1000
0001
0000
,
2002
0000
3003
0000
,
0001
0000
1000
0100
0000
0100
1000
0000
,
0010
0000
1000
0010
0000
0010
0100
0000
,
0001
0000
1000
0001
0000
0001
0010
0000
,
0001
0100
0010
1000
,
0001
0000
1000
0001
0000
0001
0100
0000
,
0010
0000
1000
0100
0000
0100
1000
0000
,
0001
0000
0100
0001
0000
0001
0100
0000
,
0110
0000
0000
0101
0000
0000
1001
0000
,
0220
0000
0000
0000
,
0330
0000
0000
0000
,
1000
0100
0010
0001
,
1000
0010
1000
0001
,
0010
0001
0100
0010
,
0100
0001
0010
0100
,
1001
0001
0100
0010
,
1000
0001
0010
0001
,
1000
1000
0010
0010
,
0100
0000
0001
0000
1000
0001
1000
0001
,
0020
0000
0000
0000
,
0030
0000
0000
0000
;

//--------------- dance-single - Alex ----------------
#NOTES:
     dance-single:
     Alex:
     Hard:
     9:
     0,0,0,0,0:
0000
0000
0000
0000
,
0000
0000
0000
0000
,
0000
0000
0000
0000
,
2000
0000
0000
0000
0000
3000
0000
0000
,
0020
0000
0000
0000
0030
0200
0000
0300
,
0002
0000
0000
0000
0000
0003
0000
0000
,
0200
0000
0300
0020
0000
0030
0200
0300
,
0002
0000
0000
0000
0000
0003
0000
0000
,
2000
0000
0000
0000
3000
0200
0000
0300
,
2000
0000
0000
0000
0000
3000
0000
0000
,
2002
0000
0000
0000
3003
0001
1000
0010
,
0100
0000
0001
0010
0000
0010
0001
0100
,
0001
0000
0001
1000
0000
1000
0001
1000
,
0010
0000
0010
1000
0000
1000
0001
0010
,
0100
0000
1000
0000
0001
0000
0200
0000
0000
0300
0010
0000
0010
0000
0100
0000
,
0001
0000
0001
1000
0000
1000
0100
1000
,
0010
0000
0010
1000
0000
1000
0001
0010
,
0001
0000
1000
0001
0000
0100
0010
0100
,
0001
0000
0000
0001
0000
0000
1000
0000
0000
1000
0000
0000
0001
0000
0100
0000
,
0101
0000
0001
0010
,
0200
0000
0000
0300
2000
0000
3000
0010
,
0200
0000
0000
0000
0000
0000
0000
0000
0300
0000
0000
0000
0000
0000
0001
1000
,
0002
0003
1000
0020
0000
0030
0200
0300
,
0002
0000
0000
0000
0003
0000
1000
0100
,
2000
0000
0000
3000
0020
0000
0030
0100
,
0002
0000
0003
2000
0000
3000
0020
0030
,
0100
0000
0001
1000
0000
1000
1001
0000
,
0001
0000
0100
0000
0010
0000
1000
0100
1000
0000
1000
0000
0100
0000
1000
0000
,
0001
0000
0100
0000
0010
0000
0100
0001
0100
0000
0001
0000
0010
0000
0100
0000
,
1000
0000
0001
0000
0100
0000
0010
0100
0010
0000
0100
0000
0001
0000
1000
0000
,
0100
0000
0010
0000
0001
0000
1000
0001
1000
0000
0001
0000
0100
0000
0010
0000
,
0100
0000
0001
0000
0010
0000
0001
0010
0001
0000
0100
0000
0001
0000
1000
0000
,
0010
0000
1000
0000
0001
0000
0100
0010
0100
0000
0001
0000
1000
0000
0100
0000
,
0010
0001
0100
0010
0100
0001
1000
0001
,
2002
0000
3003
0220
0000
0330
1001
0000
,
0001
0100
0010
0100
0001
1000
0010
0100
,
0101
0000
0001
1000
0000
1000
1001
0000
,
0001
1000
0010
1000
0001
0010
0001
0100
,
0110
0000
0010
0100
0001
0010
0100
1000
,
1100
1000
0010
0100
0001
1000
0010
0100
,
0101
0000
0001
0010
0100
1000
0001
0000
,
0100
0001
0100
0010
0100
0001
0010
0100
,
2002
0000
3003
0220
0000
0330
1001
0000
,
0001
0100
0010
0100
0001
0010
0001
1000
,
1010
0000
0010
0100
0000
0100
0110
0000
,
0010
1000
0100
0001
0100
1000
0010
0100
,
0101
0000
0001
1000
0010
0100
0001
0010
,
0110
0010
0001
0100
0010
0100
0001
1000
,
0010
0000
1000
0010
1000
0001
0100
0000
,
0002
0000
0003
0200
0000
0000
0300
0000
,
0220
0000
0000
0000
0330
0010
0100
0001
,
1000
0000
0100
1000
0000
1000
0001
0100
,
0001
0000
1000
0001
0000
0001
1000
0010
,
1000
0000
1000
0001
0000
0001
0100
0010
,
0100
0001
0010
0100
0000
0100
1000
0010
,
1000
0000
1000
0010
0000
0010
0100
0010
,
0100
0000
0100
0001
0000
0001
1000
0001
,
0010
0000
0001
1000
0000
1000
0001
0100
,
0220
0000
0000
0000
0000
0330
0000
0000
,
0010
0100
0001
0200
0300
0010
0010
0100
,
0001
0010
0100
2000
3000
0001
1000
0010
,
1000
0001
0010
0002
0003
0100
0100
0001
,
0010
0100
1000
0002
0003
0100
0100
0001
,
1000
0010
1000
0020
0030
1000
0001
0010
,
0001
1000
0010
2000
3000
0001
0100
0010
,
0100
0001
0010
0200
0300
1000
0010
0100
,
0001
0000
0000
0001
0000
0000
0100
0000
0000
0100
0000
0000
0010
0000
1000
0000
,
1010
0000
0000
0000
,
0220
0000
0330
0000
,
0110
0000
0010
0000
0100
0000
0001
0100
0010
0000
1000
0000
0001
0000
1000
0100
,
1000
0000
0001
0000
0100
0000
0001
0100
0001
0000
0100
0000
0010
0000
0100
0000
,
0001
0000
0010
0000
0100
0000
1000
0100
1000
0000
0010
0000
1000
0000
0001
0010
,
0001
0000
1000
0000
0001
0000
0100
0001
0100
0000
0001
0000
1000
0000
0010
0000
,
1000
0000
1000
0000
0010
0000
0100
0001
0100
0000
0001
0000
0010
0000
0001
0010
,
0001
0000
0100
0000
0010
0000
0100
0010
0100
0000
0001
0000
1000
0000
0100
0000
,
0010
0000
0100
0000
1000
0000
0001
0100
0001
0000
1000
0000
0010
0000
0100
0001
,
0100
0000
0010
0000
1000
0000
0001
0010
0100
0000
1000
0010
0100
0000
0001
0000
,
2002
0000
0000
0000
,
0000
0000
0000
0000
,
3003
0000
0000
0000
;
