#TITLE:strange forest;
#SUBTITLE:;
#ARTIST:Tatsh;
#TITLETRANSLIT:;
#SUBTITLETRANSLIT:;
#ARTISTTRANSLIT:;
#GENRE:;
#CREDIT:;
#MENUCOLOR:#CC6666;
#NEWMETERSYSTEM:NO;
#BANNER:strange forest-bn.png;
#BACKGROUND:strange forest-bg.png;
#LYRICSPATH:;
#CDTITLE:PROJECT VIRIDIAN-cdtitle.png;
#MUSIC:strange forest.mp3;
#OFFSET:-0.020;
#SAMPLESTART:61.660;
#SAMPLELENGTH:12.000;
#SELECTABLE:YES;
#LISTSORT:;
#BPMS:0.000=140.000;
#STOPS:;
#BGCHANGES:;
#ATTACKS:;

//---------------dance-single - ----------------
#NOTES:
     dance-single:
     :
     Easy:
     3:
     0.244,0.260,0.000,0.064,0.018:
0000
0000
0000
0000
,
0000
0000
0000
0000
,
0000
0000
0000
0000
,
0000
0000
0000
0000
,
0001
0001
0100
0000
,
1000
1000
0100
0000
,
0010
0100
0010
0000
,
0001
0100
0001
1000
,
0001
0100
0001
0000
,
1000
0100
1000
0000
,
0001
0100
0001
0000
,
0010
0001
1000
0000
,
0010
1000
0001
0100
,
0001
1000
0100
0000
,
1000
0010
0100
0000
,
0010
0100
0001
1000
,
0001
0010
0100
0000
,
1000
0010
0100
0000
,
0001
0100
0001
2000
,
0100
0000
0100
0000
,
0001
0000
3001
0000
,
0010
0100
0010
0000
,
1000
0001
1000
0000
,
0001
0100
0001
0000
,
1000
0100
0010
0001
,
1000
0100
1000
0000
,
0010
0100
0010
0000
,
0100
0001
0100
0001
,
1000
0000
0010
0000
,
1000
0000
0001
0000
,
0001
0000
0100
0000
,
0010
0000
1000
0000
,
0001
0000
0010
0000
,
0020
0000
0002
0030
,
2000
0003
0020
3000
,
0200
0030
0020
0300
,
1030
1000
0001
0000
,
1000
0100
1000
0000
,
0001
0100
0001
0000
,
0010
0100
0010
0000
,
1000
0100
0010
0000
,
1000
0001
1000
0000
,
0001
0100
0001
0000
,
1000
0010
0100
0001
,
0010
0100
1000
0000
,
1000
1000
0100
0000
,
0001
0001
0100
0000
,
0010
0100
0001
0000
,
0100
0010
1000
0000
,
0001
0010
0100
0000
,
1000
0100
0010
0001
,
0010
0100
1000
1000
,
0001
0010
0100
1000
,
0100
0010
0001
0001
,
1000
0010
0100
0001
,
1000
0100
1000
1000
,
0001
0010
0001
0100
,
0010
1000
0001
0100
,
0001
0000
0100
0000
,
0010
0000
1000
0000
0001
0000
0000
1000
,
0000
1000
0000
0000
0000
0000
0000
0000
0000
0000
0000
0000
0000
0000
0001
0000
,
0000
0001
0000
0000
0000
0000
0000
0000
0000
0000
0000
0000
0000
0000
0100
0000
,
0000
0100
0000
0000
0000
0000
0000
0000
0000
0000
0000
0000
0000
0000
0010
0000
,
0000
0010
0000
0000
0000
0000
0000
0000
0000
0000
0000
0000
0000
0000
0000
0000
;

//---------------dance-single - Copied from----------------
#NOTES:
     dance-single:
     Copied from:
     Beginner:
     1:
     0.080,0.115,0.009,0.037,0.000:
0000
0000
0000
0000
,
0000
0000
0000
0000
,
0000
0000
0000
0000
,
0000
0000
0000
0000
,
0001
0000
0000
0000
,
1000
0000
0000
0000
,
0010
0000
0000
0000
,
0100
0000
0000
0000
,
0001
0000
0000
0000
,
0010
0000
0000
0000
,
0001
0000
0000
0000
,
1000
0000
0000
0000
,
1000
0000
0000
0000
,
0010
0000
0000
0000
,
0100
0000
0000
0000
,
0001
0000
0000
0000
,
1000
0000
0000
0000
,
0010
0000
0000
0000
,
0100
0000
0000
0000
,
0001
0000
0000
0000
,
0001
0000
0000
0000
,
1000
0000
0000
0000
,
0010
0000
0000
0000
,
0100
0000
0000
0000
,
1000
0000
0000
0000
,
0001
0000
0000
0000
,
0010
0000
0000
0000
,
0100
0000
0000
0000
,
2000
0000
0000
0000
,
0000
0000
3000
0000
,
0002
0000
0000
0000
,
0000
0000
0003
0000
,
0020
0000
0000
0000
,
0000
0000
0030
0000
,
0200
0000
0000
0000
,
0000
0000
0300
0000
,
1001
0000
0000
0000
,
0001
0000
0000
0000
,
1000
0000
0000
0000
,
0010
0000
0000
0000
,
0100
0000
0000
0000
,
0001
0000
0000
0000
,
1000
0000
0000
0000
,
0100
0000
0000
0000
,
0010
0000
0000
0000
,
0001
0000
0000
0000
,
0100
0000
0000
0000
,
1000
0000
0000
0000
,
0100
0000
0000
0000
,
0010
0000
0000
0000
,
0100
0000
0000
0000
,
0001
0000
0000
0000
,
1000
0000
0000
0000
,
0010
0000
0000
0000
,
1000
0000
0000
0000
,
0100
0000
0000
0000
,
0010
0000
0000
0000
,
0001
0000
0000
0000
,
1000
0000
0000
0000
,
0010
0000
0000
0000
0000
0000
0000
0010
,
0000
0000
0000
0000
0000
0000
0000
0010
,
0000
0000
0000
0000
0000
0000
0000
0100
,
0000
0000
0000
0000
0000
0000
0000
0100
;

//---------------dance-single - Copied from----------------
#NOTES:
     dance-single:
     Copied from:
     Medium:
     6:
     0.378,0.433,0.018,0.128,0.018:
0000
0000
0000
0000
,
0000
0000
0000
0000
,
0000
0000
0000
0000
,
0000
0000
0000
0000
,
0110
0000
0001
0000
0100
0001
1000
0000
,
0100
0000
1000
0000
0010
0000
1000
0010
,
0100
0000
0001
0000
1000
0000
0001
0010
,
0001
0000
0100
0000
0010
0000
1000
0100
,
0010
0001
0100
0000
0010
0000
1000
0001
,
0100
0000
0010
0000
1000
0000
0001
1000
,
0100
1000
0010
0100
,
0001
0010
0100
1000
,
0010
0100
0001
0100
1000
0100
0010
0000
,
0100
0000
0001
0000
0100
0000
0010
1000
,
0100
1000
0001
0100
,
0001
0100
0010
1000
,
0100
0000
1000
0000
0010
0000
1000
0001
,
1000
0000
0001
0000
0100
0000
0010
1000
,
0010
0100
0001
0010
,
0001
0100
1000
0100
,
0001
0000
1000
0000
0100
0000
1000
0010
,
1000
0000
0001
0000
0100
0000
0001
0010
,
0001
1000
0010
0100
,
0010
1000
0001
0010
,
0100
1000
0010
0100
0001
0000
0010
0001
,
0100
0000
0010
0000
0100
0000
0010
0001
,
1000
0000
0100
0000
1000
0000
0010
1000
,
0100
0000
1000
0000
0001
0000
0100
0010
,
0200
0000
0010
0000
,
0302
0000
1000
0000
,
0203
0000
1000
0000
,
0302
0000
0100
0000
,
0023
0000
0001
0000
,
0230
0000
0010
0000
,
2300
0000
0001
0000
,
3002
0000
0000
0000
0010
0000
0000
0003
,
0101
0000
1000
0000
0100
0000
1000
0010
,
0100
0000
0001
0000
0010
0000
0001
1000
,
0001
0000
0100
0000
0010
0000
1000
0100
,
0010
0000
0001
0000
0100
0000
0010
0100
,
0001
0000
0100
0000
0010
0000
1000
0001
,
0010
0000
0001
0000
0100
0000
1000
0100
,
0010
0000
0100
0000
0010
0000
1000
0100
,
0010
0000
0001
0000
0100
0000
0001
0100
,
0001
0000
0010
0000
0100
0000
0010
1000
,
0002
0000
0103
0000
0010
0000
1000
0010
,
0200
0000
0301
0000
1000
0000
0001
0100
,
0020
0000
1030
0000
0100
0000
1000
0010
,
0002
0000
0013
0000
0100
0000
0010
1000
,
2000
0000
3001
0000
0010
0000
1000
0100
,
0020
0000
0030
0000
0100
1000
0010
0100
,
0001
0000
1000
0000
0010
1000
0001
0100
,
0010
0000
0100
0001
0010
0100
1000
0000
,
0010
1000
0001
1000
0100
0000
1000
0000
,
0001
0100
1000
0100
0001
0000
1000
0100
,
0010
0100
1000
0000
0001
0100
0010
0100
,
1000
0000
0100
0001
0100
0010
1000
0000
,
0001
1000
0100
0010
0001
0000
0100
0010
,
0100
1000
0100
0000
0001
0000
1000
0100
,
0010
0001
0100
0000
0010
0010
1000
0001
,
0000
1000
0000
0000
0000
0000
0000
0000
0000
0000
0000
0000
0000
0000
1000
0000
,
0000
0001
0000
0000
0000
0000
0000
0000
0000
0000
0000
0000
0000
0000
0001
0000
,
0000
0100
0000
0000
0000
0000
0000
0000
0000
0000
0000
0000
0000
0000
1000
0000
,
0000
0100
0000
0000
0000
0000
0000
0000
0000
0000
0000
0000
0000
0000
0000
0000
;

//---------------dance-single - Copied from----------------
#NOTES:
     dance-single:
     Copied from:
     Hard:
     8:
     0.533,0.490,0.091,0.393,0.101: // measure 1
0000
0000
0000
0000
,  // measure 2
0000
0000
0000
0000
,  // measure 3
0000
0000
0000
0000
,  // measure 4
0000
0000
0000
0000
,  // measure 5
0110
0000
0001
0100
0001
1000
0100
0020
,  // measure 6
0100
0000
1000
0000
0130
0000
0010
0200
,  // measure 7
1000
0000
1000
0000
0310
0000
0010
0100
,  // measure 8
0010
0001
1000
0000
1000
0000
0001
0010
,  // measure 9
0100
1000
0010
0100
0001
0000
1000
0200
,  // measure 10
1000
0000
1000
0000
0310
0000
0100
0020
,  // measure 11
0001
0000
0001
0000
0130
0000
0001
0100
,  // measure 12
0010
1000
0100
0001
0100
0000
1000
0010
,  // measure 13
0100
0001
0100
0010
1000
0000
0001
0200
,  // measure 14
0001
0000
0001
0000
0310
0000
0010
2000
,  // measure 15
0100
0000
0001
0000
3100
0000
0010
0100
,  // measure 16
0001
1000
0100
0000
0010
0000
0001
1000
,  // measure 17
0001
0100
0010
1000
0001
0000
1000
0020
,  // measure 18
1000
0000
0100
0000
0130
0000
1000
0002
,  // measure 19
0100
0000
0100
0000
1003
0000
0010
0100
,  // measure 20
0001
0000
1000
0100
0010
0000
0001
0100
,  // measure 21
0010
1000
0100
0010
0001
0000
0100
0020
,  // measure 22
0100
0000
1000
0000
0001
0030
0100
0002
,  // measure 23
1000
0000
0100
0000
0013
0000
0001
1000
,  // measure 24
0100
0000
1000
0000
0010
0000
0100
0001
,  // measure 25
1000
0000
0010
0000
0100
0000
0001
0000
0010
0000
0000
0000
0001
1000
0001
0000
,  // measure 26
0200
0000
0000
0000
0310
0000
0100
0000
0001
0000
0000
0000
1000
0010
1000
0000
,  // measure 27
0020
0000
0000
0000
0130
0000
0001
0000
1000
0000
0000
0000
0010
0100
0001
0000
,  // measure 28
0020
0000
0000
0000
0130
0000
1000
0000
0010
0000
0000
0000
0100
0010
1000
0000
,  // measure 29
0002
0103
2000
3010
,  // measure 30
0200
0301
0002
0013
,  // measure 31
0020
0130
2000
3001
,  // measure 32
0020
1030
0002
0103
,  // measure 33
2000
3010
0200
0310
,  // measure 34
0002
0013
0200
0301
,  // measure 35
2000
3100
0002
0013
,  // measure 36
0200
0310
0002
0103
,  // measure 37
1001
0000
0000
0000
0010
0000
0100
0000
0010
0000
0000
0000
1000
0100
0010
0000
,  // measure 38
0002
0000
0000
0000
0103
0000
0010
0000
1000
0000
0000
0000
0001
0100
0001
0000
,  // measure 39
2000
0000
0000
0000
3010
0000
0100
0000
0001
0000
0000
0000
0100
0010
1000
0000
,  // measure 40
0200
0000
0000
0000
0310
0000
0001
0000
1000
0000
0000
0000
0001
0100
0001
0000
,  // measure 41
2000
0000
0000
0000
3010
0000
0100
0000
0010
0000
0000
0000
0100
0001
1000
0000
,  // measure 42
0020
0000
0000
0000
0130
0000
0010
0000
1000
0000
0000
0000
0001
0010
0100
0000
,  // measure 43
2000
0000
0000
0000
3100
0000
1000
0000
0010
0000
0000
0000
0100
0001
0100
0000
,  // measure 44
0002
0000
0000
0000
0013
0000
1000
0000
0010
0000
0000
0000
0001
0100
1000
0000
,  // measure 45
0200
0000
0000
0000
0310
0000
1000
0000
0001
0000
0000
0000
1000
0001
1000
0000
,  // measure 46
2000
0000
0000
0000
3010
0000
0100
0000
0010
0000
0000
0000
0100
0001
0010
0000
,  // measure 47
0002
0000
0000
0000
1003
0000
0010
0000
0100
0000
0000
0000
0010
1000
0010
0000
,  // measure 48
0200
0000
0000
0000
0301
0000
0010
0000
1000
0000
0000
0000
0010
0001
0010
0000
,  // measure 49
0002
0000
0000
0000
0103
0000
0001
0000
1000
0000
0000
0000
1000
0100
0010
0000
,  // measure 50
0002
0000
0000
0000
0103
0000
0010
0000
1000
0000
0000
0000
0001
0100
0001
0000
,  // measure 51
2000
0000
3100
0010
0001
0100
0010
1000
,  // measure 52
0001
0100
1000
0100
0010
1000
0001
0000
,  // measure 53
0010
0001
0100
1000
0100
0010
0100
0001
,  // measure 54
0010
0100
1000
0010
0001
0010
1000
0000
,  // measure 55
0100
1000
0010
0100
0001
0010
0100
1000
,  // measure 56
0001
0100
1000
0001
0010
1000
0001
0000
,  // measure 57
1000
0100
0010
0001
1000
0010
0100
0010
,  // measure 58
0100
0001
0010
0100
1000
0001
0100
0000
,  // measure 59
0001
0100
1000
0100
0001
0010
1000
0100
,  // measure 60
0001
1000
0100
0010
0001
1000
0000
1100
,  // measure 61
0000
1100
0000
0000
0000
0000
0000
0000
0000
0000
0000
0000
0000
0000
0011
0000
,  // measure 62
0000
0011
0000
0000
0000
0000
0000
0000
0000
0000
0000
0000
0000
0000
0110
0000
,  // measure 63
0000
0110
0000
0000
0000
0000
0000
0000
0000
0000
0000
0000
0000
0000
1001
0000
,  // measure 64
0000
1001
0000
0000
0000
0000
0000
0000
0000
0000
0000
0000
0000
0000
0000
0000
;
