#TITLE:stamp on the ground;
#SUBTITLE:;
#ARTIST:italobrothers;
#TITLETRANSLIT:;
#SUBTITLETRANSLIT:;
#ARTISTTRANSLIT:;
#GENRE:;
#CREDIT:;
#MENUCOLOR:#CC6666;
#NEWMETERSYSTEM:NO;
#BANNER:stamp on the ground-bn.png;
#BACKGROUND:stamp on the ground-bg.png;
#LYRICSPATH:stamp on the ground.lrc;
#CDTITLE:PROJECT VIRIDIAN-cdtitle.png;
#MUSIC:stamp on the ground.mp3;
#OFFSET:-0.040;
#SAMPLESTART:83.040;
#SAMPLELENGTH:13.140;
#SELECTABLE:YES;
#LISTSORT:;
#BPMS:0.000=150.000;
#STOPS:;
#BGCHANGES:;
#ATTACKS:;

//---------------dance-single - ----------------
#NOTES:
     dance-single:
     :
     Easy:
     4:
     0.340,0.428,0.340,0.073,0.000:
0000
0000
0000
0000
,
0000
0000
0000
0000
,
0000
0000
0000
0000
,
0000
0000
0000
0000
,
0010
0010
0010
0000
,
1000
0100
0001
0010
,
1000
0001
1000
0000
,
0001
0001
0011
0000
,
1000
1000
1000
0000
,
0010
1000
0010
0001
,
0010
1000
0100
0001
,
1000
0000
1000
0000
,
0001
0001
0011
0000
,
1000
1000
1010
0000
,
0001
0001
0101
0000
,
1000
1000
1100
0000
,
0010
0100
0110
0000
,
0001
1000
1001
0000
,
1000
0100
0001
0100
,
0020
0000
0100
0130
,
0110
1010
0110
0000
,
0001
0100
0001
0100
,
0011
0101
0011
0000
,
1000
0001
1000
0000
,
0010
1000
0010
0100
,
0001
0001
1000
0000
,
0010
0100
0010
1000
,
0002
0100
1003
0000
,
1001
0001
0011
0000
,
0001
0100
1000
0100
,
1001
1000
1100
0000
,
0010
0100
0010
0000
,
0001
0010
0001
0100
,
1000
0100
1000
0010
,
0001
0100
1000
0100
,
0001
1000
0001
0001
,
2000
0000
3000
1100
,
0010
0010
0100
0100
,
0001
0001
0010
0010
,
0100
0100
1000
1000
,
0010
1000
0001
0100
,
0010
1000
0001
0010
,
0100
1000
0010
0100
,
1001
0000
0000
0000
,
0010
0010
0010
0000
,
0001
0100
0001
1000
,
0100
0001
0010
1000
,
0100
0100
0100
0000
,
1000
1000
1000
0000
,
0001
0100
1000
0100
,
0001
0010
1000
0100
,
0002
0000
1000
0013
,
0100
0010
1000
0100
,
1000
0010
0010
0100
,
0001
0010
0001
1000
,
0100
0100
1000
0000
,
0010
1000
0010
0010
,
0100
0001
1000
0100
,
0010
0010
0100
1000
,
0002
0100
1003
0000
,
1001
0011
1001
0000
,
1000
0100
1000
0001
,
1001
1010
1001
0000
,
0010
0010
0010
0000
,
0110
0101
0110
0000
,
0010
0100
0001
0100
,
0110
1010
0110
0000
,
2002
3003
0010
0010
,
0100
0010
0100
0001
,
0100
1000
0100
0001
,
1000
0100
0010
0100
,
1000
1000
0001
0000
,
0110
0110
1001
0000
,
1001
0110
0110
0000
,
1001
0110
1001
0000
,
2002
0000
3003
0000
;

//---------------dance-single - Copied from----------------
#NOTES:
     dance-single:
     Copied from:
     Beginner:
     2:
     0.151,0.214,0.024,0.024,0.000:
0000
0000
0000
0000
,
0000
0000
0000
0000
,
0000
0000
0000
0000
,
0000
0000
0000
0000
,
0001
0000
0001
0000
,
1000
0000
1000
0000
,
0010
0000
0010
0000
,
0100
0000
0000
0000
,
0010
0000
0010
0000
,
1000
0000
1000
0000
,
0001
0000
0001
0000
,
0100
0000
0000
0000
,
0010
0000
0000
0000
,
1000
0000
0000
0000
,
0100
0000
0000
0000
,
0001
0000
0000
0000
,
0010
0000
0000
0000
,
0100
0000
0000
0000
,
0001
0000
0000
0000
,
1001
0000
0000
0000
,
0100
0100
0100
0000
,
0010
0000
0010
0000
,
0001
0001
0001
0000
,
1000
0000
1000
0000
,
0100
0100
0100
0000
,
1000
0000
0001
0000
,
0010
0010
0010
0000
,
0001
0000
0000
0000
,
1000
1000
1000
0000
,
0010
0000
0010
0000
,
0100
0100
0100
0000
,
0001
0000
0001
0000
,
0010
0010
0010
0000
,
0100
0000
1000
0000
,
0001
0001
0001
0000
,
1000
0000
0000
0000
,
0010
0000
0000
0000
,
0100
0000
0000
0000
,
0001
0000
0000
0000
,
1000
0000
0000
0000
,
0100
0000
0000
0000
,
0010
0000
0000
0000
,
0100
0000
0000
0000
,
0002
0000
0003
0000
,
1000
0000
0000
0000
,
0100
0000
0000
0000
,
0001
0000
0000
0000
,
0010
0000
0000
0000
,
1000
0000
0000
0000
,
0010
0000
0000
0000
,
0100
0000
0000
0000
,
1001
0000
0000
0000
,
0010
0000
0100
0000
,
0010
0000
0000
0000
,
1000
0000
0100
0000
,
1000
0000
0000
0000
,
0001
0000
0100
0000
,
0001
0000
0000
0000
,
0010
0000
0100
0000
,
0010
0000
0000
0000
,
0001
0001
0001
0000
,
0100
0000
0000
0000
,
1000
1000
1000
0000
,
0010
0000
0000
0000
,
0100
0100
0100
0000
,
0010
0000
0100
0000
,
0001
0001
0001
0000
,
0100
0000
0000
0000
,
1000
1000
1000
0000
,
0010
0000
0100
0000
,
0001
0001
0001
0000
,
0010
0000
1000
0000
,
0100
0100
0100
0000
,
0001
0000
1000
0000
,
0010
0010
0010
0000
,
0220
0000
0330
0000
;

//---------------dance-single - Copied from----------------
#NOTES:
     dance-single:
     Copied from:
     Medium:
     6:
     0.415,0.428,0.243,0.170,0.146:
0000
0000
0000
0000
,
0000
0000
0000
0000
,
0000
0000
0000
0000
,
0000
0000
0000
0000
,
1000
0000
0000
1000
0000
1000
0100
0000
0000
0010
0000
0000
,
0002
0203
0320
2030
,
3001
0000
0001
0100
0000
0000
1000
0000
0000
0100
0000
0000
,
1000
0000
0000
1000
0000
0010
1000
0000
0000
0100
0000
0000
,
0010
0000
0000
0010
0000
0100
0010
0000
0000
0001
0000
0000
,
2000
3002
0203
0320
,
1030
0000
0000
1000
0000
0001
0100
0000
0000
0010
0000
0000
,
1000
0000
0100
0010
0000
0010
0001
0000
0000
0100
0000
0000
,
0001
0100
0101
1000
,
0010
1000
1100
0110
,
0001
0010
0110
0001
,
1000
0001
0101
0000
,
1000
0100
1010
0100
,
1000
0001
0011
0110
,
1000
0010
1001
0100
,
0020
0000
0000
0000
0000
0000
1030
0000
1000
0001
0000
0001
,
0100
0010
0010
1000
,
0100
0000
0000
1000
0000
0000
0001
0000
0000
0100
0000
0001
,
0010
0100
0100
0010
,
1000
0000
0000
0010
0000
0001
0100
0000
0000
0010
0000
1000
,
0100
1000
0010
0100
,
0010
0000
0000
1000
0000
0000
0001
0000
0000
0010
0000
0100
,
1000
0010
0100
0001
,
2000
0000
3001
1001
,
0101
1000
0010
0100
,
0001
0000
0000
0001
0000
0000
1000
0000
0000
0100
0000
1000
,
0010
0100
0001
1000
,
0010
0000
0000
0100
0000
0001
0010
0000
0000
0100
0000
1000
,
0010
0100
0001
1000
,
0001
0000
0000
0010
0000
0000
0010
0000
0000
0100
0000
0010
,
0100
1000
0010
0100
,
0002
0100
1000
0103
,
1001
0000
0000
0110
,
0010
1000
0010
1000
,
0001
0100
0001
0100
,
0010
1000
0100
0010
,
0001
1000
0001
0010
,
0100
0100
1000
1000
,
0010
0000
0000
1000
0000
0000
0001
0000
0000
0100
0000
0010
,
2000
3200
0320
0030
,
0101
0000
0000
0100
0000
0001
1000
0000
0000
0000
0000
0000
,
1000
0100
1000
0100
,
1000
0000
0000
0010
0000
0100
0001
0000
0000
0000
0000
0000
,
0010
0010
0010
0000
,
0100
0000
0000
0010
0000
1000
0100
0000
0000
0000
0000
0000
,
1000
0001
0010
0001
,
0100
0000
0000
0001
0000
0010
0100
0000
0000
0000
0000
0000
,
1000
0000
1000
0001
0000
0001
1000
0000
0000
0010
0000
0000
,
1001
0000
0000
0100
0000
0100
0001
0000
0000
1000
0000
0000
,
0001
0002
0013
0020
,
0130
0000
0100
1000
0000
0000
0010
0000
0000
1000
0000
0000
,
0001
0000
0000
0001
0000
1000
0100
0000
0000
0000
0000
0000
,
1000
0000
0000
0010
0000
0100
0010
0000
0000
0100
0000
0000
,
0002
0013
2000
3010
,
0100
0000
0001
0100
0000
0000
0010
0000
0000
1000
0000
0000
,
0100
0000
1000
0100
0000
0100
0010
0000
0000
0100
0000
0000
,
0100
1000
1001
0010
,
0001
0100
0101
0011
,
1000
0100
1010
0100
,
1000
0101
1100
0000
,
0100
1000
1001
0010
,
0100
1000
0110
0101
,
0010
0001
0101
0100
,
0020
0000
0000
0000
0000
0000
1030
0000
0001
0100
0000
0001
,
1000
0100
0001
0100
,
1000
0000
0000
0001
0000
0000
0010
0000
0000
0001
0000
0001
,
1000
0010
0100
0001
,
1000
0000
0000
0100
0000
1000
0010
0000
0000
0100
0000
0001
,
1000
0100
1001
0010
,
0100
0001
0011
1010
,
0100
0001
1010
0100
,
2002
0000
3003
0000
;

//---------------dance-single - Copied from----------------
#NOTES:
     dance-single:
     Copied from:
     Hard:
     8:
     0.576,0.643,0.640,0.073,0.519: // measure 1
0000
0000
0000
0000
,  // measure 2
0000
0000
0000
0000
,  // measure 3
0000
0000
0000
0000
,  // measure 4
0000
0000
0000
0000
,  // measure 5
0001
0000
0000
0100
0000
0001
1000
0000
0000
0100
0000
0000
,  // measure 6
1000
0000
1000
0010
0000
0010
0100
0000
0100
0001
0000
0001
,  // measure 7
0010
0000
0100
1000
0000
0010
0100
0000
0000
0001
0000
0000
,  // measure 8
1000
0000
0000
1000
0000
1000
0100
0000
0000
0010
0000
0100
,  // measure 9
1000
0000
0000
0001
0000
0100
0001
0000
0000
1000
0000
0000
,  // measure 10
0010
0000
0010
0100
0000
0100
0001
0000
0001
1000
0000
1000
,  // measure 11
0001
0000
0100
0001
0000
1000
0100
0000
0000
0010
0000
0000
,  // measure 12
0100
0000
0100
0010
0000
0010
0001
0000
0000
1000
0000
0000
,  // measure 13
0001
0101
1100
0010
,  // measure 14
1000
0000
0000
1010
0000
0000
0101
0000
0000
0011
0000
1000
,  // measure 15
0100
0011
1001
0100
,  // measure 16
1000
0000
0000
0010
0000
0100
0001
0000
0000
1000
0000
0001
,  // measure 17
0100
1010
0101
1000
,  // measure 18
0001
0000
0000
0011
0000
0000
0110
0000
0000
1100
0000
1000
,  // measure 19
0100
0010
1001
0100
,  // measure 20
0002
0000
0000
0000
0000
0000
1003
0000
1000
0100
0000
0001
,  // measure 21
0100
0010
1001
0010
,  // measure 22
1000
0000
0000
0001
0000
0000
0100
0000
0000
0010
0000
1000
,  // measure 23
0100
0011
1100
0010
,  // measure 24
1000
0000
0000
0001
0000
0100
0010
0000
0000
1000
0010
1000
,  // measure 25
0100
0011
1100
0010
,  // measure 26
0100
0000
0000
1001
0000
0000
1010
0000
0000
0101
0000
0100
,  // measure 27
0010
1010
0011
0100
,  // measure 28
0001
0000
0001
0010
0000
0010
0100
0000
0000
1000
0100
0010
,  // measure 29
0001
0101
1100
0010
,  // measure 30
0100
0000
0000
1001
0000
0000
0101
0000
0000
1100
0000
0010
,  // measure 31
0100
0011
1100
0001
,  // measure 32
1000
0000
1000
0010
0000
0100
0001
0000
0000
1000
0000
0001
,  // measure 33
0100
0101
0110
1000
,  // measure 34
0100
0000
0000
1001
0000
0000
0101
0000
0000
1001
0000
0010
,  // measure 35
0100
0011
1010
0100
,  // measure 36
1000
0000
1000
0010
0000
0010
0100
0000
0000
0001
0000
1000
,  // measure 37
0020
0100
0130
1001
,  // measure 38
0100
0000
0100
1000
0000
1000
0010
0000
0100
0001
0000
1000
,  // measure 39
0010
0000
0010
0100
0000
0100
0001
0000
1000
0100
0000
0010
,  // measure 40
0100
0000
0100
1000
0000
1000
0001
0000
0100
0001
0000
1000
,  // measure 41
0001
0000
0001
0010
0000
0010
0100
0000
1000
0010
0000
0100
,  // measure 42
0001
0000
0001
1000
0000
1000
0010
0000
1000
0100
0000
0010
,  // measure 43
0100
0000
0100
1000
0000
1000
0010
0000
0100
0001
0000
0010
,  // measure 44
0002
1000
0200
0303
,  // measure 45
0010
0000
0000
0100
0000
0001
0010
0000
0000
0100
0000
0000
,  // measure 46
1100
1010
0011
0101
,  // measure 47
0100
0000
0000
0010
0000
1000
0010
0000
0000
0100
0000
0000
,  // measure 48
0001
0000
0000
0001
0000
0001
0010
0000
0000
0100
0000
1000
,  // measure 49
0010
0000
0000
0100
0000
0001
1000
0000
0000
0001
0000
0000
,  // measure 50
0110
0000
0000
0011
0000
0000
1100
0000
0000
1001
0000
0100
,  // measure 51
1000
0000
0000
0010
0000
0100
0010
0000
0000
1000
0000
0000
,  // measure 52
0202
0000
0000
0303
0000
0000
0010
0000
1000
0010
0000
0000
,  // measure 53
0100
0010
0100
0010
0100
0001
0100
0001
0100
0010
0000
0000
,  // measure 54
0100
0010
0100
0010
0100
0010
1000
0100
1000
0100
0000
0000
,  // measure 55
0001
0100
0001
0100
0001
0010
0001
0010
0001
1000
0000
0000
,  // measure 56
1000
0000
0000
1000
0000
1000
0100
0000
0000
0010
0000
1000
,  // measure 57
0001
0100
0001
0100
0010
0100
0010
1000
0010
1000
0000
0000
,  // measure 58
1000
0100
1000
0100
0010
0100
0010
0001
0010
0001
0000
0000
,  // measure 59
0100
0001
0100
0001
1000
0010
1000
0010
0100
0001
0000
0000
,  // measure 60
1000
0000
1000
0001
0000
0001
0010
0000
0001
1000
0000
1000
,  // measure 61
0001
0101
1010
0100
,  // measure 62
0011
0000
0000
1100
0000
0000
0110
0000
0000
1010
0000
0001
,  // measure 63
0100
1100
0101
0010
,  // measure 64
0100
0000
0000
0010
0000
0100
0010
0000
0000
1000
0100
1000
,  // measure 65
0010
0101
1010
0100
,  // measure 66
0001
0000
0000
0011
0000
0000
1100
0000
0000
1010
0000
0100
,  // measure 67
0010
0101
1010
0100
,  // measure 68
2002
0000
0000
3003
0000
0000
0001
0000
0001
0010
0000
0010
,  // measure 69
0100
1010
1100
0010
,  // measure 70
1100
0000
0000
0101
0000
0000
0011
0000
0000
0110
0000
0001
,  // measure 71
0100
0101
0011
0100
,  // measure 72
0010
0000
0000
1000
0000
1000
0100
0000
0000
0001
0100
0010
,  // measure 73
1000
1100
0101
0010
,  // measure 74
0101
0000
0000
1010
0000
0000
1001
0000
0000
0110
0000
0100
,  // measure 75
0001
0000
0000
1100
0000
0000
0011
0000
0000
1000
0000
0001
,  // measure 76
0020
0000
0030
0000
;
