#TITLE:smooooch ・∀・;
#SUBTITLE:-秋葉工房 mix-;
#ARTIST:kors k remixed by DJ Command;
#TITLETRANSLIT:;
#SUBTITLETRANSLIT:-Akiba Koubou mix-;
#ARTISTTRANSLIT:;
#GENRE:;
#CREDIT:;
#MENUCOLOR:#00FF00;
#NEWMETERSYSTEM:NO;
#BANNER:smooooch -Akiba Koubou mix-bn.png;
#BACKGROUND:smooooch -Akiba Koubou mix-bg.png;
#LYRICSPATH:;
#CDTITLE:PROJECT VIRIDIAN-cdtitle.png;
#MUSIC:smooooch (Akiba Koubou mix).mp3;
#OFFSET:-0.440;
#SAMPLESTART:33.880;
#SAMPLELENGTH:11.300;
#SELECTABLE:YES;
#LISTSORT:;
#BPMS:0.000=172.000,224.000=86.000,240.000=172.000;
#STOPS:;
#BGCHANGES:;
#ATTACKS:;

//---------------dance-single - ----------------
#NOTES:
     dance-single:
     :
     Easy:
     3:
     0.263,0.369,0.087,0.157,0.000:
0000
0000
0000
0000
,
0000
0000
0000
0000
,
0000
0000
0000
0000
,
0000
0000
0000
0000
,
0000
0000
0000
0000
,
0000
0000
0000
0000
,
0000
0000
0000
0000
,
0000
0000
0000
0000
,
0001
0100
0001
0000
,
1000
1000
0100
0000
,
0010
0100
1000
0000
,
0001
0000
0100
0000
,
0010
0100
0010
0000
,
1000
0100
0001
0000
,
0100
0000
0100
0000
,
0010
0010
0010
0010
,
1001
0100
0100
0000
,
1000
0010
1000
0000
,
0001
0000
0100
0000
,
0010
1000
0001
0010
,
0100
0000
0010
0000
,
0100
0100
1000
0000
,
0001
0000
0100
0000
,
0010
0100
0010
0000
,
0002
1000
1003
0000
,
1000
0100
0010
0000
,
2000
0100
3100
0000
,
0001
0010
0100
0000
,
0010
0000
0001
0000
,
0100
1000
0100
0000
,
0010
0000
1000
0000
,
0010
1000
0001
0000
,
0100
0100
1000
0000
,
0100
0010
0100
0000
,
0001
0000
0100
0000
,
0010
1000
0010
0000
,
0001
0000
0010
0000
,
0001
0010
0100
0000
,
0010
0000
1000
0000
,
0010
0001
0100
0000
,
0020
0000
0130
0000
,
2000
0000
3100
0000
,
0002
0000
0103
0000
,
0010
0100
0110
0000
,
0200
0000
0310
0000
,
0002
0000
0103
0000
,
2000
0000
3100
0000
,
1000
1000
1000
1000
,
1001
0000
0100
0000
,
0110
0010
0110
0000
,
0001
0000
0100
0000
,
1100
1000
1100
0000
,
0100
0000
0010
0000
,
0101
0001
0101
0000
,
1000
0000
0001
0000
,
0010
0010
0010
0010
,
0120
0000
2030
0000
,
3002
0000
0203
0001
,
0320
0000
2030
0000
,
3200
0000
0000
0000
0000
0000
0000
0000
0320
0000
0000
0000
0000
0000
0000
0030
,
0001
0100
0001
0000
,
1000
1000
0100
0000
,
1000
0000
0010
0000
,
0001
0010
1000
0000
,
0001
0000
0100
0000
,
0001
1000
0001
0000
,
0200
0000
0320
0000
,
1030
1000
0001
0001
,
1000
0100
1000
0000
,
0001
0001
0010
0000
,
0001
0000
0100
0000
,
0010
1000
0001
0000
,
1000
0100
0010
0000
,
0100
0010
0001
0000
,
1000
0000
0010
0000
,
0100
0100
0100
0100
,
0010
0000
0100
0000
,
0001
0010
0001
0000
,
1000
0000
0100
0000
,
1000
0010
1000
0000
,
0001
0000
0010
0000
,
0100
0010
0001
0000
,
1000
0000
0001
0000
,
0100
0010
1000
0000
,
0220
0000
0000
0000
,
0000
0330
0000
0000
;

//---------------dance-single - Copied from----------------
#NOTES:
     dance-single:
     Copied from:
     Beginner:
     1:
     0.123,0.165,0.016,0.118,0.000:
0000
0000
0000
0000
,
0000
0000
0000
0000
,
0000
0000
0000
0000
,
0000
0000
0000
0000
,
0000
0000
0000
0000
,
0000
0000
0000
0000
,
0000
0000
0000
0000
,
0000
0000
0000
0000
,
0100
0000
0100
0000
,
0010
0000
0000
0000
,
1000
0000
0000
0000
,
0001
0000
0000
0000
,
0010
0000
0010
0000
,
0001
0000
0000
0000
,
1000
0000
0000
0000
,
0200
0000
0300
0000
,
1001
0000
0000
0000
,
0010
0000
0000
0000
,
0100
0000
0000
0000
,
0001
0000
0010
0000
,
1000
0000
0000
0000
,
0010
0000
0000
0000
,
0100
0000
0000
0000
,
0010
0000
0010
0000
,
0010
0000
0000
0000
,
0100
0000
0000
0000
,
1000
0000
0000
0000
,
0200
0000
0300
0000
,
1000
0000
0000
0000
,
0001
0000
0000
0000
,
0010
0000
0100
0000
,
0001
0000
0000
0000
,
0010
0000
0000
0000
,
0100
0000
0000
0000
,
1000
0000
0000
0000
,
0001
0000
0000
0000
,
1000
0000
0000
0000
,
0010
0000
0000
0000
,
0100
0000
0000
0000
,
0100
0000
0000
0000
,
0002
0000
0003
0000
,
0200
0000
0300
0000
,
0020
0000
0030
0000
,
2000
0000
3000
0000
,
0002
0000
0003
0000
,
0200
0000
0300
0000
,
0002
0000
0003
0000
,
0020
0000
0030
0000
,
1000
0000
1000
0000
,
2000
0000
3000
0000
,
0100
0000
0100
0000
,
0200
0000
0300
0000
,
0010
0000
0010
0000
,
0020
0000
0030
0000
,
0001
0000
0001
0000
,
0002
0000
0003
0000
,
1000
0000
0010
0000
,
0001
0000
0100
0000
,
1000
0000
0010
0000
,
0100
0000
0001
0000
,
1000
0000
0000
0000
,
1000
0000
0000
0000
,
0010
0000
0000
0000
,
0001
0000
0000
0000
,
0100
0000
0000
0000
,
1000
0000
0000
0000
,
0010
0000
0000
0000
,
0200
0000
0300
0000
,
0010
0000
0000
0000
,
1000
0000
0000
0000
,
0001
0000
0000
0000
,
0010
0000
0000
0000
,
0001
0000
0000
0000
,
0100
0000
0000
0000
,
1000
0000
0000
0000
,
0010
0000
0000
0000
,
1000
0000
0000
0000
,
0100
0000
0000
0000
,
1000
0000
0000
0000
,
0010
0000
0100
0000
,
0001
0000
0000
0000
,
0010
0000
0000
0000
,
0100
0000
0000
0000
,
1000
0000
0100
0000
,
1001
0000
0000
0000
;

//---------------dance-single - Copied from----------------
#NOTES:
     dance-single:
     Copied from:
     Medium:
     7:
     0.515,0.570,0.189,0.110,0.000:
0000
0000
0000
0000
,
0000
0000
0000
0000
,
0000
0000
0000
0000
,
0000
0000
0000
0000
,
0000
0000
0000
0000
,
0000
0000
0000
0000
,
0000
0000
0000
0000
,
0000
0000
0000
0000
,
1000
0000
0001
0100
0001
0000
0000
1000
,
0000
1000
0000
0100
0010
0000
0100
1000
,
0010
0000
0100
0000
0001
1000
0000
0001
,
0000
0010
0000
0010
0001
0000
0100
0000
,
0001
0000
1000
0010
1000
0000
0001
0100
,
0000
0100
0000
0010
1000
0000
0100
0000
,
1000
0010
0100
0000
0001
0010
0100
0000
,
0010
0000
0010
0000
1001
0000
1001
0010
,
0100
0000
0100
1000
0010
0000
0100
0001
,
0000
1000
0000
0001
0010
0000
0100
1000
,
0001
0000
0001
0000
1000
0001
0000
0100
,
0000
0010
1000
0100
0010
0001
0100
0000
,
0010
0000
0100
0010
1000
0000
0010
0100
,
0000
0100
0000
0010
1000
0000
0001
0000
,
0100
0001
0010
0001
0100
0001
0010
0001
,
0100
0000
0010
1000
0100
0000
1001
0000
,
0100
1000
0000
0010
0000
0100
0000
0001
,
1000
0001
0000
0100
0001
0000
1000
0010
,
1000
0000
0100
1000
0000
0010
0000
1000
,
0000
0100
1000
0010
0100
0000
0101
0000
,
1000
0100
0000
1000
0000
0010
0000
0100
,
0001
0010
0000
0010
0000
0100
1000
0010
,
0100
0000
0001
1000
0000
0001
0000
0100
,
0001
0010
0100
1000
0001
0000
1001
0000
,
0100
1000
0010
0000
0100
0100
0010
0000
,
0100
1000
0010
0100
0001
0010
0001
0000
,
1000
0001
1000
0000
0100
1000
0010
0000
,
0100
0100
0011
1100
,
0001
0100
0010
1000
0100
0000
1000
0100
,
0010
0001
0100
0001
0000
1000
0010
0000
,
0100
0001
0010
0100
0000
0010
0001
0000
,
0100
0010
1010
0101
,
0001
0100
1000
0000
0001
0100
1000
0000
,
1000
0010
0001
0000
1000
0010
0001
0000
,
0100
0010
1000
0000
0100
0010
1000
0000
,
0001
0100
0001
0010
0100
1000
0010
0000
,
0100
0001
0010
0000
0100
0001
0010
0000
,
0100
0010
0100
0000
0100
0010
0100
0000
,
1000
0010
0001
0100
1000
0010
1000
0000
,
0001
0100
0001
0100
1000
0100
0001
0000
,
1001
0100
1000
0010
,
1010
0101
1100
0011
,
0100
1000
0010
0000
0100
0001
0010
0000
,
0100
0010
0100
0010
0100
1000
0100
0000
,
0010
0001
0100
0000
0010
1000
0100
0000
,
1000
1001
0101
1100
,
1000
0010
0100
0000
0001
0100
0010
0000
,
0001
0010
0100
1000
0100
0010
0001
1000
,
0002
0000
0100
0000
2003
0000
0010
0010
,
3200
1000
2300
0001
,
3002
0010
0203
0001
,
0320
0000
1000
0000
0230
0000
0010
0300
,
0110
0000
0100
0001
1000
0000
0000
0100
,
0000
1001
0000
0001
0100
0000
0010
0100
,
0010
0000
1000
0000
0001
0100
0000
0001
,
0000
1000
0000
0100
1000
0010
0100
0000
,
0010
0000
1000
0010
1000
0000
0000
0001
,
0000
0100
0000
0010
0100
0000
0010
0000
,
1000
0100
0010
0001
1000
0100
0010
0001
,
2000
3200
0320
0032
,
0103
0000
0010
0100
0001
0000
1000
0100
,
0000
1000
0000
0010
0100
0000
0001
0010
,
0001
0000
0100
0000
0010
1000
0000
0100
,
0000
1000
0001
0100
0001
1000
0010
0000
,
0110
0000
0001
0100
1000
0000
0100
0010
,
0000
1000
0000
0100
0010
0000
0100
0000
,
0010
0001
0100
0010
1000
0001
0100
0000
,
0001
0000
0001
0100
0001
0000
1100
0000
,
0010
0000
0010
0000
1000
0010
0000
0100
,
0010
0100
0001
0000
1000
0100
0100
0000
,
1000
0010
0100
0001
0010
0000
0100
0000
,
0010
0100
0001
1000
0010
0000
0110
0000
,
0100
0010
0100
0000
0001
0100
1000
0000
,
0100
0010
1000
0100
0010
0000
0001
0000
,
0100
0001
0100
1000
0100
0000
0010
0100
,
0001
1000
0100
0000
1000
0000
0011
0000
,
0220
0000
0000
0000
,
0000
0330
0000
0000
;

//---------------dance-single - Copied from ----------------
#NOTES:
     dance-single:
     Copied from:
     Hard:
     9:
     0.628,0.705,0.299,0.110,0.106: // measure 1
0000
0000
0000
0000
,  // measure 2
0000
0000
0000
0000
,  // measure 3
0000
0000
0000
0000
,  // measure 4
0000
0000
0000
0000
,  // measure 5
0000
0000
0000
0000
,  // measure 6
0000
0000
0000
0000
,  // measure 7
0000
0000
0000
0000
,  // measure 8
0000
0000
0000
0000
,  // measure 9
1010
0000
0001
0100
0001
0000
0000
1000
,  // measure 10
0000
1000
0000
0100
0010
0000
0100
1000
,  // measure 11
0001
0000
0100
0000
0001
0010
0000
0001
,  // measure 12
0000
0100
0010
1000
0001
0100
0001
0000
,  // measure 13
0010
0000
0100
1000
0010
0000
0100
0002
,  // measure 14
0000
2003
0000
3100
1000
0000
0010
0000
,  // measure 15
0100
0001
0010
0100
1000
0001
0010
0100
,  // measure 16
1100
0000
1010
0000
0101
0000
0011
0001
,  // measure 17
0100
0000
0010
1000
0100
0000
1000
0010
,  // measure 18
0100
0001
0100
1000
0100
0010
1000
0000
,  // measure 19
1100
0000
0101
0000
0010
0100
0001
0200
,  // measure 20
0000
0310
0100
0010
1000
0100
0001
0100
,  // measure 21
1000
0000
0010
0100
0001
0000
0100
0020
,  // measure 22
0100
0230
0010
0310
1000
0000
0001
0000
,  // measure 23
0100
0001
0010
0100
1000
0001
0010
0100
,  // measure 24
1100
1010
1001
0101
,  // measure 25
0100
0001
0100
1000
0100
0010
0100
0001
,  // measure 26
0010
0001
1000
0100
0010
0100
1000
0000
,  // measure 27
0100
0010
0001
0100
0010
0100
1000
0100
,  // measure 28
0001
0010
0001
1000
0100
0010
0001
0000
,  // measure 29
0100
0001
1000
0010
0001
0010
1000
0100
,  // measure 30
0010
0100
0001
0100
1000
0010
0100
0001
,  // measure 31
1000
0000
0100
0110
0000
0101
0000
2010
,  // measure 32
0000
0000
3001
0000
0100
0000
0010
0000
0100
0000
0000
0001
0000
0000
1000
0000
,  // measure 33
0100
1000
0010
0000
0100
0001
0100
0000
,  // measure 34
0010
0000
0100
0000
0001
0000
1000
0000
0001
0100
0001
0000
1000
0000
0100
0000
,  // measure 35
1000
0100
0000
1000
0100
0000
1000
0000
0010
0000
0200
0000
0000
0000
0001
0000
,  // measure 36
0301
1000
0100
0010
0100
1000
1001
0000
,  // measure 37
0010
0001
0100
0001
1000
0100
0010
0100
,  // measure 38
1000
1000
0100
0020
0000
0130
0100
1000
,  // measure 39
0100
1000
0001
0100
0010
0000
1000
0000
0000
0000
0100
0000
1000
0000
2000
0000
,  // measure 40
0000
0010
0000
3010
0101
0000
1001
0000
,  // measure 41
1000
1100
0001
0101
,  // measure 42
0010
0000
0100
0010
0000
0100
0001
0000
1000
0000
0100
0000
0010
0000
0000
0000
,  // measure 43
0100
1100
0001
0011
,  // measure 44
0200
0010
0000
0010
0300
0010
0101
0000
,  // measure 45
1000
0100
0001
0100
1000
0010
0100
0000
,  // measure 46
0001
0000
0100
0001
0000
0100
0001
0000
1000
0000
0100
0000
1000
0000
0000
0000
,  // measure 47
1000
0110
0001
0101
,  // measure 48
0100
0010
0100
0001
0100
0001
0100
0000
,  // measure 49
0010
1000
0010
0000
0100
0001
0100
0000
,  // measure 50
1001
0000
0000
0101
0000
0000
1000
0000
0100
1000
0001
0000
0100
0000
0010
0000
,  // measure 51
1000
0001
1000
0001
1000
0100
1000
0100
,  // measure 52
2000
0010
0000
0010
0000
0001
0000
3001
,  // measure 53
0100
0001
1000
0000
0100
1000
0001
0000
,  // measure 54
1001
0000
1000
0100
0000
0010
0001
0000
0100
0000
0010
0000
0100
0000
0000
0000
,  // measure 55
0001
0100
1000
0100
0001
0010
0001
1000
,  // measure 56
0100
0100
0010
0010
0001
0100
1001
0000
,  // measure 57
0100
0000
0100
0000
0010
0000
0100
0001
0000
0000
1000
0000
0010
0000
1000
0001
,  // measure 58
0100
0000
0001
0000
1000
0000
0100
0000
0010
0100
1000
0001
0100
0000
0001
1000
,  // measure 59
0100
0000
1000
0000
0001
0000
0010
0100
0000
0010
0001
0100
0000
0010
1000
0100
,  // measure 60
0010
0000
0001
0000
1000
0000
0100
0010
0000
0000
0100
0000
1000
0000
0001
0100
,  // measure 61
0010
0000
0100
0010
0100
0000
0001
0100
,  // measure 62
0000
1000
0000
0100
0010
1000
0100
0010
,  // measure 63
0001
0000
0100
0000
0001
1000
0000
0100
,  // measure 64
0000
1000
1000
0100
0010
0001
0100
0000
,  // measure 65
0110
0000
0001
0100
0010
0000
0100
0020
,  // measure 66
0000
1000
0000
0130
0010
0100
0001
0000
,  // measure 67
1000
0100
0001
0100
1000
0010
0001
0010
,  // measure 68
1000
1100
0001
0101
,  // measure 69
0110
0000
0100
0001
0100
0010
1000
0100
,  // measure 70
0000
0010
0000
0001
0100
0001
0010
0100
,  // measure 71
0010
0000
0100
0000
0010
0100
0010
1000
,  // measure 72
0000
0010
0001
0100
0010
1000
0001
0000
,  // measure 73
0101
0000
1000
0100
0010
0000
1000
0010
,  // measure 74
0000
0110
0000
0100
0001
0010
0001
0000
,  // measure 75
0001
0010
0001
0010
0100
1000
0100
1000
,  // measure 76
0010
0000
0001
0100
1000
0000
1001
0000
,  // measure 77
1000
0100
1000
0010
0100
0001
0100
0010
,  // measure 78
1000
0010
0001
0100
0010
1000
0001
0000
,  // measure 79
1000
0100
0010
0001
0100
0010
1000
0100
,  // measure 80
0010
0100
1000
0001
0100
0010
0100
0000
,  // measure 81
0001
0010
0001
0010
0100
0010
0001
0100
,  // measure 82
1000
0100
0010
0100
0001
0010
0100
1000
,  // measure 83
0010
0000
1000
1100
0000
0101
0000
0001
,  // measure 84
0100
0000
0010
0000
0100
0000
0001
0000
1000
0000
0000
0100
0000
0000
0010
0000
,  // measure 85
2002
0000
0000
0000
,  // measure 86
0000
3003
0000
0000
;
