#TITLE:sleep;
#SUBTITLE:;
#ARTIST:renard;
#TITLETRANSLIT:;
#SUBTITLETRANSLIT:;
#ARTISTTRANSLIT:;
#GENRE:;
#CREDIT:;
#MENUCOLOR:#00FF00;
#NEWMETERSYSTEM:NO;
#BANNER:sleep-bn.png;
#BACKGROUND:sleep-bg.png;
#LYRICSPATH:;
#CDTITLE:PROJECT VIRIDIAN-cdtitle.png;
#MUSIC:sleep.mp3;
#OFFSET:-0.080;
#SAMPLESTART:49.480;
#SAMPLELENGTH:16.400;
#SELECTABLE:YES;
#LISTSORT:;
#BPMS:0.000=116.580;
#STOPS:222.000=1.020
;
#BGCHANGES:;
#ATTACKS:;

//---------------dance-single - ----------------
#NOTES:
     dance-single:
     :
     Easy:
     4:
     0.317,0.381,0.434,0.111,0.000: // measure 1
0000
0000
0000
0000
,  // measure 2
0000
0000
0000
0000
,  // measure 3
0000
0000
0000
0000
,  // measure 4
0000
0000
0000
0000
,  // measure 5
1000
0100
0001
0100
,  // measure 6
1000
0010
0001
0010
,  // measure 7
1000
0001
0100
0010
,  // measure 8
1000
0001
0010
0010
,  // measure 9
1001
0100
0010
0100
,  // measure 10
1001
0010
0001
1000
,  // measure 11
1010
0100
0010
0100
,  // measure 12
1001
0100
0002
0013
,  // measure 13
1100
1000
0010
0100
,  // measure 14
0011
0001
0001
0100
,  // measure 15
1010
0100
0010
0100
,  // measure 16
1001
0100
0020
1030
,  // measure 17
1100
0001
0100
0001
,  // measure 18
1100
0010
0100
0010
,  // measure 19
1001
1000
0100
1000
,  // measure 20
0110
0001
2000
3010
,  // measure 21
0011
0100
1000
0100
,  // measure 22
0110
0001
1000
0001
,  // measure 23
1100
0010
0001
0010
,  // measure 24
0002
0000
1000
0103
,  // measure 25
1010
0100
1000
1001
,  // measure 26
1000
1100
1100
0010
,  // measure 27
0101
0010
0001
0101
,  // measure 28
0010
0200
0310
0110
,  // measure 29
0001
0100
1000
1010
,  // measure 30
0100
0011
0011
1000
,  // measure 31
0001
0100
0001
0011
,  // measure 32
0100
0010
0110
1001
,  // measure 33
1000
0100
0100
0010
,  // measure 34
0001
0000
0101
0101
,  // measure 35
1000
0100
1000
0010
,  // measure 36
0100
0000
0020
2030
,  // measure 37
3100
1000
0001
0001
,  // measure 38
0100
0000
1010
1010
,  // measure 39
0001
0100
0001
1000
,  // measure 40
0000
0000
0200
0320
,  // measure 41
0031
0001
0100
0001
,  // measure 42
0000
1000
0100
0100
,  // measure 43
0001
0100
0000
0010
,  // measure 44
1000
0100
0010
0001
,  // measure 45
1000
0100
0010
0100
,  // measure 46
0000
0100
0010
0010
,  // measure 47
0100
0010
1000
0001
,  // measure 48
0010
0100
1000
0001
,  // measure 49
1100
0011
1100
0000
,  // measure 50
1010
0101
1001
0010
,  // measure 51
1100
0110
0011
1000
,  // measure 52
0002
0203
0320
1030
,  // measure 53
0101
1100
0101
0010
,  // measure 54
1100
0011
1010
0100
,  // measure 55
0011
0011
1100
1001
,  // measure 56
0100
1000
0002
0000
,  // measure 57
0003
0000
0000
0000
;

//---------------dance-single - Copied from----------------
#NOTES:
     dance-single:
     Copied from:
     Beginner:
     1:
     0.108,0.143,0.179,0.077,0.000:
0000
0000
0000
0000
,
0000
0000
0000
0000
,
0000
0000
0000
0000
,
0000
0000
0000
0000
,
0010
0000
0000
0000
,
1000
0000
1000
0000
,
0001
0000
0000
0000
,
0010
0000
0001
0000
,
1001
0000
0000
0000
,
0010
0000
0000
0000
,
1000
0000
0000
0000
,
0001
0000
0000
0000
,
0010
0000
0000
0000
,
0100
0000
0000
0000
,
1000
0000
0000
0000
,
0001
0000
1000
0000
,
0010
0000
0000
0000
,
0100
0000
0000
0000
,
0001
0000
0000
0000
,
0010
0000
1000
0000
,
1000
0000
0000
0000
,
0100
0000
0000
0000
,
0010
0000
0000
0001
,
0001
0000
1000
0000
,
0110
0000
0000
0000
,
1001
0000
0000
0000
,
1100
0000
0000
0000
,
0011
0000
0000
0000
,
1001
0000
0000
0000
,
0101
0000
0000
0000
,
0011
0000
0000
0000
,
1010
0000
0000
0000
,
2200
0000
0000
0000
,
3300
0000
0000
0000
,
0202
0000
0000
0000
,
0303
0000
0000
0000
,
0220
0000
0000
0000
,
0330
0000
0000
0000
,
2002
0000
0000
0000
,
3003
0000
0000
0000
,
0010
0000
0000
0010
,
0010
0000
0000
0000
,
1000
0000
0000
0001
,
0001
0000
0000
0000
,
0100
0000
0000
0001
,
0001
0000
0000
0000
,
0010
0000
0000
1000
,
1000
0000
0000
0000
,
1010
0000
0000
0000
,
1100
0000
0000
0000
,
0101
0000
0000
0000
,
0011
0000
0000
0000
,
1001
0000
0000
0000
,
1010
0000
0000
0000
,
0101
0000
0000
0000
,
1001
0000
0200
0000
,
0300
0000
0000
0000
;

//---------------dance-single - Copied from----------------
#NOTES:
     dance-single:
     Copied from:
     Medium:
     5:
     0.344,0.405,0.196,0.034,0.000: // measure 1
0000
0000
0000
0000
,  // measure 2
0000
0000
0000
0000
,  // measure 3
0000
0000
0000
0000
,  // measure 4
0000
0000
0000
0000
,  // measure 5
0100
0000
0001
0000
1000
0000
0010
1000
,  // measure 6
0000
1000
0100
0000
1001
0000
1001
0000
,  // measure 7
0010
0000
0100
0000
0001
0000
0010
0001
,  // measure 8
0100
0000
0100
0000
0001
1000
0001
0000
,  // measure 9
1000
0100
0010
0001
,  // measure 10
1000
0000
0100
0000
0010
0001
0010
0001
,  // measure 11
1000
0001
0100
0010
,  // measure 12
1000
0001
0101
1001
,  // measure 13
1000
0010
0100
0001
,  // measure 14
0100
0000
0001
0000
1000
0010
1000
0010
,  // measure 15
1000
0100
1000
0001
,  // measure 16
0100
0000
0010
0000
0100
0001
1000
0000
,  // measure 17
0100
1000
0001
0010
,  // measure 18
0100
0000
1000
0000
0010
0100
0010
0100
,  // measure 19
0001
0010
0100
1000
,  // measure 20
0001
0001
0011
0101
,  // measure 21
0001
1000
0100
0010
,  // measure 22
1000
0000
0010
0000
0001
1000
0001
1000
,  // measure 23
0010
0100
0001
1000
,  // measure 24
0200
0000
2000
3300
,  // measure 25
1001
0000
0001
0000
0100
0001
0011
0000
,  // measure 26
0001
0000
1000
0000
0001
1000
1001
0000
,  // measure 27
1000
0000
0010
0000
1000
0100
1100
0000
,  // measure 28
0010
0000
0100
0000
0001
0100
1000
0100
,  // measure 29
0001
0000
0010
0000
0100
1000
1100
0000
,  // measure 30
1000
0000
0010
0000
0100
0001
1001
0000
,  // measure 31
0010
0000
0100
0000
0010
0010
0110
0000
,  // measure 32
0010
0000
0001
0000
1000
0100
0010
0001
,  // measure 33
1000
0000
0000
0001
0000
0001
1000
0000
,  // measure 34
0000
0010
0000
1000
0100
0000
0100
0000
,  // measure 35
0010
0000
0000
0010
0000
0001
0000
1000
,  // measure 36
0000
0001
0100
0001
1000
0000
0100
0000
,  // measure 37
1000
0000
0000
1000
0000
0100
0100
0000
,  // measure 38
0000
0001
0000
0100
1000
0000
0010
0000
,  // measure 39
0100
0000
0000
0001
0000
0010
0000
0001
,  // measure 40
0000
1000
0001
1000
0001
0000
0010
0000
,  // measure 41
0100
0000
0001
0100
0000
0010
1000
0000
,  // measure 42
0001
0100
0001
1000
0100
0000
1000
0000
,  // measure 43
0010
1000
0100
0010
0000
0100
0000
0010
,  // measure 44
0100
0010
0001
1000
0001
0000
0101
0000
,  // measure 45
1000
0000
0010
1000
0000
0001
0100
0000
,  // measure 46
0001
1000
0001
1000
0010
0000
0100
0000
,  // measure 47
0010
1000
0100
0010
0000
0100
0000
0001
,  // measure 48
0000
0100
1000
0001
0100
0000
0101
0000
,  // measure 49
1001
1001
0100
0000
1000
0000
1010
0000
,  // measure 50
0100
1000
0010
0100
0001
0000
2001
0000
,  // measure 51
3100
0010
0100
0001
0001
0000
0101
0000
,  // measure 52
0010
0100
0001
1000
1000
0000
0010
0000
,  // measure 53
0100
0001
1000
0000
1100
0000
1010
0000
,  // measure 54
0001
1000
0100
0100
0010
0000
0011
0001
,  // measure 55
0100
0010
1000
0001
1000
0000
0001
0000
,  // measure 56
0100
0010
1000
0000
2000
0000
0000
0000
,  // measure 57
3000
0000
0000
0000
;

//---------------dance-single - Copied from----------------
#NOTES:
     dance-single:
     Copied from:
     Hard:
     8:
     0.503,0.619,0.374,0.230,0.183: // measure 1
0000
0000
0000
0000
,  // measure 2
0000
0000
0000
0000
,  // measure 3
0000
0000
0000
0000
,  // measure 4
0000
0000
0000
0000
,  // measure 5
0010
0100
0001
0000
0001
1000
0000
0010
,  // measure 6
0000
0100
0001
0000
1000
1000
0100
0100
,  // measure 7
0010
0000
0100
0000
0010
0000
0001
0000
0000
0000
1000
0000
0000
0000
0001
0100
,  // measure 8
0001
1000
0100
0000
0010
0100
0010
0001
,  // measure 9
0100
0001
1000
0000
0110
0000
1001
0000
,  // measure 10
0010
1000
0100
0000
1100
0000
0011
0000
,  // measure 11
0001
0100
1000
0000
1100
0000
0110
0000
,  // measure 12
0010
0100
0001
0000
0010
0100
0010
0100
,  // measure 13
0001
1000
1000
0000
1000
0000
0110
0000
,  // measure 14
0001
0100
0001
0000
1010
0000
0101
0000
,  // measure 15
0010
0100
0001
0000
1100
0000
0011
0000
,  // measure 16
0100
0010
1000
0000
0010
0100
0001
1000
,  // measure 17
0010
0100
0001
0000
0110
0000
1001
0000
,  // measure 18
0010
1000
0001
0000
0101
0000
1010
0000
,  // measure 19
0001
0100
1000
0000
1100
0000
0011
0000
,  // measure 20
1000
0100
0010
0000
0010
0001
0010
0001
,  // measure 21
0100
0001
1000
0000
0110
0000
1100
0000
,  // measure 22
1000
0010
0100
0000
0011
0000
0011
0000
,  // measure 23
0100
0001
2000
0000
0000
0100
3100
0010
,  // measure 24
0100
0001
0011
0001
,  // measure 25
0100
0000
0001
0000
1000
0000
0100
1000
0010
0000
0100
0000
0101
0000
0000
0000
,  // measure 26
0010
0000
0100
0001
0100
0000
0010
1000
0010
0000
0000
0000
0100
0000
0000
0000
,  // measure 27
0010
0000
1000
0100
0010
0000
0100
0000
0001
0000
0000
0000
1001
0000
0000
0000
,  // measure 28
0010
0000
0100
0001
0100
0000
0010
1000
0010
1000
0000
0100
0000
0000
1000
0000
,  // measure 29
0100
0000
0010
0100
0001
0000
0100
0000
1000
0000
0000
0000
0011
0000
0000
0000
,  // measure 30
0100
0000
0001
1000
0100
0000
1000
0001
0100
0000
0010
0000
1001
0000
0000
0000
,  // measure 31
0010
0000
0100
0001
0100
0000
0010
0000
1000
0000
0000
0000
1100
0000
0000
0000
,  // measure 32
1000
0000
0010
1000
0100
0000
0001
0000
0100
0000
0000
1000
0000
0000
0001
0000
,  // measure 33
0020
0000
0030
0010
0000
2000
0200
3000
,  // measure 34
0000
0020
0300
0130
0020
0000
0032
0000
,  // measure 35
0203
0000
0000
0302
0000
2003
0000
3020
,  // measure 36
0000
0100
0100
1030
0200
0000
2300
0000
,  // measure 37
3002
0000
0000
2003
0000
3100
0020
0000
,  // measure 38
0000
0000
0032
0000
0000
0000
0103
0000
0020
0000
0000
0000
2000
0030
0000
0000
,  // measure 39
3002
0000
0000
0000
0000
0000
0100
0000
0000
0000
0200
0003
0000
0000
0020
0000
,  // measure 40
0000
0300
1000
0000
1000
0000
1000
0000
0200
0000
0030
0000
0002
0000
0300
0000
,  // measure 41
0103
0001
0100
0010
1000
0100
0001
0000
,  // measure 42
0100
0000
1000
0000
0010
0000
1000
0001
0010
0000
0100
0000
1000
0000
0000
0000
,  // measure 43
0010
0001
0010
0000
0100
1000
0010
1000
,  // measure 44
0100
1000
0000
0001
0000
0100
0000
0001
0000
0001
0010
0000
0100
0000
1000
0000
,  // measure 45
0010
0100
0010
1000
0100
0001
0100
0000
,  // measure 46
0010
0001
0010
0001
1000
0100
0010
0000
,  // measure 47
1000
0000
0001
0000
0100
0000
0010
1000
0001
0000
0100
0000
0001
0000
0010
0000
,  // measure 48
0001
0100
0000
0010
0000
1000
0000
0001
0000
0001
0100
0000
0010
0000
0010
0000
,  // measure 49
1100
0000
0010
0000
0101
0000
0001
0100
0001
1000
0100
0000
0110
0000
0000
0000
,  // measure 50
0011
0000
0100
1000
0100
0000
0100
1000
0100
0000
0010
0000
1002
0000
0000
0000
,  // measure 51
0103
0000
0010
0000
1100
0000
0010
0001
0100
0000
0000
0000
1010
0000
0000
0000
,  // measure 52
1000
0100
0001
0100
1000
0000
0001
0000
1001
0000
0001
0100
0000
0001
0100
0000
,  // measure 53
0011
0000
0100
0000
0110
0000
0010
0100
0001
1000
0100
0000
1001
0000
0000
0000
,  // measure 54
0101
0000
0001
0000
1100
0000
1000
0000
0010
0100
0001
0000
1000
0100
0010
0000
,  // measure 55
0110
0000
1000
0000
0011
0000
0100
0010
0100
0000
0001
0000
1100
0000
0000
0000
,  // measure 56
1000
0100
0010
0001
0100
0000
0001
0000
0220
0000
0000
0000
0000
0000
0000
0000
,  // measure 57
0330
0000
0000
0000
;
