#TITLE:orion;
#SUBTITLE:;
#ARTIST:Ryu☆;
#TITLETRANSLIT:;
#SUBTITLETRANSLIT:;
#ARTISTTRANSLIT:Ryu*;
#GENRE:;
#CREDIT:;
#MENUCOLOR:;
#NEWMETERSYSTEM:NO;
#BANNER:orion-bn.png;
#BACKGROUND:orion-bg.png;
#LYRICSPATH:;
#CDTITLE:PROJECT VIRIDIAN-cdtitle.png;
#MUSIC:orion.mp3;
#OFFSET:-1.380;
#SAMPLESTART:88.880;
#SAMPLELENGTH:10.720;
#SELECTABLE:YES;
#LISTSORT:;
#BPMS:0.000=181.000;
#STOPS:;
#BGCHANGES:;
#ATTACKS:;

//---------------dance-single - ----------------
#NOTES:
     dance-single:
     :
     Easy:
     7:
     0.435,0.507,0.034,0.137,0.086:
0000
0000
0000
0000
,
0000
0000
0000
0000
,
0000
0000
0000
0000
,
0000
0000
0000
0000
,
0010
0000
0100
0000
0001
0000
0100
0020
,
1000
0000
1000
0030
1000
0100
0001
0100
,
1000
0000
0010
0000
0100
0000
0001
2000
,
0002
3000
1003
0000
0001
0010
0100
0010
,
0001
1000
0001
0100
,
0010
1000
0001
0100
,
0001
1000
0100
0010
,
0001
0000
0100
0000
0001
0000
1000
0010
,
1000
0001
0100
0010
,
1000
0100
0010
0001
,
1000
0010
0100
0010
,
1000
1000
1000
0000
,
2002
0000
0000
0000
,
0000
0000
0000
0000
,
0000
0000
0000
0000
,
0000
0000
0000
0000
,
0000
0000
0000
0000
,
0000
0000
0000
0000
,
3003
0000
0000
0000
,
0020
0000
0000
0000
,
1030
0000
0000
0010
0100
0000
0000
0010
,
1000
0000
0000
0010
0001
0000
0000
0100
,
0010
0000
0000
0001
1000
0000
0000
0010
,
1000
0000
0000
1000
0001
0000
0000
0010
,
0100
0000
0000
0010
0001
0000
0000
1000
,
0010
0000
0000
0100
0010
0000
0000
0001
,
0100
0000
0000
0010
1000
0000
0000
0001
,
0100
0000
0000
1000
0100
0000
0000
0010
,
0001
0100
0010
1000
,
0001
0000
0100
0000
0001
0000
1000
0100
,
0010
0001
0100
0010
,
1001
0000
0000
0000
0001
0000
0000
0000
0100
0000
0000
0001
0000
0000
1000
0000
,
0010
0100
0010
1000
,
0001
0000
0100
0000
0010
0100
0010
0000
,
1000
0100
0010
0001
1000
0100
0010
0001
,
2000
0000
0200
3300
,
0001
0100
0010
1000
,
0100
0000
0000
0000
0010
0000
0000
0000
0001
0000
0000
1000
0000
0000
0100
0000
,
0010
0100
0001
0100
,
1000
0000
0000
0000
0001
0000
0000
0000
0100
0000
0000
0001
0000
0000
1000
0000
,
0100
1000
0001
0100
,
0010
0000
0000
0000
0100
0000
0000
0000
0001
0000
0000
0100
0000
0000
1000
0000
,
0100
0010
0100
0001
,
1000
0000
0000
0000
0100
0000
0000
0000
0010
0000
0000
0010
0100
0000
0010
0000
,
0001
0000
0100
0000
0010
0000
1000
0001
,
1000
0000
0000
0000
0001
0000
0000
0000
1000
0000
0000
0100
0000
0000
0010
0000
,
0001
0000
1000
0000
0010
0000
0100
0001
,
1000
0000
0000
0000
0100
0000
0000
0000
0010
0000
0000
0001
0000
0000
1000
0000
,
0100
0000
1000
0000
0001
0000
1000
0001
,
0010
0000
0000
0000
0001
0000
0000
0000
1000
0000
0000
0001
0000
0000
0001
0000
,
0100
0000
0010
0000
1000
0000
0010
1000
,
0002
0000
2000
3003
,
1001
0000
0010
0000
0100
0000
0001
1000
,
0010
0000
0000
0000
0100
0000
0000
0000
0001
0000
0000
0010
0000
0000
0100
0000
,
1000
0000
0010
0000
1000
0000
0100
1000
,
0010
0000
0000
0000
1000
0000
0000
0000
0001
0000
0000
1000
0000
0000
0001
0000
,
0010
0000
0100
0000
1000
0000
0001
0100
,
0001
0000
0000
0000
1000
0000
0000
0000
0100
0000
0000
0010
0000
0000
0100
0000
,
1000
0000
0010
0000
0100
0000
0001
1000
,
0010
1000
0002
0000
,
1003
0110
0001
1000
,
0001
0000
1000
0000
0010
1000
0100
0001
,
0100
0000
0000
1000
0000
0000
0010
0000
0100
0000
0000
0001
0000
0000
1000
0000
,
0010
0100
0001
1000
,
0010
0000
0000
1000
0000
0000
0100
0000
1000
0000
0000
0001
0000
0000
0100
0000
,
0010
0000
1000
0000
0001
0000
0010
0001
,
1000
0000
0000
0001
0000
0000
0010
0000
0100
0000
0000
0001
0000
0000
0100
0000
,
1000
0010
0100
0001
,
0100
0000
0000
0010
0000
0000
0100
0000
0001
0000
0000
1000
0000
0000
0001
0000
,
0010
0000
0000
0000
0100
0000
0000
0000
1000
0000
0000
0001
0010
0000
0100
0000
,
1000
0000
0100
0000
0010
0000
0001
2000
,
0010
0000
0010
3000
0010
1000
0001
0010
,
0100
0000
1000
0000
0001
0000
0010
0002
,
0100
0000
0100
0003
1000
0001
0010
0001
,
0100
0000
0010
0000
1000
0000
0010
0200
,
0001
0000
0001
0300
0001
0100
1000
0100
,
0001
0000
1000
0000
0100
0000
1000
0200
,
1000
0000
1000
0300
1000
0100
0010
0001
,
0002
0000
0000
0000
,
0000
0000
0000
0000
,
0000
0000
0003
0000
;

//---------------dance-single - Copied from----------------
#NOTES:
     dance-single:
     Copied from:
     Hard:
     10:
     0.738,0.760,0.223,0.069,0.463: // measure 1
0000
0000
0000
0000
,  // measure 2
0000
0000
0000
0000
,  // measure 3
0000
0000
0000
0000
,  // measure 4
0010
0000
0010
0000
0010
0000
0010
0100
,  // measure 5
0001
0000
1000
0000
0010
0000
0100
0000
0001
0010
0001
0000
1000
0000
0010
0000
,  // measure 6
1000
0000
0001
0000
0100
0010
1000
0001
,  // measure 7
0010
0000
0001
0000
1000
0000
0010
0000
0100
0010
0100
0000
0001
0000
1000
0000
,  // measure 8
0010
0000
0010
0000
1000
0001
0100
1000
,  // measure 9
0100
0010
0100
0001
0100
0010
1000
0100
,  // measure 10
0010
0001
1000
0100
1000
0010
0100
0001
,  // measure 11
0010
0100
1000
0001
0010
0001
1000
0010
,  // measure 12
0100
0010
1000
0001
0010
0001
1000
0010
,  // measure 13
0100
0001
0010
0001
1000
0010
0100
1000
,  // measure 14
0100
0010
1000
0001
0010
0100
1000
0001
,  // measure 15
0010
0001
0100
0010
1000
0100
1000
0001
,  // measure 16
0100
0100
0010
0010
,  // measure 17
2001
0000
0001
0000
,  // measure 18
0001
0000
0001
0000
,  // measure 19
0002
0000
0000
0000
,  // measure 20
0000
0000
0000
0000
,  // measure 21
0000
0000
0000
0000
,  // measure 22
0000
0000
0000
0000
,  // measure 23
0000
0000
3003
0000
,  // measure 24
0220
0000
0000
0330
,  // measure 25
1001
0000
0000
0001
0000
0000
0100
0000
0010
0000
0000
1000
0000
0000
0010
0000
,  // measure 26
1000
0000
0000
0001
0000
0000
1000
0000
0010
0000
0000
0100
0000
0000
0010
0000
,  // measure 27
1000
0000
0000
0001
0000
0000
0100
0000
0001
0000
0000
1000
0000
0000
0001
0000
,  // measure 28
1000
0000
0000
0010
0000
0000
0100
0000
0010
0000
0000
0100
0000
0000
0001
0000
,  // measure 29
1000
0000
0000
0001
0000
0000
0100
0000
0001
0000
0000
1000
0000
0000
0100
0000
,  // measure 30
1000
0000
0000
1000
0000
0000
0100
0000
0010
0000
0000
0001
0000
0000
0100
0000
,  // measure 31
0001
0000
0000
0100
0000
0000
0010
0000
0100
0000
0000
0001
0000
0000
1000
0000
,  // measure 32
0001
0000
0000
0100
0000
0000
0010
0000
0001
0000
0000
0010
0000
0000
0100
0000
,  // measure 33
1001
0110
0101
1000
,  // measure 34
0110
0000
1100
0000
0001
0000
0100
0001
,  // measure 35
0101
1100
0110
0001
,  // measure 36
1010
0000
0000
0000
0001
0000
0000
0000
0110
0000
0000
0101
0000
0000
1100
0000
,  // measure 37
1000
0100
1000
0100
0010
0001
0010
0001
,  // measure 38
0100
0001
0100
0001
1000
0010
1000
0010
,  // measure 39
1000
0100
0010
0001
1000
0100
0010
0001
0200
0000
0000
0000
0320
0000
0000
0000
,  // measure 40
0130
0000
1001
0000
0100
0001
0100
0001
,  // measure 41
1000
0000
0001
0100
0000
0010
1000
0000
0100
0000
1000
0100
0000
0010
0001
0000
,  // measure 42
0100
0010
0100
1000
0100
0001
1000
0001
,  // measure 43
0010
0000
0001
0100
0000
0010
1000
0000
0001
0000
1000
0100
0000
1000
0010
0000
,  // measure 44
0100
0010
0100
0001
1000
0100
0010
0001
,  // measure 45
0100
0000
0001
0010
0000
0010
0001
0000
0100
0000
0010
1000
0000
1000
0100
0000
,  // measure 46
1000
0100
0001
0100
1000
0001
0100
1000
,  // measure 47
0100
0000
0010
0100
0000
0100
0001
0000
1000
0000
0001
0010
0000
0100
1000
0000
,  // measure 48
0010
0000
0100
0000
0010
0000
1000
0000
0001
0000
0000
1000
0100
0000
1000
0000
,  // measure 49
0010
0000
0100
0001
0000
1000
0001
0000
0100
0000
0001
0100
0000
0010
1000
0000
,  // measure 50
0001
0100
0010
1000
0001
1000
0100
0010
,  // measure 51
0001
0000
1000
0100
0000
0100
0010
0000
0001
0000
0100
0010
0000
0010
0001
0000
,  // measure 52
0010
0100
0010
1000
0001
0100
0001
1000
,  // measure 53
0010
0000
1000
0010
0000
0100
0001
0000
0010
0000
0001
0100
0000
0010
1000
0000
,  // measure 54
0001
0100
1000
0100
0010
1000
0001
0100
,  // measure 55
0001
0000
0010
0001
0000
0100
0010
0000
1000
0000
0010
1000
0000
0001
0100
0000
,  // measure 56
0001
1000
0100
1000
0010
0100
0001
0010
,  // measure 57
1001
0000
0100
0010
0000
0100
0010
0000
0001
0000
0100
0001
0000
0100
0001
0000
,  // measure 58
1000
0010
0100
0001
0010
0100
1000
0010
,  // measure 59
0100
0000
0010
1000
0000
1000
0010
0000
0100
0000
0001
0100
0000
0100
0001
0000
,  // measure 60
0010
0001
0100
1000
0100
0010
1000
0100
,  // measure 61
0010
0000
0001
0100
0000
0010
0100
0000
0010
0000
1000
0100
0000
1000
0010
0000
,  // measure 62
0100
0001
1000
0100
0001
0100
1000
0010
,  // measure 63
1000
0000
0001
0100
0000
0100
1000
0000
0100
0000
0010
1000
0000
1000
0001
0000
,  // measure 64
0010
0001
0100
0010
1000
0001
0010
0100
,  // measure 65
1000
0000
0000
0000
0001
0000
0000
0000
1000
0001
1000
0000
0001
0000
0000
0000
,  // measure 66
0100
0000
0010
0100
0001
0100
1000
0100
,  // measure 67
0001
0000
1000
0100
0000
0010
0100
0000
0001
0000
0100
1000
0000
0100
0010
0000
,  // measure 68
1000
0000
0001
0010
0000
1000
0100
0000
0010
0000
0001
0100
0000
0010
1000
0000
,  // measure 69
0001
0000
0100
0010
0000
1000
0010
0000
0100
0000
0001
0010
0000
1000
0100
0000
,  // measure 70
1000
0000
0001
0100
0000
0100
0010
0000
0100
0000
1000
0100
0000
0010
0100
0000
,  // measure 71
0001
0000
1000
0010
0000
0100
0001
0000
0010
0000
0001
1000
0000
1000
0001
0000
,  // measure 72
0010
0000
0100
1000
0000
0010
0100
0000
0001
0000
1000
0010
0000
0100
0010
0000
,  // measure 73
1000
0000
0001
0010
0000
0100
1000
0000
0010
0000
0100
0001
0000
0100
0010
0000
,  // measure 74
1000
0000
0001
0010
0000
0001
0100
0000
0010
0000
0100
0001
1000
0000
0001
0000
,  // measure 75
1000
0000
0100
0000
0001
0000
0100
0000
1000
0001
0100
0000
0010
0000
1000
0000
,  // measure 76
1100
0000
0101
0000
0010
1000
0010
0100
,  // measure 77
0001
0000
1000
0000
0100
0000
0010
0000
0001
0100
0001
0000
1000
0000
0010
0000
,  // measure 78
1001
0000
1100
0000
0010
1000
0100
0010
,  // measure 79
0001
0000
0100
0000
0010
0000
1000
0000
0010
0100
0010
0000
1000
0000
0001
0000
,  // measure 80
0101
0000
1010
0000
0010
0100
0001
0010
,  // measure 81
0100
0000
1000
0000
0010
0000
1000
0000
0100
1000
0100
0000
1000
0000
0001
0000
,  // measure 82
0110
0000
1001
0000
0001
0010
0100
1000
,  // measure 83
2002
0000
0000
0000
,  // measure 84
0000
0000
0000
0000
,  // measure 85
0000
0000
3003
0000
;

//---------------dance-single - Copied from----------------
#NOTES:
     dance-single:
     Copied from:
     Beginner:
     3:
     0.184,0.246,0.103,0.086,0.000:
0000
0000
0000
0000
,
0000
0000
0000
0000
,
0000
0000
0000
0000
,
0000
0000
0000
0000
,
0001
0000
0001
0000
,
0100
0000
0100
0000
,
0010
0000
0010
0000
,
1000
0000
0000
0000
,
0002
0000
0003
0000
,
2000
0000
3000
0000
,
0020
0000
0030
0000
,
0200
0000
0300
0000
,
0002
0000
0003
0000
,
2000
0000
3000
0000
,
0200
0000
0300
0000
,
0020
0000
0030
0000
,
1001
0000
0000
0000
,
0000
0000
0000
0000
,
0010
0000
0000
0000
,
0000
0000
0000
0000
,
0100
0000
0000
0000
,
0000
0000
0000
0000
,
0000
0000
0000
0000
,
0002
0000
0003
0000
,
1001
0000
0010
0000
,
0010
0000
0000
0000
,
0110
0000
1000
0000
,
1000
0000
0000
0000
,
1001
0000
0010
0000
,
0100
0000
0000
0000
,
0110
0000
0001
0000
,
1000
0000
0000
0000
,
1000
0000
1000
0000
,
0001
0000
0001
0000
,
0110
0000
0001
0000
,
0110
0000
1000
0000
,
0001
0000
0001
0000
,
0100
0000
0100
0000
,
0020
0000
0030
0000
,
1001
0000
0000
0000
,
0110
0000
1000
0000
,
0001
0000
1000
0000
,
0100
0000
1000
0000
,
0100
0000
1000
0000
,
0001
0000
0100
0000
,
0001
0000
0100
0000
,
0001
0000
0010
0000
,
0001
0000
0010
0000
,
1001
0000
0010
0000
,
0100
0000
0010
0000
,
1000
0000
0001
0000
,
1000
0000
0001
0000
,
1000
0000
0100
0000
,
1000
0000
0100
0000
,
0010
0000
0001
0000
,
0010
0000
0001
0000
,
0110
0000
0001
0000
,
0100
0000
0010
0000
,
1000
0000
0100
0000
,
0010
0000
0001
0000
,
0100
0000
0001
0000
,
1000
0000
0010
0000
,
1000
0000
0100
0000
,
0010
0000
0001
0000
,
0100
0000
0000
0000
,
0010
0000
0000
0000
,
1001
0000
0001
0000
,
0100
0000
0010
0010
,
0010
0000
1000
0000
,
0001
0000
0100
0100
,
0100
0000
0001
0000
,
1000
0000
0001
0001
,
0001
0000
0010
0000
,
0100
0000
1000
1000
,
1000
0000
0001
0000
,
0100
0000
0000
0000
,
0010
0000
1000
0000
,
0100
0000
0000
0000
,
1000
0000
0010
0000
,
0001
0000
0000
0000
,
0100
0000
0001
0000
,
0010
0000
0000
0000
,
0100
0000
0000
0000
;

//---------------dance-single - Copied from----------------
#NOTES:
     dance-single:
     Copied from:
     Medium:
     9:
     0.613,0.688,0.206,0.137,0.338: // measure 1
0000
0000
0000
0000
,  // measure 2
0000
0000
0000
0000
,  // measure 3
0000
0000
0000
0000
,  // measure 4
0000
0000
0000
0000
,  // measure 5
0001
0010
0100
0000
0010
0100
1000
0002
,  // measure 6
0010
0000
0100
0000
1003
0001
0100
0010
,  // measure 7
1000
0100
0010
0000
0001
0100
0010
2000
,  // measure 8
0100
0000
0010
0000
3001
1000
0001
0100
,  // measure 9
0010
1000
0010
0000
0100
0001
0010
0000
,  // measure 10
0001
0010
0100
0000
0010
0100
1000
0010
,  // measure 11
0100
0001
1000
0000
0100
1000
0010
0000
,  // measure 12
0100
0001
0010
0000
0001
0010
0100
0010
,  // measure 13
0100
1000
0010
0000
0100
0001
1000
0000
,  // measure 14
0010
1000
0100
0000
1000
0100
0010
0001
,  // measure 15
0100
0001
1000
0000
0010
1000
0100
0000
,  // measure 16
1000
0100
0010
0000
0001
0000
1000
0000
,  // measure 17
0210
0000
0010
0000
,  // measure 18
0010
0000
0010
0000
,  // measure 19
0020
0000
0000
0000
,  // measure 20
0000
0000
0000
0000
,  // measure 21
0000
0000
0000
0000
,  // measure 22
0000
0000
0000
0000
,  // measure 23
0330
0000
0000
0000
,  // measure 24
2002
0000
0000
3003
,  // measure 25
0010
0000
0000
1000
0000
0000
0001
0000
0100
0000
0000
0010
0000
0000
1000
0000
,  // measure 26
0001
0000
0000
0100
0001
0000
0000
0000
1000
0000
0000
0100
1000
0000
0000
0000
,  // measure 27
0001
0000
0000
0010
0000
0000
0100
0000
1000
0000
0000
0100
0000
0000
0010
0000
,  // measure 28
0001
0000
0000
1000
0100
0000
0000
0000
1000
0000
0000
0001
0100
0000
0000
0000
,  // measure 29
0010
0000
0000
0100
0000
0000
0010
0000
1000
0000
0000
0001
0000
0000
1000
0000
,  // measure 30
0010
0000
0000
1000
0010
0000
0000
0000
0100
0000
0000
0001
0100
0000
0000
0000
,  // measure 31
0001
0000
0000
0010
0000
0000
0001
0000
1000
0000
0000
0100
0000
0000
1000
0000
,  // measure 32
0010
0000
0000
1000
0100
0000
0000
0100
0010
0000
0000
0010
0001
0000
0000
0000
,  // measure 33
0110
0000
1000
0000
0100
1000
0010
0000
,  // measure 34
0100
0001
0010
0000
0001
0100
0001
1000
,  // measure 35
1100
0000
0001
0000
0100
0001
0010
0000
,  // measure 36
0110
0000
0000
0000
1000
0000
0000
0000
0101
0000
0000
1000
0000
0000
1100
0000
,  // measure 37
1000
0100
0010
0001
1000
0100
0010
0001
,  // measure 38
1000
0100
1000
0000
0001
0100
0001
0000
1000
0000
0001
0000
1000
0000
0001
0000
,  // measure 39
0200
0000
0000
0000
0010
0010
0310
0000
,  // measure 40
2002
0000
0000
0000
3003
0000
0000
0000
0001
0000
0000
1000
0000
0000
0001
0000
,  // measure 41
0100
0000
0000
0001
0000
0000
0100
0000
0010
0000
0000
1000
0000
0000
0001
0000
,  // measure 42
1000
0000
0000
0100
0010
0000
0001
0000
0100
0000
0000
0001
1000
0000
0010
0000
,  // measure 43
1000
0000
0000
0100
0000
0000
1000
0000
0001
0000
0000
0100
0000
0000
0010
0000
,  // measure 44
0100
0000
0000
0001
0100
0000
0010
0000
0100
0000
0000
0001
1000
0000
0100
0000
,  // measure 45
0010
0000
0000
0001
0000
0000
0010
0000
0100
0000
0000
0010
0000
0000
0001
0000
,  // measure 46
1000
0000
0000
0100
1000
0000
0001
0000
0010
0000
0000
0100
1000
0000
0001
0000
,  // measure 47
0100
0000
0000
0001
0000
0000
1000
0000
0010
0000
0000
1000
0000
0000
0100
0000
,  // measure 48
1000
0000
0100
0000
0001
0000
0000
0000
0100
0000
0000
1000
0001
0000
0100
0000
,  // measure 49
0010
0000
0000
0100
0000
0000
0001
0000
1000
0000
0000
0001
0000
0000
0010
0000
,  // measure 50
0100
0000
0000
0010
0001
0000
0010
0000
1000
0000
0000
0010
0100
0000
0010
0000
,  // measure 51
0001
0000
0000
0100
0000
0000
1000
0000
0100
0000
0000
0001
0000
0000
1000
0000
,  // measure 52
0010
0000
0000
1000
0100
0000
1000
0000
0001
0000
0000
0100
0001
0000
0010
0000
,  // measure 53
0001
0000
0000
0100
0000
0000
0010
0000
1000
0000
0000
0001
0000
0000
1000
0000
,  // measure 54
0100
0000
0000
1000
0100
0000
0010
0000
0001
0000
0000
0010
0100
0000
1000
0000
,  // measure 55
0001
0000
0000
0100
0000
0000
0001
0000
1000
0000
0000
0010
0000
0000
1000
0000
,  // measure 56
0001
0100
1000
0100
0001
0010
1000
0010
,  // measure 57
0001
0000
0000
1010
0000
0000
0001
0000
1000
0000
0000
0101
0000
0000
0010
0000
,  // measure 58
0100
0000
0000
1001
0000
0000
0010
0000
1000
0000
0000
1100
0000
0000
0001
0000
,  // measure 59
0100
0000
0000
0011
0000
0000
0001
0000
1000
0000
0000
0110
0000
0000
0010
0000
,  // measure 60
0100
0000
0000
0101
0000
0000
1000
0000
0010
0000
0000
0000
1000
0000
0001
0000
,  // measure 61
1000
0000
0000
0011
0000
0000
0001
0000
1000
0000
0000
1010
0000
0000
1000
0000
,  // measure 62
0001
0000
0000
1001
0000
0000
0001
0000
0100
0000
0000
1100
0000
0000
1000
0000
,  // measure 63
0001
0000
0000
0110
0000
0000
0010
0000
1000
0000
0000
1001
0000
0000
0100
0000
,  // measure 64
0010
0001
1000
0100
0010
0001
1000
0001
,  // measure 65
0100
0000
0001
0000
1000
0100
1000
0000
,  // measure 66
0020
0000
0230
0000
0301
0100
1000
0100
,  // measure 67
0001
0000
0000
1000
0000
0000
0001
0000
0010
0000
0000
0001
0000
0000
0100
0000
,  // measure 68
0010
0000
0000
1000
0000
0000
0100
0000
0010
0000
0000
0100
0000
0000
0001
0000
,  // measure 69
0100
0000
0000
1000
0000
0000
0010
0000
0100
0000
0000
0001
0000
0000
0100
0000
,  // measure 70
0010
0000
0000
1000
0000
0000
0010
0000
0100
0000
0000
0001
0000
0000
0100
0000
,  // measure 71
0010
0000
0000
1000
0001
0000
0100
0000
0010
0000
0000
0100
0001
0000
1000
0000
,  // measure 72
0100
0000
0000
0010
0001
0000
0100
0000
1000
0000
0000
0100
0010
0000
1000
0000
,  // measure 73
0001
0000
0000
0101
0000
0000
1000
0000
0100
0000
0000
1100
0000
0000
0010
0000
,  // measure 74
0001
0000
0000
1001
0000
0000
0100
0000
0010
0000
0000
1000
0001
0000
0100
0000
,  // measure 75
0001
0100
1000
0100
0010
1000
0001
0020
,  // measure 76
0100
0000
0100
0000
0130
0010
0001
0100
,  // measure 77
1000
0100
0010
1000
0001
0100
0001
2000
,  // measure 78
0100
0000
0010
0000
3001
1000
0010
1000
,  // measure 79
0100
0010
0001
1000
0001
0100
1000
0200
,  // measure 80
0010
0000
1000
0000
0310
0100
0001
0010
,  // measure 81
0100
1000
0001
1000
0010
0100
0001
0020
,  // measure 82
0100
0000
0001
0000
0130
1000
0001
0100
,  // measure 83
0020
0000
0000
0000
,  // measure 84
0000
0000
0000
0000
,  // measure 85
0000
0000
0030
0000
;
