#TITLE:man sieht sich galaxie;
#SUBTITLE:;
#ARTIST:analoq;
#TITLETRANSLIT:;
#SUBTITLETRANSLIT:;
#ARTISTTRANSLIT:;
#GENRE:;
#CREDIT:;
#MENUCOLOR:#3333FF;
#NEWMETERSYSTEM:NO;
#BANNER:man sieht sich galaxie-bn.png;
#BACKGROUND:man sieht sich galaxie-bg.png;
#LYRICSPATH:;
#CDTITLE:PROJECT VIRIDIAN-cdtitle.png;
#MUSIC:man sieht sich galaxie.mp3;
#OFFSET:-0.020;
#SAMPLESTART:61.140;
#SAMPLELENGTH:10.400;
#SELECTABLE:YES;
#LISTSORT:;
#BPMS:0.000=94.220;
#STOPS:;
#BGCHANGES:;
#ATTACKS:;

//---------------dance-single - ----------------
#NOTES:
     dance-single:
     :
     Easy:
     3:
     0.215,0.251,0.145,0.177,0.000:
0000
0000
0000
0000
,
0000
0000
0000
0000
,
0000
0000
0000
0000
,
0000
0000
0000
0001
,
1001
0010
1000
0001
,
1000
0100
0000
1000
,
1001
0001
0010
0001
,
0100
0100
1000
0100
,
1001
0010
0100
0010
,
0001
1000
0000
1000
,
1001
0010
0100
0001
,
1000
1000
0001
0001
,
0200
0000
0000
0310
,
0020
0000
0000
1030
,
0002
0000
0000
0000
,
2003
0000
0000
3000
,
0011
0100
0010
1000
,
0001
0100
1000
0100
,
0010
1000
0001
1000
,
0001
0000
0010
0010
,
1100
0001
0100
0020
,
2030
3001
0002
0103
,
2000
0010
3020
0100
,
0230
0001
0000
0301
,
0001
1000
1000
0000
,
0010
0001
0100
0000
,
0001
1000
0010
1000
,
0001
0000
1000
0000
,
0010
0100
0001
1000
,
0000
0010
0011
0000
,
1100
0001
0010
1000
,
0010
0000
0001
0000
,
1000
0001
0100
0010
,
1000
0001
1000
0100
,
0010
0001
1000
0010
,
1000
0100
0010
0001
,
0110
0001
1000
0102
,
0103
1000
0010
0001
,
0010
1000
2100
3001
,
0010
0100
0010
0001
,
1000
0100
1000
2001
,
3010
0001
0100
1000
,
0100
0001
0210
0310
,
1000
0001
1000
0001
,
0202
0000
0303
0100
,
2020
0000
3030
0100
,
0220
0000
0330
0001
,
0022
0000
0033
0000
,
1001
0000
0000
0000
;

//---------------dance-single - Copied from----------------
#NOTES:
     dance-single:
     Copied from:
     Beginner:
     1:
     0.122,0.173,0.056,0.096,0.000:
0000
0000
0000
0000
,
0000
0000
0000
0000
,
0000
0000
0000
0000
,
0000
0000
0000
0000
,
1000
0000
0001
0000
,
1000
1000
1000
0000
,
0001
0000
1000
0000
,
0001
0001
0001
0000
,
0001
0000
0100
0000
,
0100
0100
0100
0000
,
1000
0000
0010
0000
,
0010
0010
0010
0000
,
0200
0000
0300
0000
,
0020
0000
0030
0000
,
2000
0000
0000
0000
,
0000
0000
3000
0000
,
0001
0000
0000
0010
,
0010
0000
0100
0000
,
1000
0000
0000
0100
,
0100
0000
1000
0000
,
0001
0000
0000
1000
,
1000
0000
0010
0000
,
0100
0000
0001
0000
,
0020
0000
0030
0000
,
1000
1000
1000
0000
,
0010
0010
0010
0000
,
0100
0000
0001
0000
,
1000
0000
0010
0000
,
0100
0100
0100
0000
,
0001
0001
0001
0000
,
0010
0000
0100
0000
,
1000
0000
0001
0000
,
1001
0000
0110
0000
,
0001
0001
0001
0000
,
0110
0000
1001
0000
,
1000
1000
1000
0000
,
0110
0000
0010
0020
,
0030
0000
0100
0000
,
1000
0000
0001
0002
,
0003
0000
1000
0000
,
1000
0000
1000
2000
,
3000
0000
0010
0000
,
0100
0000
0100
0200
,
0300
0000
0010
0000
,
2002
0000
0000
0000
,
3003
0000
0000
0000
,
0220
0000
0000
0000
,
0330
0000
0000
0000
,
0010
0000
0000
0000
;

//---------------dance-single - Copied from----------------
#NOTES:
     dance-single:
     Copied from:
     Medium:
     5:
     0.315,0.347,0.128,0.209,0.000: // measure 1
0000
0000
0000
0000
,  // measure 2
0000
0000
0000
0000
,  // measure 3
0000
0000
0000
0000
,  // measure 4
0000
0000
0000
0000
0000
0001
1000
0001
,  // measure 5
0100
0010
0100
0010
,  // measure 6
1000
0100
1000
0000
0001
0000
0010
0000
,  // measure 7
0001
0000
0100
0001
1000
0100
1000
0000
,  // measure 8
0010
0000
0010
0000
0100
0110
0110
0000
,  // measure 9
0001
0000
0100
0000
0001
0010
1000
0000
,  // measure 10
0010
0000
0001
0000
0100
0001
1000
0001
,  // measure 11
0100
0000
0010
0000
0010
0010
1000
0000
,  // measure 12
0100
0000
1000
0002
0000
0103
0020
1000
,  // measure 13
1030
0100
1000
0010
,  // measure 14
1000
0000
0001
0000
1000
0000
0010
0100
,  // measure 15
0220
0000
0000
0330
,  // measure 16
2002
0000
0000
3003
,  // measure 17
0010
0100
0001
0000
0100
0000
0010
1000
,  // measure 18
0100
0000
1000
0000
0001
0100
1001
0000
,  // measure 19
0100
0000
0010
0000
1000
0000
0100
1000
,  // measure 20
0001
0000
0010
0001
0100
0010
1001
0000
,  // measure 21
0100
0000
1010
0000
0100
0000
0001
0010
,  // measure 22
0001
0100
1000
0000
0100
0010
1000
0000
,  // measure 23
0001
0000
0001
0010
0001
0000
0100
0010
,  // measure 24
0100
0000
0010
0000
1000
0001
0001
1000
,  // measure 25
1100
0000
1000
0010
0100
0000
0002
0000
,  // measure 26
0023
0000
0031
0001
0100
0000
0001
1000
,  // measure 27
0100
0000
1000
0010
0100
0000
0002
0000
,  // measure 28
2003
0000
0100
0000
3200
0000
0310
0010
,  // measure 29
0001
0000
0100
0010
1000
0000
0010
0001
,  // measure 30
0100
0000
1001
0000
0110
0000
0010
1000
,  // measure 31
0002
0000
0103
0010
2000
0000
3100
0010
,  // measure 32
0001
0000
1000
0000
0000
0010
0010
0010
,  // measure 33
1001
0000
0100
0010
1001
0010
0100
0000
,  // measure 34
0010
0001
0010
0001
0000
0100
0010
0000
,  // measure 35
1001
0000
0100
0010
1001
0010
0100
0000
,  // measure 36
0002
0000
0103
2000
0000
3100
0010
1000
,  // measure 37
1001
0000
0001
0010
0100
0010
0002
0000
,  // measure 38
1003
0100
1000
0100
0000
1000
0010
0000
,  // measure 39
0100
0000
0001
0100
2000
0100
3100
0000
,  // measure 40
0100
0000
0010
1000
0001
0001
0010
0000
,  // measure 41
0001
0000
0010
0001
0100
0010
0200
0000
,  // measure 42
0310
0001
1000
0100
0000
0010
0001
0000
,  // measure 43
1000
0000
0001
0010
0200
1000
1300
0000
,  // measure 44
1000
0000
0010
0100
0000
0001
1000
0001
,  // measure 45
0200
0010
0010
0320
,  // measure 46
2030
0001
0001
3002
,  // measure 47
0203
1000
1000
0320
,  // measure 48
2030
0001
0001
3010
,  // measure 49
1001
0000
0000
0000
;

//---------------dance-single - Copied from ----------------
#NOTES:
     dance-single:
     Copied from:
     Hard:
     8:
     0.497,0.584,0.642,0.209,0.265: // measure 1
0000
0000
0000
0000
,  // measure 2
0000
0000
0000
0000
,  // measure 3
0000
0000
0000
0000
,  // measure 4
0000
0000
0000
0000
0000
1000
0001
1000
,  // measure 5
0101
0000
1000
0100
1000
0010
0200
0000
,  // measure 6
0301
0010
0100
2000
0000
3001
0200
0001
,  // measure 7
0310
0000
0100
0010
1000
0001
0002
0000
,  // measure 8
0013
0000
0000
0000
0000
0001
0000
0000
0100
0000
0000
0001
1000
0000
0000
0100
0000
0000
1000
0000
0000
0010
0000
0000
,  // measure 9
0101
0000
1000
0010
0001
0010
2000
0000
,  // measure 10
3001
0010
0100
0020
0000
1030
1000
0010
,  // measure 11
0001
0000
0100
0010
1000
1000
0002
0000
,  // measure 12
0103
0000
0000
0000
0000
0000
0110
0000
0000
2000
0000
0000
0000
0000
0000
3001
0000
0000
0100
0000
0000
0010
0000
0100
,  // measure 13
0001
0000
0000
0000
0000
1000
0001
0000
0100
0000
0000
0100
0000
0000
0000
0000
0000
0000
0110
0000
0000
0000
0000
1001
,  // measure 14
0000
0000
0000
0000
0000
0001
0010
0000
0100
0000
0000
1000
0000
0000
0000
0000
0000
0000
1001
0000
0000
0000
0000
0110
,  // measure 15
0000
0000
0000
0000
0000
1000
0001
0000
0010
0000
0000
0001
0000
0000
0000
0000
0000
0000
2000
0000
0000
0000
0000
0002
,  // measure 16
0000
3003
0000
0000
0000
0001
0100
0000
1000
0000
0000
0100
0000
0000
0010
0100
0000
0000
0010
0000
0000
1000
0000
0000
,  // measure 17
0001
0000
0000
0010
0000
0000
1001
0000
0000
0000
0000
0000
1000
0000
0000
0100
0000
0000
1001
0000
0000
0000
0000
0010
,  // measure 18
0100
0010
1001
0000
0001
0100
1001
0000
,  // measure 19
1100
0000
0000
0010
0000
0000
0101
0000
0000
0000
0000
0000
0010
0000
0000
0100
0000
0000
0011
0000
0000
0000
0000
1100
,  // measure 20
0000
0000
0000
0010
0000
0000
1001
0000
0000
0000
0000
0000
0010
0000
1000
0100
0000
0000
0010
0000
0000
0001
0000
0000
,  // measure 21
0001
0000
0000
1000
0000
0000
0110
0000
0000
0000
0000
0000
1000
0000
0000
0001
0000
0000
0110
0000
0000
0000
0000
0001
,  // measure 22
0010
1000
0110
0000
1000
1000
0110
0000
,  // measure 23
1001
0010
0110
0000
0011
0010
0110
0000
,  // measure 24
1010
0000
0000
0010
0000
0100
0010
0000
1000
0000
0000
0100
0000
0000
0010
0001
0000
0000
0100
0000
0000
1000
0000
0000
,  // measure 25
0100
0000
0000
0010
0000
0000
1000
0000
0001
0100
0000
0001
0000
0000
1000
0000
0000
0000
0110
0000
0000
0000
0000
1001
,  // measure 26
0000
0000
0000
1000
0000
0000
0100
0000
0000
1000
0000
0001
1000
0000
0000
0000
0000
0000
0001
0000
0000
0100
0000
0000
,  // measure 27
0110
0000
0000
0000
0000
0000
1000
0000
0000
0100
0000
0000
1001
0000
0000
0010
0000
0000
0001
0000
0000
0100
0000
0020
,  // measure 28
0000
0000
0000
0000
0000
0000
1030
0000
0000
0001
0000
0200
0000
0000
0000
0000
0000
0000
0310
0000
0000
0100
0000
0000
,  // measure 29
0010
0000
0000
1000
0000
0000
0100
0000
0000
0010
0000
0001
0000
0000
0000
1000
0000
0000
0001
0000
0000
0100
0000
0010
,  // measure 30
0000
0000
0000
1000
0000
0000
0001
0000
0000
0010
0000
0100
0010
0000
0000
0001
0000
0000
1000
0000
0001
0100
0000
0010
,  // measure 31
0000
0000
0100
0000
0000
0000
0010
0000
0000
1000
0000
0000
1001
0000
0000
0100
0000
0000
1000
0100
0010
0001
0000
0000
,  // measure 32
0200
0000
0000
0000
0000
0000
0000
0000
0000
0310
0000
1000
0000
0000
1000
0001
0000
0000
0001
0000
0000
0001
0000
0000
,  // measure 33
1001
0001
1001
0001
0101
1001
0101
0001
,  // measure 34
0011
0011
0101
0101
0001
1001
0011
1001
,  // measure 35
1010
1000
1010
1001
1010
1100
1001
1000
,  // measure 36
1010
0000
0000
1000
0000
0000
1001
0000
0000
1100
0000
0000
1000
0000
0000
1010
0000
0000
1001
0000
0000
1000
0000
0001
,  // measure 37
0100
0010
0100
0001
0011
0101
2100
0001
,  // measure 38
3010
0100
0101
1010
0100
1000
1000
0010
,  // measure 39
0001
0010
0100
0001
0102
0013
1100
0000
,  // measure 40
0120
0000
0000
0000
0000
1000
0030
0000
0100
0000
0000
1000
0010
0000
0000
1000
0000
0000
1100
0000
0000
0011
0000
0000
,  // measure 41
0110
1000
0001
0010
0011
1100
0120
0000
,  // measure 42
1030
0001
0011
1010
0001
1000
0101
0110
,  // measure 43
1001
1000
0010
0100
2100
3001
0011
0100
,  // measure 44
1001
0000
0000
0010
0000
0000
0011
0000
0000
1100
0000
0000
0010
0000
0000
1010
0000
0000
0101
0000
0000
1000
0000
0001
,  // measure 45
0010
0000
0000
0000
0000
0001
0010
0000
0001
0000
0000
0010
0000
0000
0000
0000
0000
0000
0002
0000
0000
0000
0000
0200
,  // measure 46
0000
0303
0000
0000
0000
1000
0100
0000
1000
0000
0000
0100
0000
0000
0000
0000
0000
0000
2000
0000
0000
0000
0000
0020
,  // measure 47
0000
3030
0000
0000
0000
1000
0001
0000
1000
0000
0000
0001
0000
0000
0000
0000
0000
0000
0020
0000
0000
0000
0000
0200
,  // measure 48
0000
0330
0000
0000
0000
0100
0010
0000
0100
0000
0000
0010
0000
0000
0010
0001
0000
0000
1000
0000
0000
0100
0000
0000
,  // measure 49
2002
0000
3003
0000
;
