#TITLE:early RISER;
#SUBTITLE:;
#ARTIST:Plus-Tech Squeeze Box;
#TITLETRANSLIT:;
#SUBTITLETRANSLIT:;
#ARTISTTRANSLIT:;
#GENRE:;
#CREDIT:;
#MENUCOLOR:;
#NEWMETERSYSTEM:NO;
#BANNER:early RISER-bn.png;
#BACKGROUND:early RISER-bg.png;
#LYRICSPATH:;
#CDTITLE:PROJECT VIRIDIAN-cdtitle.png;
#MUSIC:early RISER.mp3;
#OFFSET:-0.300;
#SAMPLESTART:62.320;
#SAMPLELENGTH:14.300;
#SELECTABLE:YES;
#LISTSORT:;
#BPMS:0.000=200.000,116.000=215.000,124.000=200.000;
#STOPS:116.000=2.200
,304.000=0.600
;
#BGCHANGES:;
#ATTACKS:;

//---------------dance-single - ----------------
#NOTES:
     dance-single:
     :
     Easy:
     4:
     0.331,0.404,0.069,0.208,0.000:
0000
0000
0000
0000
,
0000
0000
0010
0010
,
0010
0010
0010
0010
,
0110
1000
0001
0100
,
0001
0000
1000
0100
,
1000
0010
0100
0000
,
0001
0010
0001
0100
,
0001
0000
1000
0100
,
1000
0010
1000
0000
,
0002
0000
0100
0000
,
2003
0000
3200
0000
,
1000
0000
0320
0000
,
0032
0000
1000
0000
,
0023
0000
0230
0000
,
1000
0000
2300
0000
,
3001
0000
0001
0000
,
1000
0001
0100
0000
,
0100
0000
0010
1000
,
0100
0000
0100
0010
,
0001
0000
2002
0000
,
0000
0000
3003
0000
,
0010
0000
0010
0000
,
0010
0000
1000
0000
,
0001
0000
0100
0000
,
1000
0000
0100
0000
,
0001
0000
1000
0000
,
0001
0000
1000
0000
,
0010
0000
0100
0000
,
0010
1000
0001
0000
,
0220
0000
0000
0000
,
0000
0000
0330
0000
,
1001
0000
0000
0000
,
0110
0000
0000
0000
,
1001
0000
0000
0000
,
0110
0010
0010
0010
,
1000
0100
0010
0001
,
0100
0010
1000
0001
,
0100
0001
1000
0100
,
0010
0000
0002
0000
,
0103
0010
0100
0001
,
0100
0010
1000
0000
,
1000
0100
0001
0100
,
1000
0010
0001
0000
,
0100
0001
0010
0001
,
1000
0000
0100
0000
,
0010
0010
0001
0100
,
0020
0000
0030
0000
,
2000
0000
0000
0000
,
0000
0000
0001
0001
,
0001
0001
0001
3001
,
1001
0100
0001
1000
,
0010
0000
0100
0010
,
0100
0001
1000
0000
,
0010
1000
0001
0100
,
0001
0000
0010
0100
,
1000
0001
0010
0000
,
0002
0000
0100
0000
,
2003
0000
3200
0000
,
1000
0000
0320
0000
,
0032
0000
0010
0000
,
0203
0000
0320
0000
,
0100
0000
2030
0000
,
3100
0000
0100
1000
,
0010
0000
0100
0000
,
0001
0100
0001
0000
,
0010
0000
0001
1000
,
0001
0000
0100
0000
,
0010
0100
0002
0000
,
1003
0000
1000
0000
,
1000
0001
1000
0000
,
0010
0000
0100
0000
,
0001
0000
0010
0000
,
0001
0000
0100
0000
,
0001
1000
0100
0000
,
1000
0000
0010
0000
,
0100
0010
0100
0001
,
1000
0100
0001
0100
,
1000
0010
0100
0001
,
1000
0010
0100
0000
,
0001
0100
0010
0100
,
0001
1000
0100
0010
,
0100
1000
0010
0000
,
0100
0000
0001
0000
,
0100
0001
1000
0000
,
0100
0000
1000
0010
,
1000
0000
0010
0000
,
0100
0001
1000
0000
,
0010
0000
0110
0000
,
0100
0000
0001
0000
,
0100
0001
1000
0000
,
0010
0000
1000
0001
,
0100
0000
0001
0000
,
0010
0001
0100
0000
,
0010
0000
0200
0000
,
0310
0000
0010
0000
,
1000
0100
0001
0000
,
0100
0000
0010
0000
,
0100
0000
1000
0000
,
0001
0000
1000
0000
,
0100
0001
1000
0000
,
0001
0000
0100
0000
,
0001
1000
0001
1000
,
0020
0200
0000
0000
,
0000
0000
0000
0000
,
0000
0000
0000
0330
;

//---------------dance-single - Copied from----------------
#NOTES:
     dance-single:
     Copied from:
     Beginner:
     2:
     0.142,0.202,0.008,0.085,0.000:
0000
0000
0000
0000
,
0000
0000
1000
0000
,
1000
0000
1000
0000
,
0002
0000
0000
0000
,
0003
0000
2000
0000
,
0000
0000
3000
0000
,
0020
0000
0000
0000
,
0030
0000
0200
0000
,
0000
0000
0300
0000
,
0001
0000
0000
0000
,
0001
0000
1000
0000
,
0000
0000
1000
0000
,
0010
0000
0000
0000
,
0010
0000
0100
0000
,
0000
0000
0100
0000
,
0001
0000
0000
0000
,
0001
0000
0100
0000
,
0000
0000
0100
0000
,
0010
0000
0000
0000
,
0010
0000
1000
0000
,
0000
0000
0000
0000
,
0010
0000
0000
0000
,
0010
0000
0000
0000
,
1000
0000
0000
0000
,
0001
0000
0000
0000
,
0100
0000
0100
0000
,
0010
0000
0000
0000
,
0001
0000
0000
0000
,
1000
0000
0000
0000
,
0020
0000
0000
0000
,
0000
0000
0030
0000
,
1000
0000
0000
0000
,
0001
0000
0000
0000
,
1000
0000
0000
0000
,
0001
0000
0000
0000
,
1000
0000
0001
0000
,
1000
0000
0001
0000
,
1000
0000
0001
0000
,
1000
0000
0000
0000
,
0010
0000
0000
0000
,
0100
0000
0000
0000
,
0010
0000
0000
0000
,
0100
0000
0000
0000
,
0010
0000
0100
0000
,
0010
0000
0100
0000
,
0010
0000
0100
0000
,
0010
0000
0000
0000
,
1000
0000
0000
0000
,
0000
0000
0020
0000
,
0000
0000
0030
0000
,
1001
0000
0000
0000
,
0100
0000
0100
0000
,
0000
0000
0010
0000
,
0010
0000
0000
0000
,
0001
0000
0001
0000
,
0000
0000
1000
0000
,
1000
0000
0000
0000
,
1000
0000
0100
0000
,
0000
0000
0010
0000
,
0001
0000
0000
0000
,
0010
0000
0100
0000
,
0000
0000
0001
0000
,
1000
0000
0000
0000
,
1000
0000
0010
0000
,
0000
0000
0001
0000
,
0100
0000
0000
0000
,
0010
0000
0100
0000
,
0000
0000
0000
0000
,
1000
0000
1000
0000
,
0001
0000
0000
0000
,
0001
0000
0100
0000
,
0001
0000
0000
0000
,
0010
0000
0010
0000
,
0010
0000
0000
0000
,
1000
0000
0001
0000
,
1000
0000
0000
0000
,
0100
0000
0000
0000
,
0000
0000
0010
0000
,
0000
0000
0000
0000
,
0001
0000
0000
0000
,
0000
0000
0100
0000
,
0000
0000
0000
0000
,
2000
0000
0000
0000
,
3000
0000
0002
0000
,
0000
0000
0003
0000
,
0020
0000
0000
0000
,
0030
0000
0200
0000
,
0000
0000
0300
0000
,
1000
0000
0000
0000
,
1000
0000
1000
0000
,
0000
0000
0001
0000
,
0001
0000
0000
0000
,
0010
0000
0010
0000
,
0000
0000
0000
0000
,
0010
0000
0000
0000
,
0001
0000
0000
0000
,
1000
0000
0010
0000
,
1000
0000
0000
0000
,
0100
0000
0000
0000
,
0001
0000
0000
0000
,
0010
0000
0001
0000
,
0010
0000
0000
0000
,
0002
0000
0000
0000
,
0000
0000
0000
0000
,
0000
0000
0000
0003
;

//---------------dance-single - Copied from----------------
#NOTES:
     dance-single:
     Copied from:
     Medium:
     6:
     0.451,0.526,0.100,0.116,0.000:
0000
0000
0000
0000
,
0000
0000
0010
0010
,
0010
0100
0010
0100
0010
0100
0010
0000
,
1001
0000
0001
0000
0100
0000
0001
1000
,
0000
0010
0000
0000
0100
0000
0010
0000
,
1000
0000
0100
0010
0000
0001
0000
0000
,
0100
0000
0001
0000
1000
0000
0001
0100
,
0000
0010
0000
0000
1000
0000
0001
0000
,
1000
0000
0100
0010
0000
0001
0000
0000
,
0100
0000
0001
0000
0100
0000
0010
1000
,
0000
0001
0000
0000
1000
0000
0100
0000
,
1000
0000
0001
1000
0000
0100
0000
0000
,
0010
0000
0100
0000
0001
0000
0010
0001
,
0000
0001
0000
0000
0010
0000
0100
0000
,
0001
0000
0100
0010
0000
1000
0000
0000
,
0001
0100
1000
0100
,
0001
0010
0100
0010
,
0001
1000
0100
0010
,
0100
0000
0100
0000
0010
0000
0100
0010
,
0000
0001
0000
0000
1000
0000
0100
0000
,
1000
0020
0000
0000
,
1030
0000
0001
0000
0100
0001
0000
0000
,
1000
0000
0100
1000
0000
0000
0010
0000
,
0100
0000
0001
0000
0100
0001
0010
0000
,
0100
0000
0010
0000
0100
1000
0010
0000
,
0100
0001
1000
0100
,
1000
0000
0010
1000
0000
0000
0100
0000
,
0010
0000
0100
0000
0001
0000
0000
1000
,
0000
0100
0000
0010
0000
0001
0000
0100
,
0002
0000
0000
0000
,
0000
0000
0000
0000
,
1003
0000
0000
0100
0000
0000
1000
0000
,
0010
0000
0000
0100
0000
0000
0001
0000
,
0010
0000
0000
0100
0000
0000
0010
0000
,
0002
0100
0100
0103
,
0010
0000
0000
0100
0000
0000
0010
0000
,
1000
0000
0000
0001
0000
0000
0001
0000
,
0100
0000
0000
0001
0000
0000
1000
0000
,
0100
0010
0220
0330
,
0001
0000
0000
1000
0000
0000
0001
0000
,
0100
0000
0000
0010
0000
0000
0100
0000
,
0010
0000
0000
1000
0000
0000
0100
0000
,
0010
0000
0000
0100
0000
0000
0010
0000
,
0001
0000
0100
0001
0000
0000
1000
0000
,
0010
0000
0100
0010
0000
0000
1000
0000
,
0001
0000
0001
0100
0000
0000
0010
0000
,
2002
0000
0000
3003
,
0110
0000
0000
0000
,
0000
0000
0100
0100
,
0100
0010
0100
0010
0100
0010
0100
0000
,
1001
0000
0001
0000
0100
0000
0010
1000
,
0000
0100
0000
0000
1000
0000
0001
0000
,
0100
0000
0001
0010
0000
0100
0000
0000
,
0010
0000
0001
0000
1000
0000
0001
1000
,
0000
0100
0000
0000
0010
0000
0100
0000
,
0010
0000
1000
0100
0000
0010
0000
0000
,
0100
0000
0001
0000
0100
0000
0010
1000
,
0000
0001
0000
0000
0100
0000
0001
0000
,
1000
0000
0010
0100
0000
0001
0000
0000
,
1000
0000
0001
0000
0100
0000
0010
1000
,
0000
1000
0000
0000
0100
0000
0010
0000
,
0100
0000
0001
1000
0000
0100
0000
0000
,
0010
0100
0010
0001
,
0100
1000
0100
0001
,
0010
0100
0010
0001
,
1000
0000
0001
0000
0100
0000
0001
0010
,
0000
0100
0000
0000
0010
0000
0001
0000
,
1000
0200
0000
0000
,
0310
0001
0100
0001
,
1000
0100
0010
0100
,
0010
0000
0001
0000
0100
0000
0010
1000
,
0000
0001
0000
0100
0000
0000
0010
0000
,
0100
0010
1000
0001
,
0100
0000
0001
0010
0000
0000
0001
0000
,
1000
0000
0100
0000
1000
0000
0000
0010
,
0000
0010
0000
0100
0000
0100
0000
0010
,
0100
0110
0110
0001
,
0100
1000
0100
0101
,
0101
1000
0010
0100
,
0001
0011
0011
0100
,
0010
1000
0100
1100
,
1100
0010
0100
0001
,
2000
0100
0010
0001
,
0100
0001
3020
0100
,
1000
0100
0001
0100
,
2030
0001
0100
0010
,
0001
0100
3002
0010
,
0100
0010
1000
0100
,
0010
0003
0100
0000
0001
0000
1000
0000
,
0100
0010
0100
0010
,
0001
0100
1000
0100
,
0010
0100
0001
1000
,
0010
0100
0001
1000
,
0010
0100
0002
0000
,
0103
0010
1000
0010
,
0100
0000
0001
1000
0000
0000
0100
0000
,
0010
0000
1000
0000
0100
0000
0100
0010
,
0000
0010
0000
0001
0000
0000
0100
0000
,
0001
0000
1000
0000
0001
0100
0000
0000
,
0010
0000
1000
0100
0000
0000
0010
0000
,
0100
0000
0010
0000
0001
0000
0000
0001
,
0000
1000
0000
0001
0000
1000
0000
0001
,
2000
0200
0000
0000
,
0000
0000
0000
0000
,
0000
0000
0000
3300
;

//---------------dance-single - Copied from ----------------
#NOTES:
     dance-single:
     Copied from:
     Hard:
     9:
     0.686,0.687,0.718,0.401,0.000: // measure 1
0000
0000
0000
0000
,  // measure 2
0000
0000
0011
0110
,  // measure 3
1100
0000
0001
0100
1000
0100
0001
0000
,  // measure 4
1001
0000
0100
0000
0010
1000
0100
0020
,  // measure 5
0000
0230
0000
0301
0010
0100
0010
1000
,  // measure 6
0100
0010
0001
2000
0000
3020
0000
1030
,  // measure 7
0100
0001
0100
1000
0010
1000
0001
0200
,  // measure 8
0000
0302
0000
0103
0010
1000
0100
1000
,  // measure 9
0001
0100
0001
2000
0000
3002
0000
0013
,  // measure 10
0110
0000
0001
0000
0100
0000
0010
1000
,  // measure 11
0000
0001
0000
0000
0110
0000
1000
0000
,  // measure 12
0001
0000
1000
0100
0000
0001
0000
0000
,  // measure 13
0101
0000
0010
0000
0100
0000
0001
0010
,  // measure 14
0000
1000
0000
0000
0110
0000
1000
0000
,  // measure 15
0001
0000
1000
0010
0000
0100
0000
0000
,  // measure 16
0011
0000
1000
0000
0010
0000
0100
0010
,  // measure 17
0000
0100
0001
1000
0000
0010
1000
0100
,  // measure 18
0000
0010
0001
0100
0000
0010
0000
0000
,  // measure 19
1001
0010
0100
0010
,  // measure 20
0001
0100
1010
0100
,  // measure 21
0101
2002
0000
3003
,  // measure 22
0110
0000
1000
0000
0001
0100
0000
0100
,  // measure 23
0001
1000
0000
0210
0000
0301
0010
0000
,  // measure 24
0100
0000
1000
0100
0010
0000
0100
0010
,  // measure 25
0000
0001
1000
0100
0000
0000
0010
0000
,  // measure 26
0101
0000
1010
0000
0001
0100
0000
0100
,  // measure 27
0010
0000
1000
0100
0000
0100
0010
0000
,  // measure 28
0001
0000
0100
0001
0100
1000
0100
0020
,  // measure 29
0000
0230
0000
0302
0000
2003
0000
3100
,  // measure 30
2200
0000
0000
0000
,  // measure 31
0000
0000
0000
3300
,  // measure 32
1000
0100
0010
0001
0010
0100
1000
0001
,  // measure 33
1000
0100
0010
0001
0010
0100
1000
0010
,  // measure 34
1000
0100
0010
0001
0010
0100
1000
0001
,  // measure 35
1000
0100
0010
0001
0010
0100
1000
0100
,  // measure 36
0011
0101
0010
1001
,  // measure 37
0100
1100
0110
0101
,  // measure 38
0010
0101
1000
0110
,  // measure 39
0001
1100
2002
3003
,  // measure 40
0010
0101
0010
1001
,  // measure 41
0100
0000
0011
0000
1010
0000
0110
0001
,  // measure 42
1000
0101
0001
0110
,  // measure 43
0001
1100
0010
0101
,  // measure 44
1001
0110
1000
0101
,  // measure 45
0010
1100
0010
0110
,  // measure 46
0001
0101
0001
1100
,  // measure 47
2002
0000
0000
3003
,  // measure 48
0110
0000
0000
0000
,  // measure 49
0000
0000
0110
1001
,  // measure 50
1001
0000
0010
0100
0001
1000
0010
0001
,  // measure 51
0110
0000
0101
0000
0010
0100
0001
2000
,  // measure 52
0000
3020
0000
1030
0110
0000
0001
0100
,  // measure 53
0010
1000
0001
0200
0000
0320
0000
0031
,  // measure 54
0101
0000
0010
1000
0100
0001
0100
0020
,  // measure 55
0000
0230
0000
0310
0011
0000
1000
0100
,  // measure 56
0001
0100
1000
0002
0000
0203
0000
1300
,  // measure 57
1001
0000
0110
0000
0010
0100
0001
1000
,  // measure 58
0100
1000
0010
0100
,  // measure 59
0001
0100
0010
0100
0001
0000
0010
0000
,  // measure 60
1100
0000
0010
0000
0100
0010
0100
1000
,  // measure 61
0001
0100
0010
1000
,  // measure 62
0001
0100
1000
0100
0001
0000
0100
0000
,  // measure 63
1010
0000
0101
0000
1010
0000
0100
0010
,  // measure 64
0000
0100
0001
1000
0000
0010
1000
0100
,  // measure 65
0000
0010
0001
0020
0000
0032
0000
1003
,  // measure 66
1100
0000
0010
0000
0100
0010
0100
0002
,  // measure 67
0000
0203
0000
0310
0101
0000
0100
0000
,  // measure 68
0010
0100
0002
0000
0000
0000
0003
0000
,  // measure 69
1001
0000
0010
0000
0100
0010
0000
0010
,  // measure 70
0100
0000
0001
1000
0000
1000
0100
0000
,  // measure 71
1000
0000
0010
0000
0100
0000
0001
0100
,  // measure 72
0000
0110
0000
2020
0000
0000
3030
0000
,  // measure 73
1000
0000
0100
0000
1000
0010
0000
0100
,  // measure 74
0001
0000
1000
0100
0000
0001
0010
0000
,  // measure 75
0100
0000
0010
0001
0100
0000
0010
2000
,  // measure 76
0000
3002
0000
0203
0000
0302
0000
0013
,  // measure 77
0100
0000
1100
0000
0110
0000
0100
0001
,  // measure 78
0000
0100
0001
1000
0100
0000
1010
0000
,  // measure 79
0102
0000
0000
1000
0000
0103
0000
0000
,  // measure 80
1100
0000
0011
0000
1100
0000
0001
0100
,  // measure 81
0000
0010
1000
0001
0100
0000
1100
0000
,  // measure 82
0210
0000
0000
0010
0000
0301
0000
0000
,  // measure 83
0101
1010
0001
0100
,  // measure 84
0010
0000
1000
0100
0010
0000
0100
0000
,  // measure 85
0010
0000
0100
0000
0001
0100
1000
0100
,  // measure 86
0010
0100
0001
1000
,  // measure 87
0100
0000
0100
0010
0001
0000
1000
0000
,  // measure 88
0010
0000
1000
0000
0100
1000
0100
1000
,  // measure 89
0110
0000
0101
0000
1001
0000
0100
0010
,  // measure 90
0000
0100
0010
0000
1100
0000
0110
0000
,  // measure 91
0011
0000
0100
0010
0000
1000
0100
0010
,  // measure 92
1001
0000
0101
0000
1001
0000
0010
0001
,  // measure 93
0000
1000
0100
0010
1100
0000
0011
0000
,  // measure 94
1100
0020
0200
0030
,  // measure 95
0310
0000
0010
0000
0100
0010
0000
0100
,  // measure 96
0010
0000
1000
0100
0000
0001
1000
0000
,  // measure 97
0001
0000
0100
0000
0001
0000
0010
0002
,  // measure 98
0000
1000
0000
0020
0000
0000
0033
0000
,  // measure 99
0110
1000
0101
0010
,  // measure 100
0011
0000
0110
0000
1000
0100
0010
0000
,  // measure 101
0100
0000
1000
0000
0001
0000
0100
0002
,  // measure 102
0000
0023
0000
0230
0000
2300
0000
3010
,  // measure 103
2002
0000
0000
0000
,  // measure 104
0000
0000
0000
0000
,  // measure 105
0000
0000
0000
3003
;
