#TITLE:butterfly;
#SUBTITLE:(Hyper K Mix);
#ARTIST:SMiLE.dk;
#TITLETRANSLIT:;
#SUBTITLETRANSLIT:;
#ARTISTTRANSLIT:;
#GENRE:;
#CREDIT:;
#MENUCOLOR:#00FF00;
#NEWMETERSYSTEM:NO;
#BANNER:butterfly (Hyper K Mix)-bn.png;
#BACKGROUND:butterfly (Hyper K Mix)-bg.png;
#LYRICSPATH:butterfly (Hyper K Mix).lrc;
#CDTITLE:;
#MUSIC:butterfly (Hyper K Mix).mp3;
#OFFSET:-0.560;
#SAMPLESTART:87.300;
#SAMPLELENGTH:12.080;
#SELECTABLE:YES;
#LISTSORT:;
#BPMS:0.000=157.700;
#STOPS:;
#BGCHANGES:;
#ATTACKS:;

//---------------dance-single - ----------------
#NOTES:
     dance-single:
     :
     Easy:
     3:
     0.238,0.255,0.016,0.126,0.000:
0000
0000
0000
0000
,
0000
0000
0000
0000
,
0000
0000
0000
0000
,
0000
0000
0000
0000
,
0010
0000
0000
0000
,
0100
0000
0000
0000
,
1000
0000
1000
0000
,
0001
0000
0000
0010
,
0110
0000
0010
0000
,
1000
0100
0001
0000
,
0100
0000
1000
0000
,
0001
0010
1000
0000
,
0010
0000
0001
0000
,
0100
0010
1000
0000
,
0001
0000
1000
0002
,
0200
0000
0000
0303
,
0010
0000
1000
0001
,
0100
0000
0010
1000
,
0100
0000
0100
0000
,
0010
0010
0010
0001
,
0100
0000
0100
0010
,
1000
0000
1000
0001
,
0100
0000
0010
0000
,
1000
0001
0100
0001
,
1000
0100
0100
0000
,
1000
0010
0100
0000
,
0001
0000
0001
0000
,
0010
0001
0100
0000
,
1000
0000
0001
0000
,
0100
0010
0100
0000
,
0010
0000
0001
0000
,
0010
1000
0100
0000
,
2000
0000
0000
0001
,
3002
0000
0000
0100
,
0203
0000
0000
0000
,
0310
0000
0010
0000
,
0200
0000
0000
0010
,
0320
0000
0000
1000
,
2030
0000
0000
0000
,
3001
0000
0001
0000
,
1000
0000
1000
1001
,
0010
0000
0010
0000
,
1000
0000
1000
0000
,
0100
0000
0001
0000
,
0010
0001
0100
0010
,
1000
0000
0010
0000
,
0100
0000
0001
0000
,
0010
0000
0100
2000
,
0200
0000
0000
3300
,
0001
0000
0100
0010
,
1000
0000
0100
0010
,
0001
0000
0001
0000
,
0100
0100
0100
1000
,
0001
0000
0010
0001
,
0100
0000
0010
0100
,
0010
0000
1000
0000
,
0100
1000
0010
1000
,
0001
0100
0001
0000
,
1000
0100
0010
0000
,
0100
0010
0100
0000
,
0001
0100
1000
0000
,
0010
0100
0001
0000
,
1000
0010
1000
0000
,
0010
0100
0010
0000
,
0001
0100
1000
0000
,
0100
0010
1000
0000
,
0001
0010
0001
0000
,
1000
0100
0001
0000
,
0100
1000
0010
0000
,
0100
0001
1000
0000
,
0010
1000
0010
0000
,
0010
1000
1000
0000
,
0100
0001
0100
0000
,
0002
0000
0000
0010
,
0023
0000
0000
0100
,
0230
0000
0000
0000
,
1300
0000
0001
0000
,
2000
0000
0000
0010
,
3020
0000
0000
0100
,
0230
0000
0000
0301
,
1000
0001
0100
0000
,
0010
0000
0000
0000
;

//---------------dance-single - Copied from----------------
#NOTES:
     dance-single:
     Copied from:
     Beginner:
     1:
     0.140,0.159,0.016,0.141,0.000:
0000
0000
0000
0000
,
0000
0000
0000
0000
,
0000
0000
0000
0000
,
0000
0000
0000
0000
,
0010
0000
0000
0000
,
0010
0000
0000
0000
,
0100
0000
0100
0000
,
0100
0000
0000
0000
,
1001
0000
0000
0000
,
0010
0000
0000
0000
,
0001
0000
0000
0000
,
1000
0000
0000
0000
,
0010
0000
0000
0000
,
0100
0000
0000
0000
,
1000
0000
0000
0000
,
0002
0000
0003
0000
,
0001
0000
0000
0010
,
0010
0000
0000
0100
,
0100
0000
1000
0000
,
2000
0000
3000
0000
,
0010
0000
0000
0100
,
0100
0000
0000
0001
,
0001
0000
0010
0000
,
0020
0000
0030
0000
,
0001
0000
0100
0000
,
1000
0000
0000
0000
,
1000
0000
0010
0000
,
0001
0000
0000
0000
,
1000
0000
0100
0000
,
0001
0000
0000
0000
,
0001
0000
0010
0000
,
1000
0000
0000
0000
,
0200
0000
0300
0000
,
0200
0000
0300
0000
,
0020
0000
0030
0000
,
0100
0000
0000
0000
,
0002
0000
0003
0000
,
0002
0000
0003
0000
,
2000
0000
3000
0000
,
0010
0000
0000
0000
,
0100
0000
0100
0000
,
1001
0000
0000
0000
,
1000
0000
0000
0000
,
0100
0000
0000
0000
,
0001
0000
0000
0000
,
1000
0000
0000
0000
,
0010
0000
0000
0000
,
0001
0000
0000
0000
,
0200
0000
0300
0000
,
0010
0000
0000
1000
,
1000
0000
0000
0100
,
0100
0000
1000
0000
,
0020
0000
0030
0000
,
0001
0000
0000
1000
,
1000
0000
0000
0010
,
0010
0000
0010
0000
,
2000
0000
3000
0000
,
0001
0000
0100
0000
,
1000
0000
0000
0000
,
1000
0000
0010
0000
,
0001
0000
0000
0000
,
1000
0000
0100
0000
,
0001
0000
0000
0000
,
0001
0000
0010
0000
,
1000
0000
0000
0000
,
0100
0000
0010
0000
,
0001
0000
0000
0000
,
1000
0000
0100
0000
,
0010
0000
0000
0000
,
0001
0000
0010
0000
,
0100
0000
0000
0000
,
0010
0000
0100
0000
,
1000
0000
0000
0000
,
0020
0000
0030
0000
,
0020
0000
0030
0000
,
2000
0000
3000
0000
,
0001
0000
0000
0000
,
0200
0000
0300
0000
,
0200
0000
0300
0000
,
0002
0000
0003
0000
,
1000
0000
1000
0000
,
0100
0000
0000
0000
;

//---------------dance-single - Copied from----------------
#NOTES:
     dance-single:
     Copied from:
     Medium:
     6:
     0.484,0.476,0.196,0.157,0.000:
0000
0000
0000
0000
,
0000
0000
0000
0000
,
0000
0000
0000
0000
,
0000
0000
0000
0000
,
0110
0000
0000
0000
0000
1001
0000
0000
,
1001
0000
0000
0000
0000
0110
0000
0000
,
0110
0000
0110
0000
,
1001
0000
0000
0100
,
0010
1000
0100
0000
1000
0000
0001
0000
,
0100
0001
0010
0000
0100
0000
0010
0000
,
0001
0010
0001
0000
1000
0100
1000
0000
,
0010
0010
0100
0010
,
1000
0100
0001
0000
0100
0000
1000
0000
,
0001
0010
1000
0000
0010
0000
0001
0000
,
0100
0000
0001
0000
0100
0010
0010
0000
,
2020
0000
0000
3030
,
0001
0000
0100
0010
0100
0000
1000
0000
,
0100
0000
0010
0001
0100
0000
0001
0000
,
1000
0002
0000
0100
2000
0003
3000
0000
,
0110
0110
0110
0001
,
1000
0000
0010
1000
0100
0000
1000
0000
,
0001
0000
0100
0010
0100
0000
0001
0000
,
1000
0010
0200
0000
0310
0200
0001
0300
,
1000
0101
1000
0101
,
0010
0000
0100
0010
0001
0000
0100
0001
,
1000
0010
1000
0000
0100
0000
0010
0000
,
0100
0010
0001
1000
0100
0000
1000
0000
,
0010
0000
0100
0001
0100
0000
0110
0000
,
0010
0000
1000
0100
0010
0000
0100
0010
,
0001
0100
0001
0000
1000
0000
0010
0000
,
0100
0001
0010
0001
1000
0000
0100
0000
,
1000
0010
0100
0000
0001
0000
1001
0000
,
0010
0100
0010
1000
0010
0000
0100
0000
,
0001
0010
0001
0100
0001
0000
1000
0000
,
1000
0010
0100
0010
0100
0000
0001
0000
,
0200
0320
2030
3200
,
0310
0001
0010
0001
0100
0000
0010
0000
,
1000
0100
1000
0010
1000
0000
0010
0000
,
0100
0001
0010
0001
0100
0000
0010
0000
,
1000
0100
0100
0100
,
0001
0001
1000
0110
,
0001
0100
0001
0000
1000
0000
0010
0000
,
1000
0100
0010
0000
0100
0000
0001
0000
,
0100
1000
0001
0000
0100
0000
0001
0000
,
0010
0001
0010
0000
0100
0000
1100
0000
,
0010
0100
0010
0000
0001
0000
1000
0000
,
0010
0100
0001
0000
1000
0000
0010
0000
,
1000
0100
1000
0000
0001
0001
0100
0000
,
2002
0000
0000
3003
,
0010
0000
0100
0001
0100
0000
0001
0000
,
1000
0000
0010
0100
0010
0000
1000
0000
,
0100
2000
0000
0001
0020
3000
0030
0000
,
1001
1001
1001
0010
,
0100
0000
0001
0010
0100
0000
1000
0000
,
0010
0000
0100
0010
0100
0000
0001
0000
,
0010
0001
0020
0000
0130
0020
0000
0031
,
0001
1100
0001
1100
,
0010
0100
1000
0001
0100
0000
0010
0100
,
0001
1000
0100
0000
0010
0100
0100
0000
,
1000
0000
0010
0100
0001
0000
1000
0100
,
0001
0100
1000
0000
0010
0000
0100
0000
,
0001
0000
0100
0001
1000
0000
0100
1000
,
0010
0100
0001
0000
1000
0100
0100
0000
,
0010
0000
0100
1000
0001
0000
0100
0001
,
0100
0010
0100
0000
0010
0000
1001
0000
,
0010
0100
0010
1000
0001
0000
0010
0000
,
0001
0100
0010
0000
1000
0100
0100
0000
,
1000
0000
0001
0100
1000
0000
0100
0001
,
1000
0010
0100
0000
0001
0000
1000
0000
,
0010
0000
0100
0001
1000
0000
0010
1000
,
0100
1000
0010
0000
0100
0001
0001
0000
,
0010
0000
0100
1000
0001
0000
0100
0001
,
1000
0100
1000
0000
0010
0000
0100
0000
,
0001
1000
0001
0100
0001
0000
1000
0000
,
0010
1000
0010
1000
0001
0000
0100
0000
,
0100
0010
1000
0010
1000
0000
0100
0000
,
2000
3002
0203
0320
,
1030
0100
1000
0100
1000
0000
0001
0000
,
0010
0001
0010
0001
0010
0000
0100
0000
,
1000
0001
1000
0001
0100
0000
0010
0000
,
0100
0100
0100
1001
;

//---------------dance-single - Copied from ----------------
#NOTES:
     dance-single:
     Copied from:
     Hard:
     8:
     0.575,0.539,0.306,0.149,0.047: // measure 1
0000
0000
0000
0000
,  // measure 2
0000
0000
0000
0000
,  // measure 3
0000
0000
0000
0000
,  // measure 4
0000
0000
0000
0000
,  // measure 5
1010
0000
0000
0000
0000
0101
0000
0000
,  // measure 6
1001
0000
0000
0000
0000
0110
0000
0000
,  // measure 7
1100
0000
0011
0000
,  // measure 8
0110
0000
0000
1001
,  // measure 9
0100
1000
0010
0100
0001
0000
1000
0000
,  // measure 10
0001
0100
1000
0100
0001
0000
0010
0000
,  // measure 11
0100
1000
0010
1000
0100
0001
0100
1000
,  // measure 12
0010
0000
0100
0000
0001
0100
1001
0000
,  // measure 13
0010
0100
0001
1000
0100
0000
0010
0000
,  // measure 14
0001
0100
0001
1000
0010
0000
1000
0000
,  // measure 15
0100
1000
0010
0100
0001
1000
0020
0000
,  // measure 16
0200
0000
0000
0000
0330
0000
0000
0000
0001
1000
0001
0000
0100
0000
0000
0000
,  // measure 17
0010
0000
0000
0100
0001
0000
0100
0000
0010
0000
0000
0000
1001
0000
0000
0000
,  // measure 18
1000
0000
0000
0100
1000
0000
0010
0000
1000
0000
0000
0000
0110
0000
0000
0000
,  // measure 19
0001
0011
0000
1000
1100
0000
0010
0000
,  // measure 20
0110
1001
0110
0002
,  // measure 21
1003
0000
0000
0100
0010
0000
0001
0000
0100
0000
0000
0000
0001
0000
1000
0000
,  // measure 22
0001
0000
0000
0010
0100
0000
1000
0000
0001
0000
0000
0000
0100
0000
0000
0000
,  // measure 23
0010
0000
1100
0000
0001
0101
0000
0010
,  // measure 24
0200
0301
0200
1300
,  // measure 25
0010
0000
0100
0010
0100
0000
0001
0100
,  // measure 26
1000
0100
0001
1000
0100
0010
1001
0000
,  // measure 27
0100
0000
0010
0100
0001
0000
1000
0100
,  // measure 28
1000
0001
0100
0001
0010
0000
0100
0000
,  // measure 29
0001
0000
0100
0010
1000
0000
0010
0100
,  // measure 30
0001
1000
0100
0010
0001
1000
1010
0000
,  // measure 31
0100
0000
0010
0100
0001
0000
1000
0100
,  // measure 32
0010
0100
1000
0010
0100
0000
0001
0000
,  // measure 33
0100
0010
0100
0010
1000
0100
1000
0000
,  // measure 34
0001
0100
0001
0100
0001
0010
0001
0000
,  // measure 35
0100
0010
0100
0010
0001
0010
1000
0200
,  // measure 36
0000
0320
0000
0032
0000
0203
0000
0310
,  // measure 37
1000
0010
1000
0010
0100
0001
0100
0000
,  // measure 38
0010
0100
0010
0100
0010
1000
0010
0000
,  // measure 39
0100
0001
0100
0001
1000
0010
0001
0000
,  // measure 40
0010
0000
0100
0000
0010
0000
0000
0100
0010
0000
0000
0100
0010
0000
0000
0000
,  // measure 41
1000
0100
0001
0100
1000
0000
1001
0000
,  // measure 42
0010
0100
0001
0010
0100
0000
0001
0000
,  // measure 43
0100
1000
0010
0100
0001
0000
1000
0000
,  // measure 44
0010
0100
0010
1000
0001
0100
0001
0010
,  // measure 45
0100
0000
1000
0000
0010
0100
1001
0000
,  // measure 46
1000
0100
0010
0001
0100
0000
0010
0000
,  // measure 47
1000
0001
0100
0010
1000
0000
0100
0000
,  // measure 48
0010
0001
0010
0100
1000
0010
2000
0000
,  // measure 49
0002
0000
0000
0000
3003
0000
0000
0000
1000
0001
1000
0000
0010
0000
0000
0000
,  // measure 50
0100
0000
0000
0001
0100
0000
0001
0000
1000
0000
0000
0000
0110
0000
0000
0000
,  // measure 51
0010
0000
0000
1000
0010
0000
1000
0000
0001
0000
0000
0000
0110
0000
0000
0000
,  // measure 52
0001
0011
0000
1000
1100
0000
0010
0000
,  // measure 53
1001
0110
1001
0200
,  // measure 54
0310
0000
0000
0001
0010
0000
0001
0000
1000
0000
0000
0000
0110
0000
0000
0000
,  // measure 55
0100
0000
0000
1000
0100
0000
0010
0000
0001
0000
0000
0000
0110
0000
0000
0000
,  // measure 56
0001
0000
0101
0000
1000
1100
0000
0100
,  // measure 57
0020
0031
0020
1030
,  // measure 58
0010
0000
0001
0100
1000
0000
0100
0010
,  // measure 59
1000
0001
0100
0001
1000
0010
1001
0000
,  // measure 60
0100
0000
0100
0010
0100
0000
1000
0100
,  // measure 61
0010
0100
0001
0010
0100
0000
0001
0000
,  // measure 62
0010
0000
0100
1000
0001
0000
0010
0001
,  // measure 63
0100
0010
0100
1000
0100
0010
1001
0000
,  // measure 64
1000
0000
0001
1000
0010
0000
0100
0010
,  // measure 65
1000
0001
0100
0001
1000
0000
0120
0000
,  // measure 66
1030
0000
0010
0100
0010
0000
1000
0100
,  // measure 67
0010
0001
0010
0100
1000
0001
0011
0000
,  // measure 68
0100
0000
0010
0100
1000
0000
0001
0010
,  // measure 69
0100
0010
1000
0010
0001
0000
0100
0000
,  // measure 70
0001
0000
0010
0100
1000
0000
0010
0100
,  // measure 71
0001
1000
0100
0010
0001
1000
0110
0000
,  // measure 72
0001
0000
0100
0010
0100
0000
0010
1000
,  // measure 73
0100
0010
0100
1000
0001
0000
0100
0000
,  // measure 74
0010
0100
0010
0100
0001
0010
0001
0000
,  // measure 75
1000
0100
1000
0100
0010
0100
0010
0000
,  // measure 76
0001
1000
0001
1000
0001
0010
1000
0020
,  // measure 77
0000
0032
0000
0203
0000
2300
0000
3100
,  // measure 78
0010
0100
0010
0100
0001
0100
0001
0000
,  // measure 79
1000
0010
1000
0010
0100
0010
0100
0000
,  // measure 80
0001
0010
0001
0010
0100
1000
0010
0000
,  // measure 81
0100
0001
1000
0100
0010
0000
1001
0000
;
