#TITLE:WOMANIZER;
#SUBTITLE:;
#ARTIST:Britney Spears;
#TITLETRANSLIT:;
#SUBTITLETRANSLIT:;
#ARTISTTRANSLIT:;
#GENRE:;
#CREDIT:;
#MENUCOLOR:#FFFF99;
#NEWMETERSYSTEM:NO;
#BANNER:WOMANIZER-bn.png;
#BACKGROUND:WOMANIZER-bg.png;
#LYRICSPATH:;
#CDTITLE:PROJECT VIRIDIAN-cdtitle.png;
#MUSIC:WOMANIZER.mp3;
#OFFSET:0.000;
#SAMPLESTART:30.980;
#SAMPLELENGTH:14.000;
#SELECTABLE:YES;
#LISTSORT:;
#BPMS:0.000=139.000;
#STOPS:;
#BGCHANGES:;
#ATTACKS:;

//---------------dance-single - ----------------
#NOTES:
     dance-single:
     :
     Easy:
     2:
     0.202,0.258,0.078,0.171,0.000:
0000
0000
0000
0000
,
0000
0000
0000
0000
,
0100
0010
0000
0100
,
0010
0000
0001
0000
,
0100
1000
0000
0100
,
1000
0000
0100
0000
,
0010
0000
1000
0000
,
0001
0000
0100
0000
,
0020
0000
0030
0000
,
0200
0000
0300
0000
,
1000
0100
0000
1000
,
0100
0000
0001
0000
,
0001
0100
0000
0001
,
0100
0000
1000
0000
,
0010
0000
1000
0000
,
0001
0000
0100
0000
,
0002
0000
0003
0000
,
2000
0000
3000
0000
,
0010
0000
0010
0010
,
0010
0000
0010
0000
,
0100
0000
0100
0000
,
0100
0100
0100
0000
,
1000
0000
0100
0000
,
0001
0000
0100
0000
,
0010
0000
0010
0000
,
0100
0000
0220
0330
,
0010
0100
0010
0000
,
1000
0000
0001
0000
,
0100
0001
0100
0000
,
0010
0000
1000
0000
,
0002
0000
0100
0000
,
2003
0000
0010
0000
,
3200
0000
0010
0000
,
2300
0000
0001
0000
,
3010
0100
0010
0000
,
1000
0000
0100
0000
,
0001
0100
0001
0000
,
0010
0000
0001
0000
,
2000
0000
0100
0000
,
3020
0000
0100
0000
,
0230
0000
0001
0000
,
0302
0000
0010
0000
,
1003
0000
0010
0000
,
0100
0000
0001
0000
,
0020
0000
0001
0000
,
0100
0000
0031
0000
,
0100
0000
0010
0000
,
1000
0000
0001
0000
,
0002
0000
0100
0000
,
1000
0000
0103
0000
,
1001
0000
0000
0000
,
0110
0000
0000
0000
,
1001
0000
0000
0000
,
1001
0000
0000
0000
,
1000
0000
1000
0000
,
0001
0000
0001
0000
,
0100
0000
0100
0010
,
0100
0000
0220
0330
,
0001
0100
0001
0000
,
1000
0100
1000
0000
,
0010
0100
0010
0000
,
0100
0010
0100
0000
,
0002
0000
0100
0000
,
2003
0000
0100
0000
,
3002
0000
0010
0000
,
2003
0000
0010
3000
,
1001
0000
0000
0000
,
0110
0000
0000
0000
,
1001
0000
0000
0000
,
1001
0000
0000
0000
,
1000
0000
0001
0001
,
0001
0000
1000
0000
,
0010
0000
1000
1000
,
0010
0000
0001
0100
;

//---------------dance-single - Copied from----------------
#NOTES:
     dance-single:
     Copied from:
     Beginner:
     1:
     0.111,0.143,0.023,0.116,0.000:
0000
0000
0000
0000
,
0000
0000
0000
0000
,
1000
0000
0000
0000
,
0001
0000
0001
0000
,
0100
0000
0000
0000
,
0010
0000
0100
0000
,
0001
0000
0000
0000
,
1000
0000
0000
0000
,
0200
0000
0300
0000
,
0200
0000
0300
0000
,
0010
0000
0000
0000
,
1000
0000
0001
0000
,
1000
0000
0000
0000
,
0010
0000
0001
0000
,
0100
0000
0000
0000
,
0010
0000
0000
0000
,
2000
0000
3000
0000
,
2000
0000
3000
0000
,
0001
0000
0001
0000
,
0001
0000
0001
0000
,
0010
0000
0010
0000
,
0010
0000
0010
0000
,
0200
0000
0300
0000
,
2000
0000
3000
0000
,
0010
0000
0010
0000
,
0020
0000
0030
0000
,
0100
0000
0000
0000
,
0010
0000
0000
0000
,
1001
0000
0000
0000
,
0100
0000
0000
0000
,
0002
0000
0000
0000
,
0003
0000
0000
0000
,
2000
0000
0000
0000
,
3000
0000
0000
0000
,
0010
0000
0000
0000
,
1000
0000
0000
0000
,
0110
0000
0000
0000
,
0001
0000
0000
0000
,
0020
0000
0000
0000
,
0030
0000
0000
0000
,
0200
0000
0000
0000
,
0300
0000
0000
0000
,
1000
0000
0000
0000
,
0001
0000
0000
0000
,
0010
0000
0000
0000
,
0100
0000
0000
0000
,
0001
0000
0000
0000
,
1000
0000
0000
0000
,
0010
0000
0000
0000
,
0001
0000
0000
0000
,
0100
0000
0100
0000
,
0100
0000
0100
0000
,
1000
0000
1000
0000
,
1000
0000
1000
0000
,
0020
0000
0000
0000
,
0030
0000
0000
0000
,
2000
0000
0000
0000
,
3000
0000
0000
0000
,
0001
0000
0000
0000
,
0010
0000
0000
0000
,
1001
0000
0000
0000
,
0100
0000
0000
0000
,
2000
0000
0000
0000
,
3000
0000
0000
0000
,
0002
0000
0000
0000
,
0003
0000
0000
0000
,
0010
0000
0000
0000
,
1000
0000
0000
0000
,
0100
0000
0000
0000
,
0001
0000
0000
0000
,
1000
0000
1000
0000
,
1000
0000
1000
0000
,
0001
0000
0001
0000
,
0001
0000
0001
0001
;

//---------------dance-single - Copied from----------------
#NOTES:
     dance-single:
     Copied from:
     Medium:
     6:
     0.399,0.431,0.093,0.357,0.175:
0000
0000
0000
0000
,
0000
0000
0000
0000
,
1000
0001
0100
0010
,
1000
0000
0000
1000
0000
0010
1000
0000
0000
0000
0000
0000
,
0100
0010
0100
0010
,
0001
0000
0000
0010
0000
0001
0010
0000
0000
0000
0000
0000
,
0001
0100
1000
0100
,
0001
0010
1000
0010
,
0001
0000
1000
0001
0000
0000
0100
0000
0000
0100
0000
0000
,
0010
0000
1000
0010
0000
0000
0100
0000
0000
1001
0000
0000
,
0010
0100
0010
0100
,
1000
0000
0000
0100
0000
0000
0010
0000
0001
0000
0000
0000
,
0100
0001
0100
0010
,
1000
0000
0000
0010
0000
0000
1000
0000
0100
0000
0000
0000
,
1000
1000
0010
0010
,
0100
0001
0100
1000
,
0200
0001
0001
0301
,
0200
0000
0010
0310
,
1001
0100
0002
0023
,
0230
1300
0020
2030
,
3100
0020
0230
0310
,
0001
0000
0000
0010
0000
0000
0100
0000
1000
0100
0000
0000
,
0010
0000
0000
0100
0000
0000
0010
0000
0100
0010
0000
0000
,
1000
0000
0000
0100
0000
0000
1000
0000
0010
1000
0000
0000
,
0001
0000
0100
0001
0000
0000
0001
0000
0100
0001
0000
0000
,
1000
0000
0100
1000
0000
0000
0220
0000
0000
0330
0000
0000
,
0001
0000
0100
0010
0000
0100
0010
0000
0000
0100
0000
0000
,
0001
0000
0000
0010
0000
0000
0100
0000
1000
0100
0000
0000
,
0010
0000
0100
0001
0000
0100
0001
0000
0000
0010
0000
0000
,
0100
0000
0000
1000
0000
0000
0001
0000
0010
0100
0000
0000
,
0020
0000
0001
1000
,
0230
0000
1000
0010
,
2300
0000
0010
0001
,
3200
0000
1000
0310
,
1001
0000
0100
0010
0000
0100
0010
0000
0000
1000
0000
0000
,
0010
0000
0100
0010
0000
0100
0010
0000
0000
1000
0000
0000
,
0010
0000
1000
0100
0000
1000
0100
0000
0000
1000
0000
0000
,
0100
0000
0010
0001
0000
0010
0100
0000
0000
0010
0000
0000
,
0002
0000
0100
1000
,
0023
0000
0100
1000
,
0230
0000
0010
1000
,
2300
0000
0100
3001
,
0010
0100
0010
0100
,
0001
0100
1000
0100
,
0001
0000
1000
0100
0000
0000
0001
0000
1000
0100
0000
0000
,
0010
0000
0001
1000
0000
0000
0010
0000
0001
1000
0000
0000
,
0100
0010
0100
0010
,
0100
1000
0100
0010
,
0001
0110
1000
1100
,
0020
0000
0031
0101
,
1002
0000
0100
0100
,
2003
0100
3200
0320
,
0032
1000
1000
0203
,
0320
1000
2030
0100
,
3100
0000
0000
0010
0000
0100
0000
0000
0010
0000
0000
0000
,
0001
0000
0000
0010
0000
0100
0000
0000
1000
0000
0000
0000
,
0010
0000
0100
0010
0000
0000
0010
0000
0100
0010
0000
0000
,
1000
0000
0001
1000
0000
0000
0210
0000
0000
0301
0000
0000
,
1001
0000
0010
0100
0000
0100
1000
0000
0000
0100
0000
0000
,
1000
0000
0010
0100
0000
0001
0100
0000
0000
0010
0000
0000
,
0100
0000
0001
0010
0000
0100
1000
0000
0000
0010
0000
0000
,
0001
0000
0100
0001
0000
1000
0010
0000
0000
0100
0000
0000
,
0020
0000
1000
0001
,
2030
0000
0010
0100
,
3002
0000
0010
1000
,
0203
0000
1000
0301
,
0120
0000
1000
0000
,
0100
0000
0100
0030
,
2001
0000
0001
0000
,
0010
0000
0001
3010
,
0020
0100
0230
0302
,
2003
0100
0100
3020
,
0230
0001
0302
0010
,
0023
0230
2300
3200
,
0300
0000
0000
0000
;

//---------------dance-single - Copied from ----------------
#NOTES:
     dance-single:
     Copied from:
     Hard:
     8:
     0.531,0.545,0.194,0.233,0.606: // measure 1
0000
0000
0000
0000
,  // measure 2
0000
0000
0000
0000
,  // measure 3
0010
0000
0100
0001
0000
0000
0100
0000
0000
0010
0000
1000
,  // measure 4
0100
0000
0000
0010
0000
0100
0010
0000
0100
0000
0000
0000
,  // measure 5
0001
0000
0100
0001
0000
0000
1000
0000
0000
0010
0000
0100
,  // measure 6
0010
0000
0000
1000
0000
0100
0010
0000
0001
0000
0000
0000
,  // measure 7
0100
0000
0001
0100
0000
0010
1000
0000
0100
0010
0000
0000
,  // measure 8
0100
0000
0010
0001
0000
0010
0001
0000
0100
0010
0000
0000
,  // measure 9
1000
0000
0001
0100
0000
0000
0010
0000
1000
0100
0000
0000
,  // measure 10
0010
0000
0001
0100
0000
0000
0010
0000
1000
0002
0000
0000
,  // measure 11
0013
0000
0100
0001
0000
0000
0100
0000
0010
1000
0000
0100
,  // measure 12
0010
0000
0100
0001
0000
1000
0100
0000
0100
0000
0000
0000
,  // measure 13
0010
0000
0001
0100
0000
0000
0010
0000
0100
0001
0000
0100
,  // measure 14
0010
0000
0010
1000
0000
0001
0100
0000
0010
0000
0000
0000
,  // measure 15
1000
0000
0001
0100
0000
0100
0010
0000
0010
1000
0000
0000
,  // measure 16
0001
0000
1000
0100
0000
0100
0010
0000
0010
0001
0000
0000
,  // measure 17
0100
0000
0001
1000
0000
0000
0010
0000
1000
0100
0000
0000
,  // measure 18
0010
0000
0100
0010
0000
0000
0001
0000
1000
0020
0000
0000
,  // measure 19
0031
0000
0100
0010
0000
0010
1000
0000
0100
0010
0000
0100
,  // measure 20
0010
0000
0001
0100
0000
0010
1000
0000
1000
0001
0000
1000
,  // measure 21
0001
0000
0000
0100
0000
0010
1000
0000
0001
0100
0000
0000
,  // measure 22
0010
0000
0100
0010
0000
0010
0001
0000
0010
0100
0000
0010
,  // measure 23
1000
0000
0000
0010
0000
0100
0000
0000
0001
1000
0000
0000
,  // measure 24
0010
0000
0000
1000
0000
0100
0000
0000
0100
0010
0000
0000
,  // measure 25
0001
0000
0100
0001
0000
1000
0100
0000
0001
0100
0000
1000
,  // measure 26
0100
0000
0001
0100
0000
1000
0100
0010
0100
0010
1000
0010
,  // measure 27
0100
0000
0010
0001
0000
0100
0010
0000
0100
0001
0000
1000
,  // measure 28
0010
0000
0100
0010
0000
0010
0100
0000
0010
1000
0000
0000
,  // measure 29
0101
0000
1000
0010
0000
0100
0010
0000
0100
1000
0000
0100
,  // measure 30
0001
0000
0100
0010
0000
1000
0100
0000
0010
0001
0000
0000
,  // measure 31
0102
0000
0000
1000
0000
0000
0103
0000
0010
1000
0000
0000
,  // measure 32
2100
0000
0000
0010
0000
0000
3100
0000
0001
0100
0000
0000
,  // measure 33
0120
0000
0000
1000
0000
0000
0031
0000
1000
0100
0000
0000
,  // measure 34
1002
0000
0000
0100
0000
0000
0013
0000
0100
0010
0000
0000
,  // measure 35
1000
0000
0001
0100
0000
0010
1000
0000
0100
1000
0000
0001
,  // measure 36
0100
0000
0010
0001
0000
0100
0010
0000
0100
0001
0000
0000
,  // measure 37
1001
0000
0100
1000
0000
0010
0100
0000
0001
0010
0000
0100
,  // measure 38
0001
0000
1000
0010
0000
0100
0001
0000
0001
0010
0000
0000
,  // measure 39
0210
0000
0000
0010
0000
0000
0301
0000
0100
0010
0000
0000
,  // measure 40
1200
0000
0000
1000
0000
0000
0310
0000
0010
0001
0000
0000
,  // measure 41
0201
0000
0000
0010
0000
0000
1300
0000
0010
0100
0000
0000
,  // measure 42
0021
0000
0000
0100
0000
0000
0031
0000
0001
0100
0000
0000
,  // measure 43
0010
1000
0010
0001
,  // measure 44
0010
0100
0001
0010
,  // measure 45
0001
0000
1000
0100
0000
0000
1000
0000
0001
0100
0000
0000
,  // measure 46
0001
0000
1000
0100
0000
0000
1000
0000
0001
0100
0000
0000
,  // measure 47
0010
1000
0001
0100
,  // measure 48
0010
0010
0100
0001
,  // measure 49
0010
0000
0100
0010
0000
0010
0001
0000
0001
0100
0000
0010
,  // measure 50
0100
0000
0000
0010
0000
1000
0100
0000
0001
0100
0000
0010
,  // measure 51
0200
0010
0010
0001
,  // measure 52
0320
2030
0001
3001
,  // measure 53
0210
0010
1000
0302
,  // measure 54
0023
1000
0100
0130
,  // measure 55
0010
0000
0000
0001
0000
1000
0000
0000
0010
0000
0000
0000
,  // measure 56
1000
0000
0000
0010
0000
0100
0000
0000
0001
0000
0000
0000
,  // measure 57
0110
0000
1001
0000
,  // measure 58
0110
0000
0000
0000
0000
0000
0001
0010
0100
2000
0000
0000
,  // measure 59
3010
0000
1000
0010
0000
1000
0010
0000
0100
0001
0000
0010
,  // measure 60
0001
0000
0010
0100
0000
0010
0001
0000
1000
0010
0000
0000
,  // measure 61
0100
0000
0001
0010
0000
0001
0100
0000
0010
0100
0000
0100
,  // measure 62
0001
0000
1000
0001
0000
0100
0010
0000
1000
0100
0000
0000
,  // measure 63
0210
0000
0000
0010
0000
0000
0301
0000
0100
0010
0000
0000
,  // measure 64
2001
0000
0000
0010
0000
0000
3001
0000
0010
0001
0000
0000
,  // measure 65
0102
0000
0000
1000
0000
0000
1003
0000
0001
0100
0000
0000
,  // measure 66
1200
0000
0000
0010
0000
0000
1300
0000
0001
0010
0000
0000
,  // measure 67
0202
0000
0303
1001
,  // measure 68
2020
0000
3030
0110
,  // measure 69
2002
0000
3003
0011
,  // measure 70
1010
0000
1000
0010
0100
0001
0000
0000
0010
0100
0000
0000
,  // measure 71
0001
0000
0100
0001
0000
0000
1000
0000
0100
1000
0000
0100
,  // measure 72
1000
0000
0010
0100
0000
0010
0100
0000
0001
0100
0000
0010
,  // measure 73
2000
0000
0000
3001
0000
0100
0001
0000
1000
0020
0000
0000
,  // measure 74
0130
0000
0001
1000
0000
1000
0001
0000
0001
0200
0000
0310
;
