#TITLE:UFO CATCHER;
#SUBTITLE:;
#ARTIST:Initial P;
#TITLETRANSLIT:;
#SUBTITLETRANSLIT:;
#ARTISTTRANSLIT:;
#GENRE:;
#CREDIT:;
#MENUCOLOR:#CC6666;
#NEWMETERSYSTEM:NO;
#BANNER:UFO CATCHER-bn.png;
#BACKGROUND:UFO CATCHER-bg.png;
#LYRICSPATH:;
#CDTITLE:PROJECT VIRIDIAN-cdtitle.png;
#MUSIC:UFO CATCHER.mp3;
#OFFSET:-0.040;
#SAMPLESTART:96.540;
#SAMPLELENGTH:11.000;
#SELECTABLE:YES;
#LISTSORT:;
#BPMS:0.000=179.000,64.000=89.500,80.000=179.000;
#STOPS:;
#BGCHANGES:;
#ATTACKS:;

//---------------dance-single - ----------------
#NOTES:
     dance-single:
     :
     Easy:
     4:
     0.385,0.526,0.067,0.442,0.000:
0000
0000
0000
0000
,
0000
0000
0000
0000
,
0000
0000
0000
0000
,
0000
0000
0000
0000
,
0000
1000
0000
0001
,
0000
1000
0000
0001
,
0000
0100
0000
0010
,
0000
0100
0000
0010
,
1000
0100
0010
0100
,
1000
0001
0100
0010
,
0100
0001
0100
1000
,
0200
0310
2000
3001
,
0001
0100
0001
0010
,
0100
0010
0001
1000
,
0100
1000
0010
0100
,
2002
0000
0000
3003
,
0010
0100
0010
1000
,
0001
0000
0000
0000
0000
0000
0000
1000
,
1000
0000
0000
0001
,
0001
0001
0000
0000
1000
0001
1000
0001
,
0200
0000
0302
0000
,
2003
0000
3020
0000
,
2030
0001
0000
0001
,
0000
0001
0000
3002
,
0203
0010
0010
0010
,
0010
0010
0010
0320
,
2030
0100
0010
0001
,
0002
0000
0000
3003
,
0110
0001
1000
0100
,
0010
0100
1000
0001
,
0100
0001
0100
0010
,
1000
0100
0010
0001
,
0100
0010
1000
0001
,
0100
0010
0100
1000
,
0100
0001
1000
0001
,
0010
0001
0220
0330
,
0001
0100
0010
1000
,
0001
0100
0001
1000
,
0100
0010
0001
0100
,
1000
0100
0001
0010
,
0100
1000
0001
1000
,
0100
1000
0001
0100
,
0001
0010
0001
1000
,
0010
0100
0010
0100
,
0002
0000
0103
0000
,
2000
0000
3010
0000
,
0020
0000
0130
0000
,
0002
0000
0103
1001
,
2000
0000
3010
0000
,
0200
0000
0310
0000
,
0002
0000
0013
0000
,
2000
0000
3001
1000
,
0010
0100
0001
0000
,
1000
0010
0100
0000
,
0001
1000
0001
0000
,
0100
0010
0001
1001
,
0100
0010
0100
0000
,
1000
0010
1000
0000
,
0100
0010
0001
0000
,
2002
0000
0000
3003
,
1000
0100
0010
0001
,
2000
0000
0000
3001
,
0002
0000
0000
0103
,
0200
0020
0330
1001
,
0010
1000
0001
0100
,
0020
0000
0000
1030
,
0200
0000
0000
0310
,
0002
0000
0000
1003
,
0001
0100
0010
1000
,
0100
0010
1000
0010
,
0001
0100
0001
1000
,
0010
0010
0100
0001
,
0100
0010
1000
0001
,
0100
0010
1000
0100
,
1000
0001
1000
0010
,
0100
0001
0010
0001
,
0200
0320
2030
3002
,
0203
0010
0010
0302
,
2003
0100
0100
3020
,
0230
0302
2000
3003
,
2000
3200
2300
3002
,
0203
0001
0001
0320
,
2030
0100
0100
3002
,
2003
0100
0010
3001
,
1001
0000
0000
0000
;

//---------------dance-single - Copied from----------------
#NOTES:
     dance-single:
     Copied from:
     Beginner:
     1:
     0.144,0.210,0.008,0.075,0.000:
0000
0000
0000
0000
,
0000
0000
0000
0000
,
0000
0000
0000
0000
,
0000
0000
0000
0000
,
2000
0000
3000
0000
,
0002
0000
0003
0000
,
2000
0000
3000
0000
,
0002
0000
0003
0000
,
0100
0000
0100
0000
,
0100
0000
0000
0000
,
0001
0000
0001
0000
,
0001
0000
0000
0000
,
1000
0000
1000
0000
,
1000
0000
0000
0000
,
0010
0000
0010
0000
,
0020
0000
0030
0000
,
0010
0000
0010
0000
,
0100
0000
0000
0000
,
1001
0000
0000
0010
,
0010
0000
0200
0000
,
0300
0000
0001
0000
,
0001
0000
0001
0000
,
0001
0000
0000
0000
,
0000
0000
0000
1000
,
1000
0000
0000
0000
,
0000
0000
0000
0010
,
0010
0000
0000
0000
,
0200
0000
0300
0000
,
0100
0000
0000
0000
,
0010
0000
0000
0000
,
1000
0000
0000
0000
,
0001
0000
0100
0000
,
1000
0000
0000
0000
,
0010
0000
0000
0000
,
0100
0000
0000
0000
,
0010
0000
0100
0000
,
0001
0000
0000
0000
,
0010
0000
0000
0000
,
0001
0000
0000
0000
,
1000
0000
0010
0000
,
0100
0000
0000
0000
,
0001
0000
0000
0000
,
0001
0000
0000
0000
,
1000
0000
0001
0000
,
0100
0000
0000
0000
,
0010
0000
0000
0000
,
1000
0000
0000
0000
,
0001
0000
0000
0100
,
0100
0000
0000
0000
,
0010
0000
0000
0000
,
1000
0000
0000
0000
,
0010
0000
0000
0001
,
0001
0000
0000
0000
,
0100
0000
0000
0000
,
0001
0000
0000
0000
,
0010
0000
0000
1000
,
1000
0000
0000
0000
,
0100
0000
0000
0000
,
1000
0000
0000
0000
,
0002
0000
0003
0000
,
0010
0000
0010
0000
,
0010
0000
0000
0000
,
0100
0000
0000
0000
,
0001
0000
0000
0000
,
1000
0000
1000
0000
,
1000
0000
0000
0001
,
0001
0000
0000
0100
,
0100
0000
0000
0000
,
0010
0000
0010
0000
,
0010
0000
0000
1000
,
1000
0000
0000
0100
,
0100
0000
0000
0000
,
0001
0000
0001
0000
,
0001
0000
0000
0100
,
0100
0000
0000
0001
,
0001
0000
0000
0000
,
1000
0000
0001
0000
,
1000
0000
0000
0001
,
0001
0000
0000
0010
,
0010
0000
0000
0000
,
0100
0000
0010
0000
,
0100
0000
0000
0100
,
0100
0000
0000
0010
,
0020
0000
0000
0000
,
0030
0000
0000
0000
;

//---------------dance-single - Copied from----------------
#NOTES:
     dance-single:
     Copied from:
     Medium:
     6:
     0.497,0.561,0.159,0.292,0.013:
0000
0000
0000
0000
,
0000
0000
0000
0000
,
0000
0000
0000
0000
,
0000
0000
0000
0000
,
1000
0100
1000
0100
,
0010
0001
0010
0001
,
0100
0001
0100
0001
,
1000
0010
1000
0010
,
1001
0200
0310
2000
,
3001
0000
0100
0000
0001
0010
0100
1000
,
0001
0200
1300
0200
,
0310
1000
0010
0000
0100
0001
0100
0000
,
0010
2000
3100
0020
,
0031
0000
0100
0000
0001
0010
0001
0000
,
0100
0002
0103
1000
,
0220
0000
0000
0330
,
0001
0100
1000
0100
,
0002
0000
0000
0000
0000
0000
0000
0000
0000
0000
0000
0000
0003
0000
1000
0100
,
0020
0000
0000
0000
0000
0000
0000
0000
0030
0000
0000
0000
0001
0000
1000
0001
,
0100
0010
0000
0000
0100
0100
0100
0100
,
0002
0100
2003
0100
,
3002
0010
2003
0100
,
3002
1000
0000
1000
,
2003
0001
0000
3002
,
0103
0010
0100
0010
,
0100
0001
0100
0001
,
1000
0010
1000
0000
1000
0010
1000
0000
,
0001
0010
0100
1000
0001
0000
0110
0000
,
1001
0100
0001
1000
,
0010
0000
0100
0000
0001
0000
0010
0001
,
0100
0000
0010
0000
1000
0000
0010
1000
,
0010
0000
0100
0000
0001
0100
0020
0000
,
1030
0100
0010
0100
,
0010
0000
0001
0000
1000
0100
0010
0100
,
0001
0000
0100
0000
1000
0000
0010
0100
,
0001
0000
1000
0000
0001
1000
0002
0000
,
0103
0010
0100
0001
,
1000
0000
0010
0000
0100
0010
1000
0000
,
0100
0000
0010
0100
0010
0001
0100
0000
,
0010
0000
1000
0000
0001
0100
2000
0000
,
3100
0000
0010
0000
0100
0001
0100
0010
,
1000
0000
0001
0000
0100
0000
0001
1000
,
0100
0000
0010
0000
0100
0000
0010
0001
,
0100
0000
0001
0000
1000
0001
0100
0001
,
0100
0010
1000
0010
,
0100
0010
1000
0100
,
0010
0100
0001
0100
,
0010
0000
1000
0000
0001
0100
0020
0000
,
1030
0100
1000
0001
,
0100
0010
1000
0010
,
0100
0001
0001
0010
,
0100
0000
1000
0000
0010
0100
0001
0000
,
1000
0100
0010
0100
,
1000
0010
0100
0001
,
1000
0001
0100
0010
,
1000
0000
0001
0000
0100
0001
2000
0000
,
3100
0010
0100
0010
,
0001
0100
0001
0100
,
1000
0100
0001
1000
,
0001
0100
1000
0100
0001
0100
1000
0000
,
0010
0100
0001
0100
,
0020
0000
0000
0030
0000
0000
1000
0001
,
0200
0000
0000
0300
0000
0000
0010
0100
,
0002
2000
3003
0110
,
0001
1000
0010
0100
,
0001
0000
1000
0000
1000
0000
0001
0010
,
0100
0000
1000
0000
1000
0000
0001
0010
,
0100
0000
0010
0000
0001
0100
0020
0000
,
1030
1100
0001
0110
,
0101
0000
1000
0000
0010
0000
0100
0001
,
1000
0000
0010
0000
1000
0000
0001
0010
,
1000
0010
0001
1010
,
0100
1001
0100
0011
,
1100
0000
0010
0000
1000
0000
0100
0010
,
0001
0000
0100
0000
0001
0000
1000
0100
,
0001
0000
0001
0100
1000
0100
0010
0000
,
0101
0012
0103
1010
,
2100
0000
0001
0000
3100
0000
0010
0100
,
0002
0000
1003
0000
0200
0000
1300
0100
,
0020
0000
0130
0000
0010
0001
1000
0000
,
0010
2100
3010
0101
,
0210
0000
0301
0000
1000
0000
0010
1000
,
0001
0000
0100
0000
0001
0000
0010
0100
,
1000
0000
0000
0000
0001
0000
0000
1000
0001
0000
0100
0000
0010
0000
1000
0000
,
0001
0000
0000
0000
;

//---------------dance-single - Copied from ----------------
#NOTES:
     dance-single:
     Copied from:
     Hard:
     9:
     0.647,0.738,0.092,0.351,0.163: // measure 1
0000
0000
0000
0000
,  // measure 2
0000
0000
0000
0000
,  // measure 3
0000
0000
0000
0000
,  // measure 4
0000
0000
0000
0000
,  // measure 5
0100
0010
0100
0001
0100
0010
1000
0000
,  // measure 6
0001
0100
1000
0100
0001
0010
0100
0000
,  // measure 7
0010
0001
0100
0001
1000
0100
1000
0000
,  // measure 8
0010
0000
0000
0000
0100
0000
0000
0001
0100
0000
0010
0000
2000
0000
0000
0000
,  // measure 9
3001
0100
1000
0100
0010
1000
0100
0001
,  // measure 10
0100
1000
0010
0100
0001
0000
1000
0000
,  // measure 11
0010
0100
0001
1000
0100
0010
0100
1000
,  // measure 12
0002
0100
0103
0000
2000
0100
3100
0000
,  // measure 13
0010
0100
0010
0001
1000
0100
1000
0010
,  // measure 14
0100
0001
0100
1000
0100
0010
1000
0000
,  // measure 15
0100
0010
0100
0001
1000
0100
0010
0000
,  // measure 16
2002
0000
0000
3003
,  // measure 17
0020
0230
0302
2003
,  // measure 18
3200
0000
0000
0000
0000
0000
0000
0000
0000
0000
0000
0000
0000
0000
1300
0001
,  // measure 19
0020
0000
0000
0000
0000
0000
0000
0000
0000
0000
0000
0000
0032
0000
0103
0001
,  // measure 20
2000
0000
0020
0000
3030
0000
1001
0000
0010
0100
0010
0100
0010
0100
0001
0100
,  // measure 21
0020
0100
2030
0100
,  // measure 22
3002
0010
0203
0010
,  // measure 23
0320
1000
0000
1000
,  // measure 24
0230
0000
0001
0000
0000
0000
0301
1000
,  // measure 25
0020
0100
1000
0001
,  // measure 26
0100
0000
1000
0000
0001
0000
1030
0001
,  // measure 27
1000
0100
0010
0001
1000
0100
0010
0001
,  // measure 28
1000
0100
0010
0001
2002
0000
3003
0000
,  // measure 29
0110
0000
0001
0100
1000
0100
0001
0000
,  // measure 30
1000
0100
1000
0010
0100
0000
0001
0000
,  // measure 31
1000
0010
0100
0000
0001
1000
0010
0000
,  // measure 32
0100
0001
0010
0100
1000
0001
0000
0001
,  // measure 33
1000
0100
1000
0010
0100
0000
0001
0000
,  // measure 34
0100
0000
0001
0010
0001
0100
1000
0000
,  // measure 35
0100
0001
1000
0010
0100
0000
0001
0000
,  // measure 36
0100
0000
0000
0000
0110
0000
0000
0001
1000
0000
0010
0000
0200
0000
0000
0000
,  // measure 37
0310
0100
0001
0100
1000
0100
0010
0000
,  // measure 38
1000
0100
0010
0001
0100
0001
1000
0000
,  // measure 39
0010
0100
0001
1000
0100
0000
1000
0000
,  // measure 40
0001
0100
1000
0100
0001
1000
0000
0001
,  // measure 41
1000
0010
0100
0001
1000
0000
0010
0000
,  // measure 42
0100
0001
0100
1000
0100
0000
0010
0000
,  // measure 43
1000
1000
0001
0010
0100
0010
0001
0000
,  // measure 44
1000
0010
0100
0001
0010
0000
0110
0000
,  // measure 45
1000
0000
0001
0000
0000
0100
0000
0000
0010
0000
0000
1000
0000
0000
0001
0000
,  // measure 46
0100
0000
0001
0000
0000
1000
0000
0000
0100
0000
0000
0010
0000
0000
0100
0000
,  // measure 47
0001
0000
0100
0000
0000
1000
0000
0000
0010
0000
0000
0100
0000
0000
0010
0000
,  // measure 48
1000
0000
0001
0000
0000
0001
0000
0000
0010
0000
0001
0000
0210
0000
0000
0000
,  // measure 49
0310
0000
0100
0000
0000
1000
0000
0000
0001
0000
0000
0100
0000
0000
0001
0000
,  // measure 50
0010
0000
1000
0000
0000
0010
0000
0000
0001
0000
0000
0100
0000
0000
0001
0000
,  // measure 51
1000
0000
0010
0000
0000
0010
0000
0000
0100
0000
0000
0010
0000
0000
1000
0000
,  // measure 52
0001
0000
0100
0000
0010
0000
0000
0100
0010
0000
0100
0000
0002
0000
0000
0000
,  // measure 53
1003
0000
0010
0000
0000
0100
0000
0000
0001
0000
0000
0010
0000
0000
0001
0000
,  // measure 54
0010
0000
0100
0000
0000
1000
0000
0000
0010
0000
0000
0100
0000
0000
0001
0000
,  // measure 55
0100
0000
0010
0000
0000
0100
0000
0000
1000
0000
0000
0100
0000
0000
0010
0000
,  // measure 56
1000
0000
0001
0000
0000
0100
0000
0000
0010
0000
1000
0000
1002
0000
0000
0000
,  // measure 57
0103
0000
0010
0000
0000
0100
0000
0000
0001
0000
0000
0100
0000
0000
0010
0000
,  // measure 58
1000
0000
0100
0000
0000
0010
0000
0000
0100
0000
0000
0001
0000
0000
0100
0000
,  // measure 59
1000
0000
0001
0000
0000
1000
0000
0000
0010
0000
0000
0100
0000
0000
0010
0000
,  // measure 60
2002
0000
0000
3003
,  // measure 61
1000
0001
0100
0010
,  // measure 62
2000
0000
0001
0000
3001
0000
0010
0001
,  // measure 63
0200
0000
0010
0000
0310
0000
0010
1000
,  // measure 64
0002
0020
0033
1001
,  // measure 65
0200
0010
0302
0000
2003
0100
3020
0000
,  // measure 66
0230
0000
0001
0000
0310
0000
0001
1000
,  // measure 67
0020
0100
0130
0000
2000
0100
3100
0010
,  // measure 68
0001
0100
1000
0100
0001
0010
0200
0000
,  // measure 69
1300
0100
0010
0100
1000
0001
0100
1000
,  // measure 70
0100
0010
0100
0000
0001
0100
1000
0100
,  // measure 71
0001
0010
0100
0000
1000
0100
0010
0100
,  // measure 72
1000
0000
1001
0000
0001
0100
0000
0100
,  // measure 73
0010
0100
1000
0100
0001
0010
0100
0000
,  // measure 74
1000
0100
0010
0000
0100
0010
0001
0100
,  // measure 75
1000
0100
0010
0100
0001
1000
0100
0000
,  // measure 76
0010
0000
0000
0000
0001
0000
0000
0100
0001
0000
1000
0000
0010
0100
0010
0000
,  // measure 77
0100
0001
0010
0100
1000
0010
0100
1000
,  // measure 78
0100
0001
0010
0100
0010
0001
1000
0100
,  // measure 79
0010
0001
0100
0010
1000
0100
1000
0001
,  // measure 80
0100
0001
1000
0010
0100
0001
0000
1000
,  // measure 81
0010
0100
0001
1000
0100
0010
0100
0001
,  // measure 82
0100
1000
0010
0100
0001
0010
0001
0010
,  // measure 83
0100
0010
1000
0010
0001
0100
0010
1000
,  // measure 84
0001
0000
0000
0000
1000
0000
0000
0000
0001
0000
0000
0000
1000
0100
0010
0002
,  // measure 85
0000
0003
0000
0000
;
