#TITLE:3;
#SUBTITLE:;
#ARTIST:Britney Spears;
#TITLETRANSLIT:Three;
#SUBTITLETRANSLIT:;
#ARTISTTRANSLIT:;
#GENRE:;
#CREDIT:;
#MENUCOLOR:#FFFF99;
#NEWMETERSYSTEM:NO;
#BANNER:3-bn.png;
#BACKGROUND:3-bg.png;
#LYRICSPATH:;
#CDTITLE:;
#MUSIC:3.mp3;
#OFFSET:-0.020;
#SAMPLESTART:42.680;
#SAMPLELENGTH:14.200;
#SELECTABLE:YES;
#LISTSORT:;
#BPMS:0.000=135.000,128.000=67.500,144.000=135.000;
#STOPS:;
#BGCHANGES:;
#ATTACKS:;

//---------------dance-single - ----------------
#NOTES:
     dance-single:
     :
     Easy:
     3:
     0.267,0.309,0.119,0.136,0.000:
0000
0000
0000
0000
,
0000
0000
0000
0000
,
0000
0000
0000
0000
,
0000
0000
0000
0100
,
0002
0003
2000
3000
,
0010
0100
0010
0000
,
2000
3000
0200
0300
,
0010
0001
0010
0000
,
0010
0001
0100
0000
,
0010
1000
0010
0000
,
1000
0100
0001
0000
,
0200
0000
0310
0000
,
0001
0100
0001
0000
,
1000
0100
1000
0000
,
0010
0100
0001
0000
,
2000
0000
3001
0000
,
0001
0010
0100
1000
,
0002
0103
2000
3100
,
1000
0010
0100
0010
,
0200
0301
0100
0100
,
0010
1000
0001
0100
,
0002
0013
0200
1300
,
0001
0000
1000
0000
,
0020
0000
0230
0000
,
0310
1000
0001
0000
,
0100
0010
0100
0000
,
0001
0010
1000
0000
,
1000
0010
0001
0000
,
1000
0100
1000
0000
,
0010
0100
0010
0000
,
1000
0100
0001
0000
,
0001
0100
1000
0000
,
1001
0000
0010
0000
0100
0000
0001
0001
,
0001
0000
1000
0000
0100
0000
1000
1000
,
0010
0000
0100
0000
0010
0000
0100
0010
,
0100
0000
0001
0000
1000
0000
0010
0010
,
0110
0010
0010
0010
,
1000
1000
0001
1000
,
0100
0100
0100
0100
,
1000
1000
1000
0002
,
0013
0010
0010
0010
,
0001
0000
0001
0000
,
0100
0000
0000
0010
,
1000
0100
1000
0100
,
0010
0001
0020
0030
,
1001
0110
1001
0000
,
1000
0100
1000
0000
,
0001
0100
0010
0000
,
0100
0010
1000
0000
,
0110
1001
0110
0000
,
0001
1000
0001
0000
,
1000
0100
0010
0000
,
0100
0010
0001
0000
,
0011
0110
1100
0001
,
0100
0010
1000
0001
,
1000
0100
0010
0001
,
0100
0010
0100
0010
,
1100
0110
0011
1000
,
0001
0100
0010
1000
,
0100
0001
0100
1000
,
0002
0003
1000
0001
;

//---------------dance-single - Copied from----------------
#NOTES:
     dance-single:
     Copied from:
     Beginner:
     2:
     0.097,0.181,0.008,0.042,0.000:
0000
0000
0000
0000
,
0000
0000
0000
0000
,
0000
0000
0000
0000
,
0000
0000
0000
0000
,
0001
0000
0001
0000
,
1000
1000
1000
0000
,
0001
0000
0001
0000
,
1000
1000
1000
0000
,
0100
0000
0000
0000
,
0010
0000
0000
0000
,
0001
0000
0000
0000
,
0010
0000
0010
0000
,
0010
0000
0000
0000
,
1000
0000
0000
0000
,
0001
0000
0000
0000
,
0100
0000
0100
0000
,
0100
0000
0000
0000
,
0001
0000
0000
0000
,
1000
0000
0000
0000
,
1000
0000
0000
0000
,
0010
0000
0000
0000
,
0100
0000
0000
0000
,
0001
0000
0001
0000
,
0002
0000
0003
0000
,
0001
0000
0000
0000
,
1000
0000
0000
0000
,
0010
0000
0000
0000
,
0100
0000
0100
0000
,
0100
0000
0000
0000
,
0001
0000
0000
0000
,
1000
0000
0000
0000
,
0010
0000
0000
0000
,
0010
0000
1000
1000
,
1000
0000
0001
0001
,
0001
0000
0100
0100
,
0100
0000
0010
0010
,
0020
0000
0000
0000
,
0000
0000
0030
0000
,
2000
0000
0000
0000
,
0000
0000
3000
0000
,
0002
0000
0000
0000
,
0000
0000
0003
0000
,
0020
0000
0000
0000
,
0000
0000
0000
0000
,
0000
0000
0030
0000
,
1001
0000
0000
0000
,
1000
0000
0000
0000
,
0001
0000
0000
0000
,
0010
0000
0010
0000
,
0010
0000
0000
0000
,
1000
0000
0000
0000
,
0001
0000
0000
0000
,
0100
0000
0000
1000
,
1000
0000
0000
0000
,
0001
0000
0000
0000
,
0001
0000
0000
0000
,
0100
0000
0100
0000
,
0100
0000
0000
0000
,
0010
0000
0000
0000
,
1000
0000
0000
0000
,
0001
0000
0000
0000
,
0100
0000
0000
0000
;

//---------------dance-single - Copied from----------------
#NOTES:
     dance-single:
     Copied from:
     Medium:
     5:
     0.364,0.387,0.017,0.186,0.017:
0000
0000
0000
0000
,
0000
0000
0000
0000
,
0000
0000
0000
0000
,
0000
0000
0000
0000
,
0020
0100
0230
0001
,
0302
2003
3002
0203
,
0320
1000
2030
0100
,
3200
2300
3002
0103
,
0110
0000
0001
0100
0001
0000
1000
0000
,
0100
0000
1000
0010
0100
0000
0001
0000
,
1000
0100
0010
0001
1000
0000
0001
0100
,
0020
1000
2000
3030
,
0001
0000
0100
0001
1000
0000
0010
0000
,
1000
0000
0100
1000
0001
0000
0100
0000
,
0010
0100
0001
1000
0100
0000
0010
0000
,
0002
0100
0200
0303
,
0010
0100
0010
0100
,
0010
0000
2000
0200
0000
0000
3300
0000
,
1000
0000
0001
0000
0010
0000
0001
0100
,
0001
0000
0010
0100
0000
1000
0100
0000
,
0010
0000
0001
0100
0001
0000
1000
0000
,
0010
0000
0200
0002
0000
0000
0303
0000
,
0001
0000
1000
0000
,
0001
0000
0001
0000
0001
0000
1000
0000
1000
0000
1000
0000
,
0010
0000
0100
0000
0010
0000
0100
0010
,
1000
0000
0001
0000
0001
0000
1000
0100
,
0010
0000
0010
0000
0001
0000
0010
0001
,
0100
0000
0010
1000
0100
0000
1000
0000
,
0001
0000
0010
0000
0001
0000
0100
0010
,
0100
0000
0001
0000
1000
0000
1000
0001
,
0100
0000
0010
0000
0100
0000
0001
0100
,
0001
1000
0010
0000
0200
0000
0310
0010
,
0100
0000
0001
0000
1000
0000
0010
1000
,
0010
0000
0100
0001
1000
0100
1000
0010
,
0100
0000
0001
0000
0010
0000
0001
0100
,
0001
0000
1000
0100
0010
0001
0100
0010
,
0100
0100
0100
0100
,
0001
0000
0001
1000
0000
1000
0000
1000
,
0100
0100
0100
0100
,
1000
0000
1000
0000
1000
0000
0001
1000
,
0001
0001
0001
0001
,
0100
0100
0010
0010
,
1000
0000
1000
0000
1000
0000
0100
0010
,
0001
0000
0001
0000
0001
0100
0010
1000
,
0001
0100
0020
0130
,
1001
0000
0001
0000
1000
0000
0100
1000
,
0010
0000
0100
0000
0001
0000
0010
0001
,
0100
0000
0001
0000
1000
0000
0010
0100
,
0010
0000
1000
0001
1000
0000
0001
0000
,
0010
0000
0001
0000
0100
0000
0010
0100
,
0010
0000
1000
0000
1000
0000
0001
0100
,
1000
0000
0100
0000
0001
0000
0010
0001
,
0100
0010
1000
0000
0002
0000
0103
0000
,
0010
0000
0100
0000
1000
0000
0010
0100
,
0001
0000
1000
0000
0100
0000
1000
0100
,
0010
0000
0100
0000
0010
0000
0001
0100
,
1000
0000
1000
0100
0001
0000
1000
0000
,
0010
0000
0100
0000
0010
0000
1000
0001
,
0010
0000
0001
0000
0100
0000
0010
1000
,
0100
0000
1000
0000
0001
0000
0100
0010
,
0100
0001
1000
0000
0100
1000
1000
0001
,
0010
0000
0000
0000
;

//---------------dance-single - Copied from ----------------
#NOTES:
     dance-single:
     Copied from:
     Hard:
     8:
     0.495,0.594,0.144,0.279,0.152: // measure 1
0000
0000
0000
0000
,  // measure 2
0000
0000
0000
0000
,  // measure 3
0000
0000
0000
0000
,  // measure 4
0000
0000
0000
0000
0000
0000
0000
0000
0000
0000
1000
0100
1000
0000
0001
0100
,  // measure 5
0002
0000
0103
0000
2000
0000
3100
0010
,  // measure 6
0100
0100
1000
0000
0001
0000
0100
0010
,  // measure 7
0200
0000
0310
0000
0002
0000
0013
0100
,  // measure 8
1000
0001
0001
0000
0100
0010
0010
0010
,  // measure 9
1001
0000
1000
0100
0010
0000
0001
0000
,  // measure 10
0100
0010
0100
0001
1000
0000
0010
0000
,  // measure 11
1000
0100
0010
0001
1000
0000
0010
0100
,  // measure 12
0001
0200
0010
0000
0302
0000
0103
0000
,  // measure 13
0010
0000
1000
0001
0100
0000
0010
0000
,  // measure 14
0100
0100
0001
1000
0100
0000
1000
0000
,  // measure 15
0001
0010
0001
0100
1000
0000
0100
0010
,  // measure 16
1000
0002
0100
0000
2003
0000
3001
0000
,  // measure 17
0100
0010
0100
0010
0100
0010
0100
0001
,  // measure 18
1000
0010
1000
0001
0100
0001
0100
0001
,  // measure 19
0010
0100
1000
0000
0101
0000
0001
0100
,  // measure 20
1000
0100
0010
0100
0000
0010
1000
0000
,  // measure 21
1000
0100
1000
0100
1000
0100
0010
0100
,  // measure 22
1000
0001
1000
0010
0100
0010
0100
0010
,  // measure 23
0200
0301
0002
1003
,  // measure 24
0010
0000
1010
0000
0010
0000
0100
0000
0101
0000
0001
0000
,  // measure 25
1002
0000
0203
0000
0320
0000
0130
0001
,  // measure 26
0100
0010
1000
0000
1001
0000
0100
0010
,  // measure 27
1000
0100
0010
0000
0001
0000
1000
0100
,  // measure 28
0001
0000
0001
0010
1000
0000
1000
0100
,  // measure 29
2001
0000
3020
0000
0230
0000
0301
0100
,  // measure 30
0001
0010
0100
0000
1000
0000
0100
1000
,  // measure 31
0001
1000
0100
0000
0010
0000
0100
0010
,  // measure 32
0001
0100
1000
0000
0200
0010
0310
0100
,  // measure 33
0001
0010
0100
1000
0010
0100
0000
0001
0000
0000
1000
0100
0000
1000
0000
0010
,  // measure 34
0100
0001
0010
0001
1000
0100
0000
1000
0000
1000
0000
0001
0000
0100
0000
0010
,  // measure 35
1000
0100
0010
0001
0100
0010
0000
1000
0000
0000
0100
0010
0000
0001
0000
1000
,  // measure 36
0010
0100
1000
0100
0001
0010
0000
0100
0000
0010
0000
0010
0000
0001
0000
1000
,  // measure 37
0100
1000
0001
0100
,  // measure 38
0010
0000
1000
0001
0100
0001
1000
0001
,  // measure 39
0100
0010
1000
0001
,  // measure 40
0010
0000
0100
0000
1000
0000
0001
0100
,  // measure 41
1000
0100
0010
0100
,  // measure 42
0001
0010
0100
1000
,  // measure 43
0001
0000
0100
0000
0010
0000
1000
0100
,  // measure 44
0010
0001
0100
0100
0010
1000
0001
0100
,  // measure 45
1000
0100
0001
0010
0220
0000
0330
0000
,  // measure 46
1002
0000
0103
0000
1001
0000
1000
0100
,  // measure 47
0010
0001
0200
0000
0310
0000
0010
0100
,  // measure 48
0001
1000
0200
0000
1300
0000
0010
0100
,  // measure 49
0001
0000
0010
0100
1000
0000
0001
0001
,  // measure 50
0120
0000
1030
0000
0101
0000
1000
0100
,  // measure 51
0010
0001
0002
0000
1003
0000
1000
0100
,  // measure 52
0010
0100
2000
0000
3100
0000
0010
0001
,  // measure 53
0100
1000
0200
0000
0310
0000
0100
0001
,  // measure 54
0201
0000
0310
0000
1001
0000
0100
0001
,  // measure 55
0100
1000
0200
0000
0301
0000
0010
0100
,  // measure 56
1000
0001
0020
0000
1030
0000
0010
0001
,  // measure 57
0100
0000
0010
0100
1000
0000
0100
0001
,  // measure 58
2001
0000
3001
0000
0110
0000
0010
0100
,  // measure 59
0001
0010
0020
0000
0031
0000
1000
0010
,  // measure 60
0100
0001
0020
0000
0130
0000
1000
0100
,  // measure 61
0010
0001
1000
0000
0002
0100
0103
0010
,  // measure 62
1001
0000
0000
0000
;
