#TITLE:Telephone;
#SUBTITLE:;
#ARTIST:Lady Gaga feat. Beyoncé;
#TITLETRANSLIT:;
#SUBTITLETRANSLIT:;
#ARTISTTRANSLIT:Lady Gaga feat. Beyonce;
#GENRE:;
#CREDIT:;
#MENUCOLOR:#FFFF99;
#NEWMETERSYSTEM:NO;
#BANNER:Telephone-bn.png;
#BACKGROUND:Telephone-bg.png;
#LYRICSPATH:Telephone.lrc;
#CDTITLE:PROJECT VIRIDIAN-cdtitle.png;
#MUSIC:Telephone.mp3;
#OFFSET:-0.780;
#SAMPLESTART:79.380;
#SAMPLELENGTH:15.700;
#SELECTABLE:YES;
#LISTSORT:;
#BPMS:0.000=122.020,112.000=61.000,128.000=122.020;
#STOPS:;
#BGCHANGES:;
#ATTACKS:;

//---------------dance-single - ----------------
#NOTES:
     dance-single:
     :
     Easy:
     3:
     0.229,0.253,0.016,0.115,0.000:
0000
0000
0000
0000
,
0000
0000
0000
0000
,
1000
0001
1000
0001
,
1000
0100
0100
0000
,
1000
0100
1000
0000
,
0001
0100
0001
0000
,
0010
0100
0010
0000
,
1000
0001
0001
0000
,
1000
0100
0010
0000
,
0001
0010
0100
0000
,
1000
0010
0100
0001
,
1000
1000
1000
0000
,
2000
3100
0020
0031
,
1000
0100
1000
0010
,
0000
0001
1000
0010
,
0100
0000
0100
0010
,
2000
3001
0020
0130
,
1000
0001
0100
0001
,
0000
0001
0010
0001
,
1000
0000
0100
0001
,
0010
0010
1000
0001
,
0100
0001
1000
0000
,
1000
1000
0100
0000
,
0100
0100
0010
0000
,
0001
1000
0001
1000
,
0002
0000
0003
0000
,
1000
1000
1000
1000
,
0010
1000
0010
1000
,
0010
0000
0100
0000
,
0010
0000
0010
0100
,
0010
0000
1000
0000
,
0001
0000
0100
0100
,
1001
0100
1000
0000
,
0010
0100
0001
0000
,
0010
0001
0010
0100
,
1000
1000
1000
0000
,
1002
0013
0200
1300
,
0100
0010
0100
1000
,
0000
0001
0100
0001
,
0010
0000
1000
0001
,
0020
0130
2000
3001
,
0100
0010
1000
0100
,
0000
1000
0100
0010
,
0001
0000
0001
1000
,
2000
3010
0002
0103
,
0010
0100
0001
1000
,
0000
0100
0010
0100
,
1000
0000
0010
1000
,
0002
0013
2000
3100
,
0100
0010
0100
0001
,
0000
0100
1000
0010
,
0100
0000
1000
0001
,
0010
0000
1000
0001
,
0000
1000
0001
1000
,
0010
0010
0010
0010
,
0100
0100
0200
0300
,
0001
0000
0000
0000
;

//---------------dance-single - Copied from----------------
#NOTES:
     dance-single:
     Copied from:
     Beginner:
     1:
     0.073,0.117,0.000,0.025,0.000:
0000
0000
0000
0000
,
0000
0000
0000
0000
,
0000
0000
0000
0000
,
0000
0000
0000
0000
,
0010
0000
0000
0000
,
0100
0000
0000
0000
,
0010
0000
0000
0000
,
0001
0000
0000
0000
,
1000
0000
0000
0000
,
0100
0000
0000
0000
,
0010
0000
0000
0000
,
0100
0000
0100
0000
,
0100
0000
0000
0000
,
0001
0000
0000
0000
,
1000
0000
0000
0000
,
0010
0000
1000
0000
,
0001
0000
0000
0000
,
0010
0000
0000
0000
,
0001
0000
0000
0000
,
1000
0000
1000
0000
,
0100
0000
0000
0000
,
0010
0000
0000
0000
,
0100
0000
0000
0000
,
1000
0000
0000
0000
,
0001
0000
0000
0000
,
0020
0000
0030
0000
,
0100
0000
0000
0000
,
0010
0000
0000
0000
,
0100
0000
1000
0000
,
0001
0000
0010
0000
,
0010
0000
0200
0000
,
1000
0000
0010
0000
,
0300
0000
0000
0000
,
0001
0000
0000
0000
,
1000
0000
0000
0000
,
0100
0000
0000
0000
,
0010
0000
0000
0000
,
0001
0000
0000
0000
,
1000
0000
0000
0000
,
0010
0000
0000
0000
,
1000
0000
0000
0000
,
0100
0000
0000
0000
,
0001
0000
0000
0000
,
0010
0000
0000
0000
,
0100
0000
0000
0000
,
0001
0000
0000
0000
,
1000
0000
0000
0000
,
0010
0000
0000
0000
,
0001
0000
0000
0000
,
1000
0000
0000
0000
,
0100
0000
0000
0000
,
0001
0000
0000
0000
,
0010
0000
0000
0000
,
1000
0000
0000
0000
,
0001
0000
0000
0000
,
0010
0000
0000
0000
,
0200
0000
0000
0300
;

//---------------dance-single - Copied from----------------
#NOTES:
     dance-single:
     Copied from:
     Hard:
     7:
     0.423,0.445,0.066,0.164,0.000: // measure 1
0000
0000
0000
0000
,  // measure 2
0000
0000
0000
0000
,  // measure 3
1000
0100
0010
0001
,  // measure 4
1000
0100
0001
0000
0001
0000
1000
0000
,  // measure 5
0001
0100
0001
0000
1000
0100
1000
0000
,  // measure 6
0010
0100
0010
1000
0100
0000
0000
0000
,  // measure 7
0010
0001
0100
0000
0010
1000
0001
0000
,  // measure 8
0100
0001
0100
0000
0100
0000
0010
0000
,  // measure 9
1000
0010
0100
0000
0001
0010
0100
0000
,  // measure 10
1000
0100
0001
0100
1000
0000
0000
0000
,  // measure 11
0100
0001
0100
0000
0010
1000
0010
0000
,  // measure 12
0100
0001
1000
0000
0110
0001
0100
0000
,  // measure 13
0001
1000
0001
0000
1000
0100
0010
0000
,  // measure 14
0001
0100
0010
0100
0001
1000
0100
0000
,  // measure 15
1000
0100
0010
0000
0001
0010
0100
0000
,  // measure 16
1000
0100
0010
0002
0000
2003
0000
3000
,  // measure 17
0010
0100
0001
0000
0100
0010
1000
0000
,  // measure 18
0100
0010
0001
0010
0100
1000
0010
0000
,  // measure 19
0100
0001
1000
0000
0010
0100
0010
0000
,  // measure 20
0100
0001
1000
2000
0000
3200
0000
0310
,  // measure 21
0010
0001
0001
0000
1000
1000
0100
0000
,  // measure 22
0100
0010
0100
0010
0001
0000
0001
1000
,  // measure 23
0001
0001
0100
0100
0010
0000
0010
0100
,  // measure 24
0001
0010
0010
0100
0100
0000
0001
0000
,  // measure 25
0010
0100
1000
0100
0010
0001
0100
0001
,  // measure 26
1000
1000
0002
0003
,  // measure 27
1001
1001
0110
0110
,  // measure 28
0001
0100
0001
0100
0010
1000
0100
0000
,  // measure 29
1000
0010
0100
0001
1000
0010
1000
0000
,  // measure 30
1000
0100
0001
0100
1000
0001
0001
0000
,  // measure 31
0010
0100
0010
1000
0001
0100
0100
0000
,  // measure 32
0010
1000
0100
0010
0001
0001
0001
0000
,  // measure 33
1001
0000
0100
0000
0010
0100
0100
0000
,  // measure 34
0001
0000
1000
0000
0100
0010
0010
0000
,  // measure 35
0001
0100
0001
0000
1000
0100
1000
0000
,  // measure 36
0010
0100
0100
0000
0100
0000
0210
0000
,  // measure 37
0301
1000
0001
0100
1000
0100
1000
0000
,  // measure 38
0100
0010
0001
1000
0010
0001
0100
0000
,  // measure 39
1000
0100
0010
0100
0001
0010
1000
0000
,  // measure 40
0010
0100
0001
0020
0000
0032
0000
0003
,  // measure 41
0100
0010
1000
0010
0100
0010
0001
0000
,  // measure 42
0010
1000
0010
1000
0100
0010
0001
0000
,  // measure 43
0010
1000
0001
0010
0100
0001
0100
1000
,  // measure 44
0100
0010
0001
0200
0000
0320
0000
0030
,  // measure 45
1000
0100
1000
0100
0010
0001
0010
0000
,  // measure 46
0100
0010
0100
1000
0001
0100
0010
0000
,  // measure 47
0100
0001
1000
0001
0010
1000
0010
0000
,  // measure 48
0001
0010
0100
2000
0000
3020
0000
0030
,  // measure 49
1000
0010
0001
0010
1000
0100
0001
0000
,  // measure 50
0100
1000
0010
0100
0001
0010
0001
0000
,  // measure 51
0100
0010
0100
0001
0100
0001
1000
0000
,  // measure 52
0100
0001
0010
0200
0000
0320
0000
0030
,  // measure 53
0100
1000
0100
1000
0001
0010
0100
0000
,  // measure 54
0000
1000
0010
1000
0001
0100
0001
0000
,  // measure 55
0200
0010
0320
0000
2030
0001
3002
0000
,  // measure 56
0103
0010
0100
0001
0010
0001
1000
0000
,  // measure 57
2002
0000
0000
0000
,  // measure 58
3003
0000
0000
0000
;

//---------------dance-single - Copied from----------------
#NOTES:
     dance-single:
     Copied from:
     Medium:
     5:
     0.320,0.299,0.033,0.016,0.000:
0000
0000
0000
0000
,
0000
0000
0000
0000
,
0001
0000
1000
0000
0001
0000
0100
0010
,
0100
0100
0100
0000
,
0001
0000
1000
0000
0100
0010
0001
0000
,
1000
0010
1000
0000
0001
0000
0000
0000
,
0100
0000
0010
0000
1000
0000
0100
0010
,
0001
0000
0100
1000
0010
0000
0000
0000
,
0001
0100
0010
0100
,
0010
1000
0010
0000
0100
0000
0000
0000
,
0001
0000
1000
0000
0100
0000
0010
0001
,
0010
0010
0100
0000
0100
0000
0000
0000
,
1000
0010
1000
0000
0010
1000
0010
0000
,
0100
0000
0001
0000
0010
0100
0100
0000
,
1000
0001
0100
0001
,
0010
0000
0001
0100
0010
1000
0010
0000
,
0100
0010
0001
0000
1000
0001
1000
0000
,
0100
0000
0010
0000
0100
1000
1000
0000
,
0001
0001
0100
1000
,
0001
0000
0010
0100
0010
1000
0001
0000
,
0100
0100
0001
0001
,
0100
0010
0100
0000
0010
0000
0010
0000
,
1000
0100
1000
0000
0100
0000
0100
0000
,
1000
0001
1000
0000
0001
0000
0001
0000
,
0100
0010
1000
0001
,
0010
0010
0020
0030
,
0100
0100
1001
1001
,
1000
0100
1000
0100
0010
0000
0010
0000
,
0001
0000
0100
0000
0010
1000
0001
0000
,
1000
0000
0100
0000
0010
0100
0010
0000
,
0001
0000
0100
0000
1000
0001
0010
0000
,
0100
0000
1000
0000
0010
0100
0001
0000
,
1001
0000
0100
0000
0001
0010
0001
0000
,
1000
0000
0100
0000
1000
0010
0010
0000
,
0100
0001
1000
0001
,
0100
0001
0010
0000
0010
0000
1002
0000
,
1003
0100
1000
0000
0100
1000
0100
0000
,
0010
0000
0001
0000
0100
0001
0001
0000
,
1000
0010
0100
0001
,
0010
0000
0100
1000
0010
1000
0001
0000
,
0100
0010
0001
0000
0010
0100
1000
0000
,
0010
0000
0100
0000
0010
0100
0100
0000
,
0010
1000
0100
0010
,
0001
0000
0100
0010
1000
0100
0010
0000
,
0001
0100
0001
0000
1000
0010
1000
0000
,
0010
0000
1000
0000
0100
0010
0010
0001
,
0000
0100
0001
0000
1000
0000
0010
0100
,
0010
0000
1000
0010
0000
0100
0000
0000
,
0001
0010
0001
0000
1000
0100
1000
0000
,
0010
0000
0100
0000
0001
0010
0010
0100
,
0000
1000
0100
0000
0010
0000
0001
0010
,
0100
0000
1000
0100
0000
0010
0000
0000
,
0001
0000
0100
0010
1000
0000
0100
0000
,
0010
0001
0001
1000
0010
0000
0100
0000
,
0001
0001
1000
1000
,
0010
0100
0010
1000
0001
0000
0001
0000
,
1000
0000
0000
0000
;
