#TITLE:スキ? キライ!? スキ!!!;
#SUBTITLE:;
#ARTIST:MK vs. Hommarju feat. Maki;
#TITLETRANSLIT:Suki? Kirai!? Suki!!!;
#SUBTITLETRANSLIT:;
#ARTISTTRANSLIT:;
#GENRE:;
#CREDIT:;
#MENUCOLOR:#FF33CC;
#NEWMETERSYSTEM:NO;
#BANNER:Suki Kirai Suki-bn.png;
#BACKGROUND:Suki Kirai Suki-bg.png;
#LYRICSPATH:;
#CDTITLE:PROJECT VIRIDIAN-cdtitle.png;
#MUSIC:Suki Kirai Suki.mp3;
#OFFSET:-0.020;
#SAMPLESTART:42.000;
#SAMPLELENGTH:11.400;
#SELECTABLE:YES;
#LISTSORT:;
#BPMS:0.000=180.000,224.000=179.700,228.000=180.000;
#STOPS:;
#BGCHANGES:;
#ATTACKS:;

//---------------dance-single - ----------------
#NOTES:
     dance-single:
     :
     Easy:
     5:
     0.381,0.620,0.182,0.321,0.000:
0000
0000
0000
0000
,
0000
0000
0000
0000
,
0000
0000
0000
0000
,
0000
0000
0000
0000
,
1000
0100
1000
0100
,
0001
0100
0001
0100
,
1000
0100
0010
0001
,
0200
0000
0000
0300
,
0010
0010
1000
0010
,
1000
0000
0001
0000
,
0100
0100
0001
0100
,
0001
0000
1000
0000
,
0020
2030
3200
2300
,
3002
0203
0320
0230
,
0301
0001
1000
0000
,
2002
0000
0000
3003
,
0110
0010
0100
0001
,
1000
0000
1000
0000
,
0100
0010
0001
0010
,
0100
0000
1000
0000
,
0002
0203
0302
0023
,
0032
0203
0320
2030
,
3100
0100
1000
1000
,
0000
1001
1001
1001
,
0000
0110
0110
0000
,
0001
1000
0001
1000
,
0020
0100
0000
0130
,
2000
0100
0000
3100
,
0000
1001
1001
0000
,
0010
0010
0100
0100
,
0010
1000
0100
0010
,
0002
0000
2000
3003
,
0100
0010
0100
0000
,
1000
0100
0010
0001
,
0100
0010
0100
0000
,
0001
0010
0100
1000
,
0001
0001
0002
0000
,
0003
0100
0010
0100
,
0001
1000
0001
1000
,
0100
1000
0100
1000
,
0010
0100
0010
0000
,
1000
0100
0010
0001
,
0010
0100
0010
0000
,
0001
0010
0100
1000
,
0001
0001
0002
0000
,
0003
0010
0100
0010
,
0001
0010
0001
0010
,
0001
1000
0100
0000
,
0000
0100
0010
0010
,
0100
0100
0001
0001
,
1000
1000
0100
0010
,
0100
1000
0100
0000
,
1000
0100
0010
0010
,
0001
0001
0010
0010
,
0100
1000
0001
0100
,
0000
0002
2003
3000
,
0200
0000
0000
0000
,
0320
0000
0000
0000
,
0032
0000
0000
0000
,
1003
0000
0000
0000
,
0000
0110
0110
0000
,
0001
0100
0001
0100
,
0200
0001
0000
0301
,
0020
1000
0000
1030
,
0000
1001
1001
0000
,
1000
0100
0010
0001
,
1000
1000
0001
0001
,
0200
0000
0020
0330
,
0001
0100
0000
0100
,
0000
0100
0000
0100
,
1001
0010
0000
0010
,
0000
0010
0000
0010
,
1001
0100
0000
0100
,
1001
0010
0000
0010
,
1001
0000
1001
0000
,
1001
1001
2002
3003
,
0010
0100
0010
0000
,
1000
0100
0010
0001
,
0010
0100
0010
0000
,
0001
0010
0100
1000
,
0001
0001
0002
0000
,
0003
0100
0010
0100
,
0001
1000
0001
1000
,
0100
1000
0100
1000
,
0100
0000
0000
0000
;

//---------------dance-single - Copied from----------------
#NOTES:
     dance-single:
     Copied from:
     Beginner:
     2:
     0.137,0.328,0.069,0.035,0.000:
0000
0000
0000
0000
,
0000
0000
0000
0000
,
0000
0000
0000
0000
,
0000
0000
0000
0000
,
0020
0000
0000
0000
,
0000
0000
0000
0000
,
0000
0000
0000
0000
,
0000
0000
0000
0030
,
0010
0000
0000
0000
,
0000
0000
0000
0000
,
1000
0000
0000
0000
,
0000
0000
0000
0000
,
0001
0000
0000
0000
,
1000
0000
0000
0000
,
0010
0000
0010
0000
,
0100
0000
0000
0010
,
0010
0000
0000
0000
,
0000
0000
0000
0000
,
0001
0000
0000
0000
,
0000
0000
0000
0000
,
0100
0000
0000
0000
,
1000
0000
0000
0000
,
0000
0000
0010
0000
,
0000
0100
0100
0100
,
0000
0001
0001
0000
,
0000
0000
0000
0000
,
0000
1000
0000
1000
,
0000
1000
0000
1000
,
0000
0100
0100
0000
,
0000
0000
0000
0000
,
0010
0000
0010
0000
,
0100
0000
0100
0000
,
0100
0000
0000
0000
,
0001
0000
0000
0000
,
1000
0000
0000
0000
,
0100
0000
0000
0000
,
1000
1000
1000
0000
,
0000
0000
0000
0000
,
0010
0000
0000
0000
,
0010
0000
0000
0000
,
0001
0000
0001
0000
,
1000
0000
0000
0000
,
1000
0000
1000
0000
,
0010
0000
0000
0000
,
0100
0000
0000
0000
,
0010
0000
0000
0000
,
0100
0000
0000
0000
,
0000
0001
0001
0000
,
0000
0100
0000
0100
,
0000
0010
0000
0010
,
0000
0100
0000
0100
,
0000
0000
0000
0000
,
0000
1000
0000
1000
,
0000
0001
0000
0001
,
0000
0000
0000
0000
,
0000
0010
0010
0000
,
0200
0000
0000
0000
,
0000
0000
0000
0000
,
0000
0000
0000
0000
,
0300
0000
0000
0000
,
0000
0010
0010
0000
,
0100
0000
0000
0000
,
0000
1000
0000
1000
,
0000
1000
0000
1000
,
0000
0100
0100
0000
,
0000
0000
0000
0000
,
1000
0000
0001
0000
,
1000
0000
1000
0000
,
1001
0000
0000
0000
,
0000
0000
0000
0000
,
1001
0000
0000
0000
,
0000
0000
0000
0000
,
1001
0000
0000
0000
,
1001
0000
0000
0000
,
1001
0000
1001
0000
,
2002
0000
3003
0000
,
0010
0010
0010
0000
,
0100
0000
0000
0000
,
0010
0010
0010
0000
,
0100
0000
0000
0000
,
0001
0001
0001
0000
,
1000
0000
0000
0000
,
0001
0000
0000
0000
,
1000
0000
0001
0000
,
1001
0000
0000
0000
;

//---------------dance-single - Copied from----------------
#NOTES:
     dance-single:
     Copied from:
     Medium:
     6:
     0.443,0.474,0.122,0.122,0.000:
0000
0000
0000
0000
,
0000
0000
0000
0000
,
0000
0000
0000
0000
,
0000
0000
0000
0000
,
0001
0001
0010
0010
,
0100
0100
1000
1000
,
0010
0000
0010
0000
0100
0000
1000
0200
,
0000
0000
0300
0110
,
1000
0000
0001
0000
0100
0000
0010
1000
,
0000
0100
1000
0000
0010
0000
0010
0000
,
0100
0000
0001
0000
1000
0000
0100
0010
,
0000
0010
0001
0000
0100
0000
0001
0000
,
2000
0100
3002
1000
,
0203
0001
0310
1000
,
0100
0000
0100
0000
0010
0001
0000
2002
,
0000
0000
3003
0110
,
0010
0000
1000
0000
0001
0000
0100
0001
,
0000
0100
0001
0000
1000
0000
0010
0000
,
0100
0000
0100
0000
0010
0000
1000
0100
,
0000
0100
0010
0000
0100
0000
1000
0000
,
0002
0100
2003
0100
,
3020
0100
1030
0100
,
0010
0000
0001
0000
1000
0100
0000
1000
,
0000
0000
0001
0100
0001
0100
0001
0100
,
0000
0110
0110
0000
,
0100
0010
0100
0000
0001
0100
0001
0000
,
1000
0000
0100
0000
0010
0000
0100
1000
,
0000
0001
0001
0001
,
1000
0110
0110
0001
,
1000
0000
0100
0000
0010
0100
1000
0000
,
0001
0000
0100
0000
0010
0100
0001
0000
,
1000
0000
0010
1000
0200
0000
0000
0000
,
1300
1000
0010
0100
,
0001
0010
0100
0000
0010
0100
1000
0000
,
0010
0100
0001
0001
,
1000
0100
0010
0000
0100
0010
0001
0000
,
0100
0100
0010
0000
,
0000
0000
1000
0100
1000
0000
0001
0100
,
0001
0001
0100
0100
,
0010
0000
1000
0000
0010
0000
0100
0001
,
0010
0010
0100
1000
,
0010
0100
0001
0000
0100
0010
1000
0000
,
0001
0001
1000
0001
,
0100
0010
1000
0000
0010
0100
0001
0000
,
1000
1000
0010
0000
,
0000
0000
0100
0010
0100
0000
0001
1000
,
0100
0100
1000
1000
,
0010
0001
0100
1000
,
0010
0100
0001
0001
,
0100
0010
1000
1000
,
0100
0010
0100
1000
,
0001
0000
0010
0100
0000
0000
1100
0000
,
0101
0100
0010
1000
,
0001
0001
0010
0100
,
0010
0000
0001
0100
0000
0010
0100
0001
,
0000
1000
0000
1000
0001
0000
0100
0000
,
0020
0000
0000
0000
,
2030
0000
0000
0000
,
3002
0000
0000
0100
0000
0000
1000
0000
,
0103
0000
0000
0000
,
0000
0110
0110
0000
,
1000
0000
0001
0000
0100
0001
0100
0000
,
0010
0000
1000
0000
0100
0000
0010
0001
,
0000
0100
0001
0000
1000
0000
0001
0000
,
1000
0110
0110
0001
,
1000
0100
1000
0000
0001
0100
0001
0000
,
1000
0010
0100
0001
,
1000
0000
1001
0000
,
0001
0100
0000
0100
,
0001
0000
1000
0000
0000
0000
1000
0001
,
0100
0010
0000
0010
,
1000
0000
0100
0000
0000
0000
0100
0001
,
1000
0000
0010
0000
0000
0000
0010
1000
,
0100
0000
0010
0000
0000
0000
0010
0001
,
0010
0000
0000
0001
0010
0000
0000
0001
,
0010
0010
0020
0000
,
0130
1000
0100
0100
,
0010
0001
1000
0000
0100
1000
0001
0000
,
0100
0100
0010
1000
,
0100
1000
0001
0000
0010
0001
1000
0000
,
0010
0100
0010
0000
,
0000
0000
0001
0100
1000
0000
1000
0100
,
0001
1000
0010
0100
,
0001
1000
0000
1000
0000
0010
0000
1000
,
0001
0000
0000
0000
;

//---------------dance-single - Copied from ----------------
#NOTES:
     dance-single:
     Copied from:
     Hard:
     8:
     0.542,0.584,0.217,0.174,0.000: // measure 1
0000
0000
0000
0000
,  // measure 2
0000
0000
0000
0000
,  // measure 3
0000
0000
0000
0000
,  // measure 4
0000
0000
0000
0000
,  // measure 5
0010
0100
0001
1000
,  // measure 6
0100
0010
0100
1000
,  // measure 7
0001
0000
0001
0000
0100
0001
0010
0200
,  // measure 8
0000
1000
0000
0000
1000
0000
1300
0000
,  // measure 9
1010
0000
0100
0000
0001
0000
1000
0100
,  // measure 10
0000
0001
0100
0000
0010
0000
1000
0000
,  // measure 11
0001
0000
0001
0000
0010
0000
0001
0100
,  // measure 12
0000
0010
1000
0000
0100
0000
1000
0000
,  // measure 13
0010
0000
1000
0001
0100
0000
0001
1000
,  // measure 14
0100
0000
1000
0001
0100
0010
0100
0000
,  // measure 15
0001
0000
0001
0000
1000
0100
0000
0220
,  // measure 16
0000
0000
0330
1001
,  // measure 17
0001
0000
0100
0000
0010
0000
1000
0001
,  // measure 18
0000
0100
0010
0000
1000
0000
0001
0000
,  // measure 19
0100
0000
0100
0000
0001
0000
0010
0100
,  // measure 20
0000
0100
1000
0000
0010
0000
0100
0000
,  // measure 21
0001
0000
0010
0001
0100
0000
0010
1000
,  // measure 22
0100
0000
0010
0100
0001
0100
0010
0000
,  // measure 23
1000
0000
0100
0000
1000
0100
0000
0100
,  // measure 24
0000
0000
1000
0001
1000
0010
0100
0001
,  // measure 25
0100
0110
1001
0010
,  // measure 26
0100
0001
1000
0000
0100
1000
0001
0000
,  // measure 27
0100
0000
0100
0000
0010
0000
1000
0100
,  // measure 28
0000
0100
1000
0000
0100
0000
0001
0000
,  // measure 29
0001
0101
1010
0100
,  // measure 30
0001
0010
0100
1000
0100
0000
0010
0000
,  // measure 31
0100
0000
1000
0000
0001
0100
0010
0000
,  // measure 32
1000
0010
0100
0002
2000
0000
3003
0000
,  // measure 33
0110
0000
0010
0000
1000
0000
0010
0100
,  // measure 34
0001
1000
0100
0010
0001
0010
0100
0000
,  // measure 35
0010
0000
1000
0000
0001
0000
0100
0010
,  // measure 36
0100
0001
0100
0010
1000
0010
0100
0001
,  // measure 37
0010
0010
0100
2000
,  // measure 38
3020
0000
1030
0001
0010
1000
0010
0001
,  // measure 39
0100
0100
0100
0100
,  // measure 40
0001
1000
0001
0000
1000
0010
1000
0100
,  // measure 41
0010
0000
0010
0000
0001
0000
1000
0100
,  // measure 42
1000
0010
0100
0001
0100
1000
0100
0000
,  // measure 43
0110
0110
1001
0100
,  // measure 44
0001
0010
0001
1000
0100
1000
0010
0100
,  // measure 45
0010
0010
1000
0200
,  // measure 46
0320
0000
0130
1000
0001
0010
0001
1000
,  // measure 47
0010
0010
0010
0010
,  // measure 48
1000
0002
0203
0310
,  // measure 49
1000
1100
0010
0001
,  // measure 50
0101
0000
0010
0000
0100
0010
0100
0000
,  // measure 51
0011
0100
1000
1010
,  // measure 52
1100
0000
0010
0200
0000
0001
0000
0310
,  // measure 53
1000
1100
0010
0001
,  // measure 54
0110
0001
1000
1000
,  // measure 55
0110
0000
1000
0100
0000
0100
0010
0001
,  // measure 56
0000
0100
0001
0100
0010
0000
1010
0000
,  // measure 57
0102
0000
0000
1000
0000
0000
0100
0000
,  // measure 58
2003
0000
0000
0010
0000
0000
0001
0000
,  // measure 59
3020
0000
0000
0001
0000
0000
1000
0000
,  // measure 60
0130
0000
0000
0000
,  // measure 61
0001
1001
1010
0100
,  // measure 62
1000
0010
0100
0000
0001
0010
0100
0000
,  // measure 63
0001
0000
0001
0000
1000
0000
0100
0010
,  // measure 64
0000
0010
0100
0000
1000
0000
0001
0000
,  // measure 65
0100
1100
0011
0100
,  // measure 66
0010
0100
0001
1000
0100
0000
0010
0000
,  // measure 67
0100
1000
0100
0000
0010
0001
0010
0000
,  // measure 68
0001
0100
0001
2000
0200
0000
3300
0000
,  // measure 69
0001
0100
0001
1000
,  // measure 70
0010
0000
0100
0000
0010
0000
1000
0001
,  // measure 71
0010
0001
0100
0010
,  // measure 72
1000
0000
0001
0000
1000
0000
0100
0010
,  // measure 73
0100
0000
1000
0000
0010
0000
1000
0001
,  // measure 74
0100
0000
0010
0000
1000
0000
0001
1000
,  // measure 75
0100
0000
0000
1000
0100
0000
0000
1000
,  // measure 76
0100
0100
0020
0000
,  // measure 77
0031
0000
0100
0000
0001
0000
1000
0010
,  // measure 78
0000
0100
0001
0100
0010
0100
1000
0100
,  // measure 79
0010
0000
1000
0000
0001
0000
0100
0010
,  // measure 80
0000
1000
0100
0000
0010
0001
0100
0001
,  // measure 81
1000
0010
1000
0200
,  // measure 82
0320
0000
0031
1000
0100
0010
0001
1000
,  // measure 83
0010
0010
0100
0100
,  // measure 84
0001
0100
0001
1000
0100
0010
0001
1000
,  // measure 85
1000
0000
0000
0000
;
