#TITLE:777;
#SUBTITLE:;
#ARTIST:Fastway;
#TITLETRANSLIT:Seven Seven Seven;
#SUBTITLETRANSLIT:;
#ARTISTTRANSLIT:;
#GENRE:;
#CREDIT:;
#MENUCOLOR:#CC6666;
#NEWMETERSYSTEM:NO;
#BANNER:777-bn.png;
#BACKGROUND:777-bg.png;
#LYRICSPATH:777.lrc;
#CDTITLE:PROJECT VIRIDIAN-cdtitle.png;
#MUSIC:777.mp3;
#OFFSET:0.040;
#SAMPLESTART:45.760;
#SAMPLELENGTH:12.540;
#SELECTABLE:YES;
#LISTSORT:;
#BPMS:0.000=157.000;
#STOPS:116.000=1.520
;
#BGCHANGES:;
#ATTACKS:;

//---------------dance-single - ----------------
#NOTES:
     dance-single:
     :
     Easy:
     4:
     0.313,0.348,0.102,0.220,0.000:
0000
0000
0000
0000
,
0000
0000
0000
0000
,
0000
0000
0000
0000
,
0010
0010
0010
0000
,
1000
0100
1000
0000
,
0001
0100
0001
0000
,
0010
0100
0010
0100
,
0020
0000
0000
0030
,
1000
0100
1000
0000
,
0001
0100
0001
0000
,
1000
0001
1000
0001
,
0020
0030
0000
0000
,
0002
0000
0203
0000
,
0010
0010
0301
0000
,
1000
0100
0010
0100
,
1000
0000
0010
0000
,
0200
0000
0320
0000
,
2030
0100
3100
0000
,
0001
0100
1000
0100
,
0002
1003
1001
0000
,
0010
0010
0000
0000
,
0100
0010
1000
0000
,
1000
0100
0001
0010
,
1000
1000
0001
0000
,
0011
0011
0000
0000
,
0001
0100
0010
0000
,
1000
0000
0001
0000
,
1000
0000
0010
0100
,
0002
0000
2003
0000
,
3001
1000
1000
0100
,
0010
0100
0001
0100
,
1000
2000
3001
0002
,
0103
0010
0100
0000
,
0100
0001
0001
1000
,
0010
0100
0010
0000
,
1100
0000
0101
0000
,
0010
0100
0001
0000
,
1000
0100
0100
0010
,
0001
0100
0010
1000
,
0001
0020
1030
0200
,
0301
0100
0001
0000
,
0100
1000
1000
0100
,
1000
0001
0010
0000
,
0011
0000
1010
0000
,
0100
0010
1000
0000
,
1000
0100
1000
0000
,
0001
0100
0001
0000
,
0010
0100
0010
0100
,
0020
0000
0000
0030
,
1000
0100
1000
0000
,
0001
0100
0001
0000
,
1000
0001
1000
0001
,
0200
0300
0000
0000
,
0010
0100
0011
0000
,
0100
0010
1100
0000
,
0001
0100
1000
0100
,
0001
0100
1000
0100
,
0002
0000
2003
0000
,
3020
1000
0130
0000
,
2000
0000
3002
0000
,
0023
0001
0130
0000
,
1000
1000
0010
0100
,
0001
0010
0100
1000
,
0001
2000
3100
0020
,
0031
0100
0100
0000
,
0010
0010
1000
0010
,
1000
0001
0010
0000
,
1010
0000
0011
0000
,
1000
0001
1000
0000
,
0001
0001
0010
0100
,
1000
0010
0100
0001
,
0100
0200
0310
0020
,
1030
0001
0100
0000
,
0010
0010
0100
0010
,
1000
0100
0010
0000
,
0101
0000
1100
0000
,
0010
0100
0001
0000
,
1000
0100
1000
0000
,
0001
0100
0001
0000
,
1000
0001
1000
0001
,
2000
3200
0300
0000
;

//---------------dance-single - Copied from----------------
#NOTES:
     dance-single:
     Copied from:
     Beginner:
     1:
     0.112,0.158,0.079,0.110,0.000:
0000
0000
0000
0000
,
0000
0000
0000
0000
,
0000
0000
0000
0000
,
0000
0000
0000
0000
,
0010
0000
0000
0000
,
0010
0000
0000
0000
,
0010
0000
0000
0000
,
2000
0000
3000
0000
,
0001
0000
0000
0000
,
0001
0000
0000
0000
,
0001
0000
0000
0000
,
0100
0100
0000
0000
,
1000
0000
0000
0000
,
0010
0000
0000
0000
,
0001
0000
0000
0000
,
0110
0000
0000
0000
,
0010
0000
0000
0000
,
1000
0000
0000
0000
,
0100
0000
0000
0000
,
0002
0000
0003
0000
,
1001
0000
0000
0000
,
1001
0000
0000
0000
,
1000
0000
0000
0000
,
1000
0000
1000
0000
,
0010
0000
0000
0000
,
0110
0000
0000
0000
,
0001
0000
0000
0000
,
1000
0000
0000
0000
,
0200
0000
0000
0000
,
0300
0000
0000
0000
,
0010
0000
0000
0000
,
1000
0000
0000
0000
,
0001
0000
0000
0000
,
0010
0000
0000
0000
,
0001
0000
0000
0000
,
0200
0000
0300
0000
,
0100
0000
0000
0000
,
1001
0000
0000
0000
,
1000
0000
0000
0000
,
0010
0000
0000
0000
,
0001
0000
0000
0000
,
0100
0000
0000
0000
,
0001
0000
0000
0000
,
0010
0000
0000
0000
,
2000
0000
3000
0000
,
0010
0000
0000
0000
,
0010
0000
0000
0000
,
0010
0000
0000
0000
,
0002
0000
0003
0000
,
1000
0000
0000
0000
,
1000
0000
0000
0000
,
1000
0000
0000
0000
,
0200
0000
0300
0000
,
0010
0000
1000
0000
,
0000
0000
0001
0000
,
0020
0000
0000
0000
,
0000
0000
0030
0000
,
0220
0000
0000
0000
,
0330
0000
0000
0000
,
2002
0000
0000
0000
,
3003
0000
0000
0000
,
1001
0000
0000
0000
,
0010
0000
0000
0000
,
1000
0000
0000
0000
,
0001
0000
0000
0000
,
0100
0000
0000
0000
,
0010
0000
0000
0000
,
1000
0000
0000
0000
,
0100
0000
0000
0000
,
0110
0000
0000
0000
,
0001
0000
0000
0000
,
1000
0000
0000
0000
,
0010
0000
0000
0000
,
0001
0000
0000
0000
,
0100
0000
0000
0000
,
0010
0000
0000
0000
,
1000
0000
0000
0000
,
0010
0000
0000
0000
,
0010
0000
0000
0000
,
0010
0000
0000
0000
,
2002
0000
3003
0000
;

//---------------dance-single - Copied from----------------
#NOTES:
     dance-single:
     Copied from:
     Medium:
     6:
     0.440,0.441,0.212,0.275,0.000:
0000
0000
0000
0000
,
0000
0000
0000
0000
,
0000
0000
0000
0000
,
0000
0000
0000
0000
,
0001
0000
0100
0000
0010
0100
0010
0000
,
1000
0000
0001
0000
0100
0010
0100
0000
,
0002
0000
2003
0000
,
3010
0000
0100
0000
0001
1000
0100
0000
,
0010
0000
0100
0000
0001
0010
0001
0000
,
0100
0000
0010
0000
1000
0100
1000
0000
,
0020
1030
0002
0103
,
0001
0100
1000
0000
0000
0000
0100
0000
,
0010
0100
0001
1000
,
0100
1000
0010
0010
,
0100
0001
1000
0100
,
0010
0220
0330
0001
,
1000
0100
0010
0000
0100
1000
0001
0000
,
0100
0010
0100
0001
0000
0000
1000
0100
,
0100
0010
0100
1000
,
0001
0100
0001
0000
0010
0000
0000
0000
,
0020
0230
0000
0301
,
1000
0001
0000
1001
0000
0000
0010
0000
,
0100
0100
0001
1000
,
0020
0230
0320
1030
,
0200
2300
0000
3100
,
1000
0010
0000
0110
0000
0000
0010
0000
,
0100
0100
0001
0001
,
1000
1000
0010
0010
,
0100
0010
0100
0000
0001
1000
0001
0000
,
0110
0000
0001
0100
0001
0000
1000
0000
,
0010
0000
1000
0100
1000
0000
0010
0000
,
0100
0001
0000
0000
1000
0100
0000
0000
,
1000
0010
0000
0101
0000
1010
0000
0000
,
0100
0000
0010
0100
0010
0000
0100
0000
,
0001
0000
1000
0100
1000
0000
0010
0000
,
0200
0320
2030
3200
,
0310
0001
0000
0011
0000
1100
0000
0000
,
0100
0000
0100
1000
0010
0000
0100
0000
,
0010
0000
1000
0100
1000
0000
0001
0000
,
0100
0001
0000
0000
0100
1000
0000
0000
,
0010
0100
0000
1010
0000
0101
0000
0000
,
1000
0000
0001
0100
0001
0000
1000
0000
,
0010
0000
0100
0010
1000
0000
0001
0000
,
0020
0032
0203
0320
,
1030
0000
0100
1000
0000
0101
0000
0000
,
1000
0000
0100
0000
1000
0010
0100
0000
,
0001
0000
0100
0000
0010
0100
0001
0000
,
0010
0010
0100
1000
,
0010
0000
0100
0000
0010
0100
0001
0100
,
0001
0000
1000
0000
0100
1000
0100
0000
,
0010
0000
0100
0000
1000
0010
0100
0000
,
0001
0001
1000
1000
,
0001
0010
1000
0000
0000
0000
0000
0000
,
1000
0001
0101
0000
,
0001
1000
1100
0000
,
0010
0100
0010
0100
,
0001
0010
0110
0000
,
2100
3000
0102
0003
,
2002
0003
3010
0000
,
0102
0013
2100
3010
,
0100
0010
0100
0010
0100
0000
0000
0000
,
0001
0000
0010
0001
0100
0000
0010
0000
,
0100
0000
0100
0001
1000
0000
0100
0000
,
1000
0100
0000
0000
0001
0100
0000
0000
,
0010
0100
0000
0011
0000
1010
0000
0000
,
0100
0000
0010
1000
0100
0000
1000
0000
,
0010
0000
0010
0100
0010
0000
1000
0000
,
0002
0203
0302
2003
,
3010
0100
0000
1001
0000
1001
0000
0000
,
1000
0000
1000
0010
0100
0000
0010
0000
,
0100
0000
0001
0010
0100
0000
0010
0000
,
0001
0100
0000
0000
1000
0010
0000
0000
,
1000
0100
0000
0110
0000
0011
0000
0000
,
0100
0000
0010
0100
1000
0000
0010
0000
,
0100
0000
0010
0100
0001
0000
1000
0000
,
0200
0320
0230
2300
,
3001
0100
0000
0011
0000
1100
0000
0000
,
0010
0000
0100
0000
1000
0100
1000
0000
,
0001
0000
0100
0000
0001
0010
0001
0000
,
1000
0001
1000
0010
,
1000
0100
0001
0000
0000
0000
0000
0000
;

//---------------dance-single - Copied from----------------
#NOTES:
     dance-single:
     Copied from:
     Hard:
     8:
     0.559,0.536,0.204,0.330,0.098:
0000
0000
0000
0000
,
0000
0000
0000
0000
,
0000
0000
0000
0000
,
0100
0010
0100
0010
2000
0000
0000
0000
,
3100
0000
0000
1000
0000
0000
0010
0000
0100
0000
0010
0000
0100
0000
0000
0000
,
0001
0000
0000
0001
0000
0000
0010
0000
0001
0000
1000
0000
0100
0000
0000
0000
,
1000
0000
0000
1000
0000
0000
0010
0000
0001
0000
0000
0001
0000
0000
0010
0000
,
1000
0000
0000
0010
0000
0000
0100
0000
0000
0000
0001
0000
0001
0000
0010
0000
,
0100
0000
0000
0100
0000
0000
1000
0000
0001
0000
0010
0000
0001
0000
0000
0000
,
1000
0000
0000
1000
0000
0000
0100
0000
0010
0000
0001
0000
1000
0000
0000
0000
,
0010
0000
0000
0010
0000
0000
0100
0000
0001
0000
0000
0001
0000
0000
1000
0000
,
0100
0000
0010
0000
0010
0001
0000
0000
0000
0000
0000
0000
0200
0000
0000
0000
,
0310
0000
1000
0000
0010
0100
0001
0000
,
1000
0000
0100
0010
0000
0010
0001
0000
,
0100
0010
0100
0000
0010
1000
0010
0200
,
0000
0302
0000
1000
0000
1003
0100
1000
,
0002
0103
2000
3100
,
1000
0001
0100
0020
0100
0030
1000
0001
,
1000
0100
1000
0000
0001
0100
0001
0010
,
0001
0001
0202
0303
,
1000
0100
1000
0010
0100
0000
0001
0000
,
0100
0001
0010
0001
0100
0000
0010
0000
,
0100
0010
0100
0000
0010
0100
0010
0000
,
1100
1001
0011
0100
,
0010
0100
0010
0000
1000
0100
1000
0000
,
0001
0000
0100
0010
0000
1000
0100
0000
,
1000
0010
0100
0001
1000
0000
0001
0000
,
0100
0001
0010
0200
0000
1300
0100
0010
,
0200
0320
0032
1000
,
0103
0000
1000
0100
1000
0000
0001
0000
,
0100
0001
0010
0000
0001
0000
0100
0010
,
0100
0001
0200
0010
0301
0100
0020
1000
,
1030
0100
1000
0002
0000
2003
0000
3100
,
0010
0000
0100
1000
0001
0000
0100
0000
,
0010
1010
0101
1000
,
0010
0010
0110
0110
,
1000
0001
1000
0100
0000
0220
0000
0330
,
0001
0000
1000
0100
0001
0000
0100
0000
,
1000
0000
0001
0010
1000
0000
0001
1000
,
0001
0100
0020
1000
0130
0001
0020
0100
,
0031
0100
0010
2000
0000
3002
0000
0013
,
0001
0000
1000
0100
1000
0000
0010
0000
,
0100
0101
1010
0100
,
0001
0001
1100
1100
,
1000
0010
0100
0001
0000
2020
0000
3030
,
0001
0000
0000
0100
0000
0000
0001
0000
0100
0000
0010
0000
1000
0000
0000
0000
,
0001
0000
0000
0100
0000
0000
1000
0000
0001
0000
0010
0000
0001
0000
0000
0000
,
1000
0000
0000
1000
0000
0000
0010
0000
0001
0000
0000
0001
0000
0000
0010
0000
,
1000
0000
0000
1000
0000
0000
0001
0000
0000
0000
1000
0000
1000
0000
0010
0000
,
0100
0000
0000
0001
0000
0000
0010
0000
0001
0000
0100
0000
0001
0000
0000
0000
,
0010
0000
0000
0001
0000
0000
0100
0000
0001
0000
1000
0000
0010
0000
0000
0000
,
1000
0000
0000
1000
0000
0000
0100
0000
0001
0000
0000
0001
0000
0000
0100
0000
,
1000
0000
0001
0000
0100
0010
0000
0000
0000
0000
0000
0000
0000
0000
0000
0000
,
0100
0010
2010
3001
,
0100
0010
0012
0103
,
1000
0010
0001
0000
1000
0100
0001
0000
,
1000
0100
1000
0001
0200
0000
0010
0000
,
0310
0100
0010
0000
0100
0010
0100
0000
,
0001
0100
0001
1000
0100
0000
1000
0000
,
0100
0010
0100
0000
0010
0100
0010
0000
,
0100
0010
0001
2000
0002
0000
3003
0000
,
0010
0000
0100
0001
1000
0000
0100
0000
,
0010
0000
0100
1000
0001
0000
0100
0010
,
0100
0001
2000
0010
3010
0100
0002
0010
,
0103
0001
1000
0020
0000
2030
0000
3001
,
0001
0000
0100
0001
1000
0000
0001
0000
,
1000
0110
1001
0010
,
1000
1000
0101
0101
,
1000
0100
0010
0001
0000
0022
0000
0033
,
0100
0000
0001
1000
0010
0000
0100
0000
,
0001
0000
1000
0100
0010
0000
0100
0010
,
0100
1000
0002
0100
0013
0001
0200
0010
,
0310
1000
0100
2000
0000
3200
0000
0310
,
0001
0000
0010
0100
1000
0000
0001
0000
,
0100
0011
1100
0001
,
0010
0010
1001
1001
,
1000
0001
0100
0001
0000
2020
0000
3030
,
0001
0000
0000
0010
0000
0000
0010
0000
0100
0000
0010
0000
0001
0000
0100
0000
,
0010
0000
0000
1000
0000
0000
0010
0000
0100
0000
1000
0000
0100
0000
0010
0000
,
1000
0000
0000
0001
0000
0000
0001
0000
0100
0000
0000
0010
0000
0000
0010
0000
,
1000
0000
0100
0000
0010
0001
0000
0000
0000
0000
0000
0000
0000
0000
0000
0000
;

//---------------dance-single - Copied from----------------
#NOTES:
     dance-single:
     Copied from:
     Challenge:
     9:
     0.635,0.599,0.346,0.173,0.259: // measure 1
0000
0000
0000
0000
,  // measure 2
0000
0000
0000
0000
,  // measure 3
0000
0000
0000
0000
,  // measure 4
0000
0000
0000
0000
,  // measure 5
1000
0000
0000
0010
0000
0000
0100
0000
0001
0000
1000
0000
0010
0100
0010
0000
,  // measure 6
1000
0000
0000
0100
0000
0000
0001
0000
0100
0000
1000
0000
0010
0100
0001
0000
,  // measure 7
0010
0000
0000
0001
0000
0000
0001
0000
0010
0000
0000
0001
0000
0000
0100
0000
,  // measure 8
0010
0000
0000
1010
0000
0000
0101
0000
0000
0000
1000
0100
1000
0010
0100
0000
,  // measure 9
0001
0000
0000
0100
0000
0000
0010
0000
1000
0000
0100
0000
1000
0010
0100
0000
,  // measure 10
0001
0000
0000
1000
0000
0000
0100
0000
0010
0000
0100
0000
1000
0001
1000
0000
,  // measure 11
0010
0000
0000
0010
0000
0000
0100
0000
0001
0000
0000
1000
0000
0000
0010
0000
,  // measure 12
0100
0001
0100
0001
1000
0010
0000
0000
0000
0000
0000
0000
0000
0000
0000
0000
,  // measure 13
1100
0000
0101
0000
1000
0100
0010
0000
,  // measure 14
0100
0000
0001
0200
0000
0310
2000
0000
,  // measure 15
3100
0010
0100
1000
0001
0100
0001
0000
,  // measure 16
2000
0000
3002
0000
0103
0010
0100
0000
,  // measure 17
0001
0011
1000
1100
,  // measure 18
1000
0010
0100
0001
0000
0001
0100
0000
,  // measure 19
0010
0100
0010
0100
0001
0100
0001
1000
,  // measure 20
0100
0010
0001
1000
0020
0100
0130
0000
,  // measure 21
0101
0000
1010
0000
1000
0001
0100
0000
,  // measure 22
0010
0000
0010
0100
0000
0001
0100
0000
,  // measure 23
0010
1000
0100
0000
0010
1000
0100
0000
,  // measure 24
0101
0000
0101
0000
1000
2100
0000
3010
,  // measure 25
0100
0000
0101
0000
0010
0100
0001
0000
,  // measure 26
1000
0000
0010
1000
0000
0010
0100
0001
,  // measure 27
1000
0000
1000
0100
0010
0000
0100
0010
,  // measure 28
0001
0000
0010
0100
1000
0000
0001
0100
,  // measure 29
0002
0000
2003
0000
3100
0100
0110
0000
,  // measure 30
1001
0000
0001
0000
0100
0000
1000
0000
0100
0000
0000
0110
0000
0000
0010
0000
,  // measure 31
1000
0000
0001
0000
0100
0000
0001
0000
1000
0000
0000
1001
0000
0000
1000
0000
,  // measure 32
0010
0100
0002
1000
1003
0001
0200
0010
,  // measure 33
0301
1000
0001
0100
0000
0110
0000
1000
,  // measure 34
0100
0000
0010
0000
0100
0000
1000
0000
0001
0000
0000
0110
0000
0000
0001
0000
,  // measure 35
0100
0000
1000
0000
0100
0000
0010
0000
0100
0000
0000
0011
0000
0000
1000
0000
,  // measure 36
0100
0010
0010
0000
0100
0010
0010
0000
,  // measure 37
0100
1000
0001
0100
0000
1001
0001
0000
,  // measure 38
0010
0000
0100
0000
1000
0000
0001
0000
0100
0000
0000
1001
0000
0000
0001
0000
,  // measure 39
0100
0000
0001
0000
0001
0000
1000
0000
0100
0000
0000
0110
0000
0000
0010
0000
,  // measure 40
0100
1000
0002
0100
0013
1000
2000
0010
,  // measure 41
3001
0100
0001
0010
0000
2001
0000
3010
,  // measure 42
0100
0000
0001
0000
1000
0000
0100
0000
1000
0000
0000
0101
0000
0000
0100
0000
,  // measure 43
0010
0000
1000
0000
0001
0000
0001
0000
0010
0000
0000
1001
0000
0000
0010
0000
,  // measure 44
0100
0010
0010
0000
0100
0010
0010
0000
,  // measure 45
1000
0001
0010
0001
0000
1002
0000
0103
,  // measure 46
0010
0000
0000
0100
0000
0000
0001
0000
1000
0000
0100
0000
1000
0001
0100
0000
,  // measure 47
0010
0000
0000
1000
0000
0000
0001
0000
0010
0000
0010
0000
0100
1000
0010
0000
,  // measure 48
1000
0000
0000
0001
0000
0000
0010
0000
0100
0000
0000
0001
0000
0000
0100
0000
,  // measure 49
1000
0000
0000
0011
0000
0000
1100
0000
0000
0000
0010
0001
0010
0100
1000
0000
,  // measure 50
0001
0000
0000
0010
0000
0000
0010
0000
0100
0000
1000
0000
0100
0010
0001
0000
,  // measure 51
0010
0000
0000
0100
0000
0000
0100
0000
0001
0000
0100
0000
0010
0100
1000
0000
,  // measure 52
0001
0000
0000
0100
0000
0000
0001
0000
1000
0000
0000
0010
0000
0000
0001
0000
,  // measure 53
0010
0100
0010
0100
0001
1000
0000
0000
0000
0000
0000
0000
0000
0000
0000
0000
,  // measure 54
0001
0000
0000
0000
0100
0000
0000
0001
0100
0000
0000
0000
0010
0000
1000
0000
,  // measure 55
1000
1100
1010
0100
,  // measure 56
0010
0000
0000
0000
0100
0000
0000
0001
1000
0000
0000
0000
0100
0000
1000
0010
,  // measure 57
1000
0000
0100
0000
1000
0000
0100
1000
,  // measure 58
1000
0000
0000
0000
0010
0000
0000
0100
0001
0000
0000
0000
1000
0000
0001
0000
,  // measure 59
0010
0010
0220
0330
,  // measure 60
0100
0000
1000
0000
0001
0000
0000
0100
0001
0000
0000
0000
0001
0000
1000
0000
,  // measure 61
0100
0100
0010
0010
1001
0000
0000
0000
,  // measure 62
0001
0000
0100
0000
1000
0000
0100
0000
0001
0000
0000
1010
0000
0000
0100
0000
,  // measure 63
1000
0000
0010
0000
0010
0000
0100
0000
0001
0000
0000
0110
0000
0000
1000
0000
,  // measure 64
0100
0100
2000
0001
3010
1000
0020
1000
,  // measure 65
0130
0001
1000
0100
0000
1002
0000
0013
,  // measure 66
0100
0000
0010
0000
0001
0000
0100
0000
0001
0000
0000
1001
0000
0000
0100
0000
,  // measure 67
0010
0000
1000
0000
0100
0000
0100
0000
0010
0000
0000
1100
0000
0000
0010
0000
,  // measure 68
0100
0010
0010
0000
0100
0010
0010
0000
,  // measure 69
0001
0100
0010
1000
0000
0101
0100
0000
,  // measure 70
0100
0000
0010
0000
1000
0000
0001
0000
0010
0000
0000
1001
0000
0000
0010
0000
,  // measure 71
0001
0000
0100
0000
1000
0000
0100
0000
0001
0000
0000
1001
0000
0000
0010
0000
,  // measure 72
0100
1000
0020
0100
0130
0001
2000
0100
,  // measure 73
3010
1000
0001
0010
0000
0110
0000
0100
,  // measure 74
1000
0000
0001
0000
0100
0000
0010
0000
0100
0000
0000
0011
0000
0000
0100
0000
,  // measure 75
0010
0000
0010
0000
1000
0000
0001
0000
0100
0000
0000
1010
0000
0000
1000
0000
,  // measure 76
0100
0010
0010
0000
0100
0010
0010
0000
,  // measure 77
0001
0010
0100
1000
0001
0012
0000
1003
,  // measure 78
0100
0000
0000
1000
0000
0000
0010
0000
0100
0000
1000
0000
0100
0010
1000
0000
,  // measure 79
0001
0000
0000
0010
0000
0000
1000
0000
0010
0000
0010
0000
0001
1000
0001
0000
,  // measure 80
0100
0000
0000
0010
0000
0000
0100
0000
0001
0000
0000
1000
0000
0000
1000
0000
,  // measure 81
0001
0100
0001
0100
0010
1000
0000
0000
0000
0000
0000
0000
0000
0000
0000
0000
;
