#TITLE:Rollercoaster;
#SUBTITLE:;
#ARTIST:B*Witched;
#TITLETRANSLIT:;
#SUBTITLETRANSLIT:;
#ARTISTTRANSLIT:;
#GENRE:;
#CREDIT:;
#MENUCOLOR:#FFFF99;
#NEWMETERSYSTEM:NO;
#BANNER:Rollercoaster-bn.png;
#BACKGROUND:Rollercoaster-bg.png;
#LYRICSPATH:;
#CDTITLE:;
#MUSIC:Rollercoaster.mp3;
#OFFSET:-0.360;
#SAMPLESTART:89.420;
#SAMPLELENGTH:17.980;
#SELECTABLE:YES;
#LISTSORT:;
#BPMS:0.000=107.020;
#STOPS:;
#BGCHANGES:;
#ATTACKS:;

//---------------dance-single - ----------------
#NOTES:
     dance-single:
     :
     Easy:
     3:
     0.247,0.328,0.098,0.252,0.000:
0000
0000
0000
0000
,
0000
0000
0000
0000
,
0000
0000
0000
0000
,
2002
0000
0000
3003
,
0010
1000
0100
1000
,
0001
0100
0002
0003
,
0010
0100
0010
1000
,
0001
1000
0000
0110
,
1001
0100
0001
0000
,
1000
0100
1000
0000
,
0010
0100
0010
0000
,
1000
0100
0010
0100
,
0001
0100
2000
3000
,
0001
0100
0002
0003
,
0010
0100
0020
1030
,
2000
0001
0001
3001
,
0001
0100
0001
0000
,
1000
0100
1000
0010
,
0100
0100
0010
0100
,
0001
0010
0002
0003
,
1000
0100
1000
0100
,
0010
0100
1000
0000
,
0110
0000
1001
0000
,
0010
0010
0010
0100
,
1001
0010
0001
1000
,
0010
0010
1000
0001
,
0100
1000
0100
0000
,
0002
0023
0230
1300
,
1001
0010
0010
0100
,
0001
0001
0010
0100
,
1000
0001
0100
0000
,
0020
2030
3002
0103
,
0110
0001
0000
0001
,
1000
0100
0000
0100
,
1000
0010
0000
0010
,
1000
0001
0000
0001
,
0110
0100
0000
0100
,
0010
1000
0000
1000
,
0010
0001
0000
0001
,
0200
0000
0000
0310
,
1001
0010
0100
0001
,
0100
0100
0010
1000
,
0002
0103
0020
0130
,
0002
2003
3020
0130
,
1001
1000
0100
0100
,
0010
0001
0001
1000
,
0010
0100
0001
0000
,
2000
3200
0320
0031
,
1001
0010
0100
0020
,
2030
3001
0200
0301
,
1000
0100
1000
0000
,
0002
2003
3002
2003
,
3200
0000
0000
0000
,
0000
0000
0000
0300
;

//---------------dance-single - Copied from----------------
#NOTES:
     dance-single:
     Copied from:
     Beginner:
     1:
     0.088,0.131,0.065,0.065,0.000:
0000
0000
0000
0000
,
0000
0000
0000
0000
,
0000
0000
0000
0000
,
0000
0000
0000
0000
,
0001
0000
0000
0000
,
1000
0000
0000
0000
,
0010
0000
0000
0000
,
0100
0000
0000
1000
,
1000
0000
0000
0000
,
0001
0000
0000
0000
,
0010
0000
0000
0000
,
0100
0000
0010
0000
,
0100
0000
0000
0000
,
0001
0000
0000
0000
,
0100
0000
0000
0000
,
1000
0000
0000
0000
,
0110
0000
0000
0000
,
0001
0000
0000
0000
,
1000
0000
0000
0000
,
0010
0000
0000
0000
,
1001
0000
0000
0000
,
0100
0000
0000
1000
,
1000
0000
0001
0000
,
0002
0000
0003
0000
,
1001
0000
0000
0000
,
1001
0000
0000
0000
,
0100
0000
0000
0000
,
0200
0000
0300
0000
,
1001
0000
0000
0000
,
1001
0000
0000
0000
,
0010
0000
0000
0000
,
0020
0000
0030
0000
,
0001
0000
0000
0000
,
0000
0000
0000
0000
,
1000
0000
0000
0000
,
0200
0000
0300
0000
,
1001
0000
0000
0000
,
0010
0000
0000
0000
,
0100
0000
0000
0000
,
0000
0000
0000
0010
,
0010
0000
0000
0100
,
0100
0000
0000
0000
,
0000
0001
0000
1000
,
0000
0000
0010
0000
,
0010
0000
0000
0100
,
0100
0000
0000
0001
,
0001
0000
0001
0000
,
0002
0000
0003
0000
,
1000
0000
0000
1000
,
0000
0100
0000
0010
,
0010
0000
0001
0000
,
0200
0000
0300
0000
,
2002
0000
0000
0000
,
0000
0000
0000
3003
;

//---------------dance-single - Copied from----------------
#NOTES:
     dance-single:
     Copied from:
     Medium:
     4:
     0.260,0.284,0.049,0.073,0.061:
0000
0000
0000
0000
,
0000
0000
0000
0000
,
0000
0000
0000
0000
,
0000
0000
0000
0000
,
0010
0000
1000
0001
0000
0000
0100
0000
,
0001
0000
0010
0001
0000
0000
0100
0000
,
0010
0000
0100
1000
0000
0000
0001
0000
,
1000
0000
0010
0100
0000
0001
0001
0001
,
0001
0000
0100
0010
0000
0000
1000
0000
,
0100
0000
1000
0100
0000
0000
1000
0000
,
0010
0000
0100
0010
0000
0000
0001
0000
,
0100
0000
0001
1000
0000
0010
0100
0000
,
0110
0000
0001
0100
0000
0000
0001
0000
,
1000
0000
1000
0100
0000
0000
1000
0000
,
0010
0000
1000
0001
0000
0000
0010
0000
,
0100
0000
1000
0000
0001
0100
0001
0100
,
0001
0001
0002
0003
,
0100
0000
0010
0000
1000
0001
1000
0000
,
0100
0010
0200
0300
,
0010
0000
1000
0100
1000
0000
0000
0000
,
0010
1000
0002
0003
,
0010
0000
0100
1000
0010
0000
1000
0000
,
1001
0000
0010
0000
1001
0000
0100
0010
,
0000
0010
0000
0010
0000
0000
1000
1000
,
0010
0000
0000
0010
0000
0000
0010
0000
0000
0000
0000
0000
1000
0000
0000
0000
,
0001
0000
0000
0001
0000
0000
0100
0000
0000
0000
0010
0000
0100
0000
0000
0000
,
0010
0000
0000
1000
0000
0000
0010
0000
0000
0000
0000
0000
0100
0000
0010
0000
,
0000
0010
0000
1000
0000
1000
0001
0000
,
1000
0000
0000
0010
0000
0000
0100
0000
0000
0000
0000
0000
0001
0000
0000
0000
,
0010
0000
0000
0010
0000
0000
0001
0000
0000
0000
0100
0000
0010
0000
0000
0000
,
0100
0000
0000
0001
0000
0000
0010
0000
0000
0000
0000
0000
0100
0000
1000
0000
,
0000
0001
0000
0001
0000
0010
0100
0000
,
1001
0000
0010
0010
0000
0000
0100
0000
,
0010
0000
1000
0100
0000
0000
0010
0000
,
0001
0000
1000
0001
0000
0000
0010
0000
,
0100
0000
0010
0010
0000
0000
0001
0000
,
1001
0000
0001
0100
0000
0000
1000
0000
,
0100
0000
0010
0100
0000
0000
0010
0000
,
1000
0000
0100
0010
0000
0000
0001
0000
,
0220
0000
0000
0000
0330
0000
0001
1000
,
0001
0000
0000
0001
0000
0000
1000
0000
0000
0000
0000
0000
0010
0000
0100
0000
,
0010
0000
0000
0010
0000
0000
1000
0000
0000
0000
1000
0000
0001
0000
0000
0000
,
0100
0000
0000
0001
0000
0000
0100
0000
0000
0000
0000
0000
0010
0000
1000
0000
,
0000
0001
0000
1000
0000
0001
0100
0000
,
0010
0000
0000
0010
0000
0000
0010
0000
0000
0000
0000
0000
0100
0000
0010
0000
,
0100
0000
0000
0100
0000
0000
0100
0000
0000
0000
0001
0000
1000
0000
0000
0000
,
1000
0000
0000
0100
0000
0000
0010
0000
0000
0000
0000
0000
0001
0000
0010
0000
,
0000
0001
0000
0100
0000
0001
1000
0000
,
0001
0000
0000
0001
0000
0000
0100
0000
0000
0000
0000
0000
1000
0000
0000
0000
,
1000
0000
0000
1000
0000
0000
0100
0000
0000
0000
0010
0000
0001
0000
0000
0000
,
1000
0000
0000
0010
0000
0000
1000
0000
0000
0000
0000
0000
0100
0000
2000
0000
,
0000
3020
0000
2030
0000
3001
0010
0000
,
0002
0000
0000
0000
,
0000
0000
0000
0003
;

//---------------dance-single - Copied from ----------------
#NOTES:
     dance-single:
     Copied from:
     Hard:
     7:
     0.427,0.438,0.293,0.163,0.065: // measure 1
0000
0000
0000
0000
,  // measure 2
0000
0000
0000
0000
,  // measure 3
0000
0000
0000
0000
,  // measure 4
0000
0000
0000
0000
0000
0000
0000
0000
0000
0000
0000
0000
0000
0000
0000
1000
0000
0000
0001
0000
0010
0100
0000
1000
,  // measure 5
0001
0100
0001
1000
0000
0000
1000
0010
,  // measure 6
0100
0100
0001
2000
0020
3030
0110
0001
,  // measure 7
1000
1000
0001
0010
0000
0000
0001
0100
,  // measure 8
1000
0001
0100
1000
0000
0110
1010
1001
,  // measure 9
0102
1000
1003
0200
1000
0000
0310
0001
,  // measure 10
1000
1000
0100
2000
0001
0000
3100
0010
,  // measure 11
0001
0100
0001
0020
0100
0000
0130
0010
,  // measure 12
1000
0000
0000
0010
0000
0000
0001
0000
0000
0001
0000
0000
0000
0000
0000
0100
0000
0000
0010
0000
1000
0001
0000
0000
,  // measure 13
0110
0010
1000
0001
0000
0000
2001
0010
,  // measure 14
3020
1000
0130
0001
0000
0000
2100
0100
,  // measure 15
3002
0010
1003
0010
0000
0000
0012
0100
,  // measure 16
0103
0010
0100
0002
1000
0100
0103
0000
,  // measure 17
1001
0010
0100
0010
0100
0001
0000
1000
,  // measure 18
0100
1000
0100
0010
0100
0001
0001
0001
,  // measure 19
0100
0000
1000
0000
0010
0000
0100
0000
0001
0000
1000
0100
0000
0000
1000
0000
,  // measure 20
0001
0100
1000
0100
0001
0020
0100
0130
,  // measure 21
1001
0100
0001
0100
1000
0002
1000
0103
,  // measure 22
1000
0100
0100
0010
0010
0001
0100
1000
,  // measure 23
1001
0000
1000
0100
1001
0000
0001
2000
,  // measure 24
0100
3200
0010
0320
0000
0031
0010
1000
,  // measure 25
1001
0000
0000
0001
0000
0000
0100
0000
0000
0000
0000
0000
1000
0000
0100
0000
,  // measure 26
1000
0000
0000
1001
0000
0000
0001
0000
0000
0000
0100
0000
0001
0000
1000
0000
,  // measure 27
0001
1000
1000
0010
0010
0100
0000
0001
,  // measure 28
0000
0011
0000
1100
0000
1000
0010
0100
,  // measure 29
0001
0000
0000
1000
0000
0000
0100
0000
0000
0000
0100
0000
1000
0000
0001
0000
,  // measure 30
0010
0000
0000
0110
0000
0000
0100
0000
0000
0000
0010
0000
0100
0000
0001
0000
,  // measure 31
1000
0100
0100
0010
0010
0001
0000
1000
,  // measure 32
0000
0101
0000
1010
0000
0001
0100
0000
,  // measure 33
1001
0001
0100
0010
0000
0000
1000
0100
,  // measure 34
1000
1000
0001
0100
0000
0000
0010
0100
,  // measure 35
0001
0010
0100
0010
0000
0000
0100
0010
,  // measure 36
0001
1000
0001
0100
0000
0000
0010
0010
,  // measure 37
1001
1000
0001
0100
0000
0000
0001
0010
,  // measure 38
1000
0010
0001
1000
0000
0000
0100
1000
,  // measure 39
1000
0010
0100
0001
0000
0000
0100
0001
,  // measure 40
2000
0000
0000
0000
0000
0000
0001
3001
,  // measure 41
0110
0000
0000
0001
0000
0000
0101
0000
0000
0000
0000
0000
0100
0000
0010
0000
,  // measure 42
1010
0000
0000
0100
0000
0000
1100
0000
0000
0000
0001
0000
0100
0000
0001
0000
,  // measure 43
1000
0100
0100
0010
0010
0001
0000
0001
,  // measure 44
0000
0011
0000
1100
0000
1000
0001
0000
,  // measure 45
0110
0000
0000
0001
0000
0000
1001
0000
0000
0000
0010
0000
0100
0000
0001
0000
,  // measure 46
1100
0000
0000
0001
0000
0000
0110
0000
0000
0000
1000
0000
0001
0000
0010
0000
,  // measure 47
0001
1000
1000
0100
0100
0010
0000
1000
,  // measure 48
0000
0101
0000
1010
0000
0001
0100
0000
,  // measure 49
0010
0000
1000
0000
0001
0000
0010
0001
0000
0001
0100
0000
0020
0000
0130
0000
,  // measure 50
0000
0000
0100
0000
0010
0000
1000
0100
0000
0100
0010
0000
0001
0000
1000
0000
,  // measure 51
0001
1000
1000
0100
0100
0010
0000
0001
,  // measure 52
0000
0110
0000
1001
0000
1000
0001
0001
,  // measure 53
0200
0000
0000
0000
,  // measure 54
0000
0000
0000
0300
;
