#TITLE:Real Emotion;
#SUBTITLE:;
#ARTIST:Jade Villalon;
#TITLETRANSLIT:;
#SUBTITLETRANSLIT:;
#ARTISTTRANSLIT:;
#GENRE:;
#CREDIT:;
#MENUCOLOR:#FF33CC;
#NEWMETERSYSTEM:NO;
#BANNER:Real Emotion-bn.png;
#BACKGROUND:Real Emotion-bg.png;
#LYRICSPATH:;
#CDTITLE:PROJECT VIRIDIAN-cdtitle.png;
#MUSIC:Real Emotion.mp3;
#OFFSET:-2.280;
#SAMPLESTART:54.920;
#SAMPLELENGTH:11.400;
#SELECTABLE:YES;
#LISTSORT:;
#BPMS:0.000=127.000,180.000=127.260,184.000=127.000;
#STOPS:;
#BGCHANGES:;
#ATTACKS:;

//---------------dance-single - ----------------
#NOTES:
     dance-single:
     :
     Easy:
     3:
     0.258,0.256,0.098,0.122,0.000:
0000
0000
0000
0000
,
2000
0000
0000
0000
,
3002
0000
0000
0000
,
0103
0000
0000
0110
,
0001
0100
1000
0100
,
0001
0010
1000
0010
,
0001
0100
1000
0100
,
0001
0010
0100
1000
,
0001
0100
1000
0100
,
0001
0010
1000
0010
,
0001
0100
1000
0100
,
0001
0000
2001
0000
,
3010
0000
0100
0000
,
0001
0100
0001
0000
,
1000
0100
0010
0000
,
0100
0010
0100
0010
,
0001
0100
1000
0000
,
0100
0010
0100
0000
,
0010
0000
1000
0000
,
0001
0100
0001
0010
,
0200
0000
1000
1300
,
0020
0000
0001
0031
,
2000
0000
0010
3010
,
0002
0000
0100
0103
,
0010
0000
0100
0010
,
2000
0000
3002
0000
,
0103
0010
0100
0010
,
0220
0000
0000
0330
,
1001
0000
1001
0000
,
1000
0001
0010
0001
,
0100
0000
0100
0000
,
1000
0100
0001
0100
,
1001
0000
1001
0000
,
0100
0010
0001
0100
,
0010
0000
1000
0000
,
0010
0100
0001
1000
,
0100
0000
0010
0000
,
0001
0010
0001
1000
,
1000
0100
0001
0100
,
1000
0010
0001
0010
,
1000
0100
0001
0100
,
1000
0100
0010
0001
,
1000
0100
0001
0100
,
1000
0010
0001
0010
,
1000
0100
0001
0100
,
1000
0001
0100
0010
,
1001
0000
1001
0000
,
0010
0100
0001
1000
,
0010
0000
0100
0000
,
0001
0010
0100
1000
,
1001
0000
1001
0000
,
0100
1000
0010
0100
,
0001
0000
1000
0000
,
0100
0010
0001
1000
,
0001
0000
0010
0000
,
0001
0010
0100
1000
,
0001
0100
1000
0100
,
1000
0100
0001
0100
,
1000
0010
0001
0100
,
1000
0100
0001
0010
,
2000
0000
3002
0000
,
0103
0100
0100
0100
,
2002
0000
0000
3003
;

//---------------dance-single - Copied from----------------
#NOTES:
     dance-single:
     Copied from:
     Beginner:
     1:
     0.147,0.177,0.106,0.155,0.000:
0000
0000
0000
0000
,
0000
0000
0000
0000
,
0000
0000
0000
0000
,
0010
0010
0010
0000
,
1000
0000
0100
0000
,
0001
0000
0100
0000
,
1000
0000
0000
0000
,
0010
0000
0010
0000
,
0100
0000
0001
0000
,
0100
0000
1000
0000
,
0100
0000
0000
0000
,
0020
0000
0030
0000
,
1000
0000
0000
0000
,
0100
0000
0001
0000
,
0010
0000
0000
0000
,
0202
0000
0303
0000
,
1000
0000
0001
0000
,
1000
0000
0000
0000
,
0010
0000
0000
0000
,
2002
0000
3003
0000
,
0002
0000
0003
0000
,
2000
0000
3000
0000
,
0020
0000
0030
0000
,
0001
0001
0001
0000
,
2000
0000
3000
0000
,
0020
0000
0030
0000
,
2002
0000
0000
0000
,
3003
0000
0000
0000
,
0110
0000
0110
0000
,
0001
0000
0100
0000
,
2000
0000
3000
0000
,
1000
0000
1000
0000
,
0110
0000
0110
0000
,
1000
0000
0001
0000
,
0002
0000
0003
0000
,
0010
0000
0010
0000
,
0002
0000
0003
0000
,
1000
0000
1000
0000
,
1000
0000
0100
0000
,
1000
0000
0100
0000
,
0010
0000
0001
0000
,
1001
0000
0000
0000
,
0100
0000
0010
0000
,
0100
0000
0010
0000
,
0100
0000
0010
0000
,
1000
0000
0000
0000
,
0110
0000
0110
0000
,
0001
0000
0100
0000
,
0002
0000
0003
0000
,
1000
0000
0001
0000
,
0110
0000
0110
0000
,
0001
0000
1000
0000
,
0200
0000
0300
0000
,
0010
0000
0010
0000
,
0002
0000
0003
0000
,
1000
1000
1000
1000
,
1000
0000
0000
0000
,
0001
0000
0000
0000
,
0100
0000
0000
0000
,
0010
0000
0010
0000
,
0020
0000
0030
0000
,
0100
0000
0100
0000
,
1001
0000
0000
0000
;

//---------------dance-single - Copied from----------------
#NOTES:
     dance-single:
     Copied from:
     Medium:
     5:
     0.407,0.409,0.244,0.285,0.008:
0000
0000
0000
0000
,
0020
0100
0100
0100
,
2030
0100
0100
3100
,
0001
0000
0000
1000
0000
0000
0001
0000
0100
0000
0000
0000
1001
0000
0000
0000
,
0100
0010
0100
0010
,
0001
0100
0001
0100
,
1000
0100
1000
0100
,
1010
0011
1010
0011
,
0100
0010
0100
0010
,
0001
0010
0001
0010
,
0100
1000
0100
1000
,
0002
0000
2000
3003
,
0010
0000
0100
0000
0010
1000
0001
0000
,
0100
0010
0011
0100
,
0010
1000
0001
0000
0010
0001
0100
0000
,
0020
2030
3002
0103
,
0010
0100
0001
0000
1000
0100
0010
0000
,
0100
0010
0100
1000
,
0001
0100
0001
0000
1000
0010
1000
0000
,
0020
0230
2300
3001
,
0200
0000
0001
0000
0010
0010
0310
0000
,
0020
0000
1000
0000
0100
0100
0130
0000
,
0001
0000
0100
0001
1000
0000
0010
1000
,
0001
1001
1100
0010
,
2002
0000
3003
0011
,
2200
3300
0202
0303
,
2002
0000
0000
0000
,
3003
0000
0000
0000
0010
0100
0010
0100
,
1001
0000
0100
0001
0100
0000
0010
1000
,
0001
0100
1000
0010
,
0002
0000
1003
0001
1000
0000
0100
0010
,
0001
1000
0011
1100
,
0100
0000
0010
0100
0010
0000
0001
0100
,
0001
0010
0100
0010
,
2000
0000
3001
0010
0001
0000
0100
0000
,
0010
0100
1001
0110
,
0002
0000
0103
0010
0100
0000
0001
1000
,
0200
2300
3002
0013
,
0100
0010
0100
0010
0001
0000
0100
0000
,
0010
1000
0100
1000
0010
0000
0100
0000
,
0001
1000
0100
0010
0001
0000
0100
0000
,
0011
1010
0011
1010
,
0100
0010
0100
1000
0010
0000
0100
0000
,
0001
0010
0100
0010
0001
0000
0100
0000
,
0001
0100
1000
0100
0001
0000
1000
0000
,
0020
0000
0000
0130
,
1001
0100
0010
0100
,
0001
0100
0010
1000
0001
0000
0100
0000
,
0020
0000
1030
0100
0010
0000
0100
0010
,
0001
0100
0101
1010
,
0100
0000
0010
0100
0010
0000
0001
0100
,
0010
1000
0001
0100
,
0020
0000
1030
0001
0010
0000
0001
0100
,
0001
0010
1100
0110
,
0020
0000
0001
0100
0130
0000
0010
0001
,
0100
0010
1000
0001
,
0001
0100
0001
0010
0100
0000
0010
0000
,
0100
1000
0100
0010
0001
0000
0100
0000
,
0010
0100
0010
1000
0001
0000
0010
0000
,
0002
0203
0320
1030
,
1000
0000
0000
0001
0000
0000
0001
0000
0100
0000
0000
0000
1001
0000
0000
0000
,
0100
0000
0010
0000
0100
0010
0011
0000
,
2002
0000
0000
3003
;

//---------------dance-single - Copied from----------------
#NOTES:
     dance-single:
     Copied from:
     Hard:
     7:
     0.501,0.460,0.481,0.195,0.102: // measure 1
0000
0000
0000
0000
,  // measure 2
1000
0100
0001
0100
,  // measure 3
1000
0010
0001
0010
,  // measure 4
1000
0000
0000
0100
0000
0000
0010
0000
0001
0000
0000
0000
1001
0000
0000
0000
,  // measure 5
0010
0100
0001
0100
1000
0000
0100
0000
,  // measure 6
0010
1000
0010
0001
0010
0000
0100
0000
,  // measure 7
0001
0010
0100
0010
0001
0000
1000
0000
,  // measure 8
0011
1010
1001
0101
,  // measure 9
0010
1000
0010
0100
0001
0000
0010
0000
,  // measure 10
0100
0010
0001
1000
0010
0000
0100
0000
,  // measure 11
0001
0100
0010
1000
0010
0000
0100
0000
,  // measure 12
2002
0000
0000
0000
3003
0000
0000
0000
0001
0100
0001
1000
0010
1000
0010
0000
,  // measure 13
0100
0000
0100
0001
0100
0010
1000
0000
,  // measure 14
0001
0010
0100
0010
0001
0100
0010
0000
,  // measure 15
1000
0010
0100
0001
1000
0000
1000
0010
,  // measure 16
0110
0101
1010
1001
,  // measure 17
0100
0001
0100
1000
0100
0010
1000
0001
,  // measure 18
0100
0001
0010
0001
,  // measure 19
0100
0001
0010
0001
1000
0000
0100
0010
,  // measure 20
1100
1010
1001
0101
,  // measure 21
0012
0000
0100
0000
0100
1000
1003
0000
,  // measure 22
2010
0000
0001
0000
0010
0001
3001
0000
,  // measure 23
0120
0000
0001
0000
1000
0100
0130
0000
,  // measure 24
1000
0000
0000
0002
0000
0000
0103
0000
0000
0000
0011
0000
0000
1010
0000
0000
,  // measure 25
2001
0000
0100
0000
0001
0000
3100
0010
,  // measure 26
0102
1003
2010
3001
,  // measure 27
0220
0000
0000
0000
,  // measure 28
0330
0000
0000
0000
0000
0000
0000
0000
0001
1000
0001
1000
0001
0000
0010
0000
,  // measure 29
0110
0000
1000
0100
0110
0000
0001
0100
,  // measure 30
0001
0000
1000
0010
0000
0100
0001
0100
0000
0000
0010
0000
0100
0000
0001
0000
,  // measure 31
2000
0000
3001
0100
0002
0000
0103
0010
,  // measure 32
0100
0000
0000
0000
0001
0000
0000
0000
1000
0000
0000
0110
0000
0000
0001
0000
,  // measure 33
0101
0000
0010
1000
1010
0000
1000
0001
,  // measure 34
1000
0000
0001
0010
0000
0100
1000
0001
0000
0000
0100
0000
0010
0000
1000
0000
,  // measure 35
0020
0000
0130
0001
2000
0000
3001
0100
,  // measure 36
0010
0000
0000
0000
0100
0000
0000
0000
0001
0000
0000
0110
0000
0000
1000
0000
,  // measure 37
0101
0000
1000
0010
0100
0000
0001
0010
,  // measure 38
0011
0110
1010
1001
,  // measure 39
0010
0100
0001
0100
0010
0000
0100
0000
,  // measure 40
0001
0010
0100
1000
0001
0000
0100
0000
,  // measure 41
0010
1000
0100
1000
0001
0000
0100
0000
,  // measure 42
0011
0101
1010
1100
,  // measure 43
1000
0100
0001
0100
1000
0000
0010
0000
,  // measure 44
0100
0001
0100
0010
1000
0000
0001
0000
,  // measure 45
0001
0100
0010
0100
1000
0000
0100
0000
,  // measure 46
0220
0000
0000
0000
0000
0000
0330
0001
,  // measure 47
0101
0000
0100
1000
1100
0000
0010
0100
,  // measure 48
0001
0000
1000
0010
0000
0100
0001
1000
0000
0000
0010
0000
0100
0000
0001
0000
,  // measure 49
0020
0000
0031
0100
0002
0000
1003
0100
,  // measure 50
0100
0000
0000
0000
1000
0000
0000
0000
0001
0000
0000
0110
0000
0000
1000
0000
,  // measure 51
1001
0000
1000
0010
1001
0000
0001
0100
,  // measure 52
0001
0000
1000
0100
0000
1000
0001
1000
0000
0000
0100
0000
1000
0000
0001
0000
,  // measure 53
0200
0000
0310
0100
0002
0000
1003
0100
,  // measure 54
0010
0000
0000
0000
0001
0000
0000
0000
1000
0000
0000
0110
0000
0000
0001
0000
,  // measure 55
1001
0000
0010
0100
0002
0000
0103
0010
,  // measure 56
1010
0101
1100
0011
,  // measure 57
0100
0001
0100
1000
0100
0010
1000
0000
,  // measure 58
0100
0010
0001
1000
0001
0010
0001
0000
,  // measure 59
1000
0001
0100
1000
0100
0001
0010
0000
,  // measure 60
0101
1010
0101
1001
,  // measure 61
0001
0000
0000
0011
0000
0000
1000
0000
1010
0000
0000
0000
0110
0000
0000
0000
,  // measure 62
0001
0100
1000
0100
0001
1000
0110
0000
,  // measure 63
2002
0000
0000
3003
;
