#TITLE:Rainbow Flyer;
#SUBTITLE:-In The Dream Mix-;
#ARTIST:dj TAKA remixed by Sota Fujimori;
#TITLETRANSLIT:;
#SUBTITLETRANSLIT:;
#ARTISTTRANSLIT:;
#GENRE:;
#CREDIT:;
#MENUCOLOR:#00FF00;
#NEWMETERSYSTEM:NO;
#BANNER:Rainbow Flyer -In The Dream Mix-bn.png;
#BACKGROUND:Rainbow Flyer -In The Dream Mix-bg.png;
#LYRICSPATH:;
#CDTITLE:PROJECT VIRIDIAN-cdtitle.png;
#MUSIC:Rainbow Flyer -In The Dream Mix.mp3;
#OFFSET:-0.420;
#SAMPLESTART:53.920;
#SAMPLELENGTH:13.400;
#SELECTABLE:YES;
#LISTSORT:;
#BPMS:0.000=74.000,24.000=74.240,28.000=148.000;
#STOPS:;
#BGCHANGES:;
#ATTACKS:;

//---------------dance-single - ----------------
#NOTES:
     dance-single:
     :
     Easy:
     3:
     0.265,0.323,0.044,0.340,0.000: // measure 1
0000
0000
0000
0000
,  // measure 2
1000
0100
0000
0001
,  // measure 3
0100
0010
1000
1001
,  // measure 4
0010
0100
0000
0001
,  // measure 5
1000
0100
1000
0001
,  // measure 6
0220
0000
0000
0000
,  // measure 7
0000
0000
0000
0330
,  // measure 8
0001
0000
0100
0000
,  // measure 9
0001
0000
0100
0000
,  // measure 10
1000
0000
0010
0000
,  // measure 11
1000
0000
0001
0000
,  // measure 12
1000
0010
1000
0001
,  // measure 13
0100
0000
0001
0000
,  // measure 14
0010
0001
0010
0001
,  // measure 15
0100
0000
0010
1001
,  // measure 16
0200
0000
0310
0100
,  // measure 17
0001
0100
0010
0000
,  // measure 18
1000
0001
1000
0000
,  // measure 19
0100
1000
0010
0100
,  // measure 20
0002
0000
1003
0001
,  // measure 21
0100
0010
1000
0000
,  // measure 22
0022
0033
2200
3300
,  // measure 23
0002
2003
3002
0203
,  // measure 24
0310
0000
0000
0000
,  // measure 25
0100
0000
0000
0000
,  // measure 26
0010
0000
0000
0000
,  // measure 27
2000
0000
3001
0100
,  // measure 28
0010
2000
3000
0001
,  // measure 29
0100
0002
0003
0010
,  // measure 30
0100
0200
0300
1000
,  // measure 31
0020
0030
0100
0001
,  // measure 32
1000
0200
0300
1000
,  // measure 33
0001
0002
0003
1000
,  // measure 34
0100
2000
3000
0010
,  // measure 35
2000
3000
0001
0010
,  // measure 36
0001
0020
0030
0100
,  // measure 37
1000
0200
0300
1000
,  // measure 38
0001
0200
0300
0001
,  // measure 39
0002
0003
0100
0001
,  // measure 40
0100
0020
0030
1000
,  // measure 41
0100
0200
0300
0010
,  // measure 42
1000
0020
0030
1000
,  // measure 43
0001
0100
0001
0100
,  // measure 44
0020
0000
1030
0001
,  // measure 45
0200
0000
0301
1000
,  // measure 46
0200
0000
1300
0010
,  // measure 47
0100
0001
0010
0100
,  // measure 48
2000
0000
3001
0100
,  // measure 49
0020
0000
1030
0010
,  // measure 50
0200
0000
0301
0010
,  // measure 51
0100
0010
0001
1000
,  // measure 52
0002
0000
0103
0010
,  // measure 53
1000
0100
1000
0000
,  // measure 54
2000
0000
3001
0100
,  // measure 55
0001
0010
0001
1000
,  // measure 56
0020
0000
0130
0010
,  // measure 57
1000
0001
0001
0000
,  // measure 58
0200
0000
0301
1000
,  // measure 59
0001
0010
0100
1000
,  // measure 60
0020
0000
0000
0000
,  // measure 61
0000
0000
0000
0000
,  // measure 62
0000
0000
0000
0030
;

//---------------dance-single - Copied from----------------
#NOTES:
     dance-single:
     Copied from:
     Beginner:
     1:
     0.091,0.129,0.009,0.113,0.000:
0000
0000
0000
0000
,
0010
0000
1000
0000
,
0100
0000
0001
0000
,
1000
0000
0010
0000
,
0001
0000
1000
0000
,
0020
0000
0000
0000
,
0000
0000
0030
0000
,
0100
0000
0000
0000
,
0000
0000
0000
0000
,
1000
0000
0000
0000
,
0000
0000
0000
0000
,
0002
0000
0000
0000
,
0003
0000
0000
0000
,
0200
0000
0000
0000
,
0300
0000
0010
0000
,
0100
0000
0000
0000
,
0001
0000
0000
0000
,
0100
0000
0000
0000
,
1000
0000
0000
0000
,
0010
0000
0000
0000
,
1000
0000
0000
0000
,
0001
0000
0001
0000
,
0002
0000
0000
0000
,
0003
0000
0000
0000
,
0000
0000
0000
0000
,
0000
0000
0000
0000
,
1000
0000
0000
0000
,
1001
0000
0000
0000
,
0100
0000
0000
0000
,
0100
0000
0000
0000
,
0001
0000
0000
0000
,
0010
0000
0000
0000
,
1000
0000
0000
0000
,
0001
0000
0000
0000
,
0010
0000
0000
0000
,
1000
0000
0000
0000
,
0001
0000
0000
0000
,
0100
0000
0000
0000
,
0001
0000
0000
0000
,
0010
0000
0000
0000
,
0100
0000
0000
0000
,
0010
0000
0000
0000
,
2000
0000
3000
0000
,
0001
0000
0000
0000
,
0001
0000
0000
0000
,
0001
0000
0000
0000
,
0100
0000
0100
0000
,
1000
0000
0000
0000
,
1000
0000
0000
0000
,
1000
0000
0000
0000
,
0010
0000
0010
0000
,
0002
0000
0003
0000
,
0002
0000
0003
0000
,
0200
0000
0300
0000
,
0200
0000
0300
0000
,
0020
0000
0030
0000
,
0020
0000
0030
0000
,
2000
0000
3000
0000
,
2000
0000
3000
0000
,
0001
0000
0000
0000
;

//---------------dance-single - Copied from----------------
#NOTES:
     dance-single:
     Copied from:
     Medium:
     5:
     0.361,0.369,0.105,0.218,0.000:
0000
0000
0000
0000
,
1001
0000
0010
0000
0010
0100
0010
0000
,
1000
0000
0001
0000
0100
0100
0001
0000
,
1000
0000
0010
0000
0100
0001
1000
0000
,
0010
0000
0100
0000
0010
0020
0000
0000
,
0200
0000
0000
0000
,
0000
0000
0000
0330
,
0001
0100
0010
1000
,
0001
0100
0010
1000
,
0001
0100
1000
0100
,
0001
0010
1000
0010
,
0002
0100
1000
0103
,
2000
0100
0001
3100
,
0020
0100
1000
0130
,
0200
0010
0301
0110
,
0001
0000
0100
0010
1000
0000
0100
0000
,
1000
0001
0001
1000
,
0100
0010
0100
0010
,
0001
0000
1000
0000
0001
0100
1000
0000
,
0100
0001
1000
0001
,
0010
0100
0010
0001
,
1000
1001
0001
0101
,
0100
0010
0100
0010
1000
0010
0100
0000
,
0001
0000
0000
0000
,
1000
0000
0000
0000
,
0010
0010
0100
0010
,
2002
0000
3003
0010
,
0110
0000
0010
0000
0000
0001
1000
0001
,
0100
0000
0010
0000
0000
0010
1000
0001
,
0100
0000
0001
0000
0000
1000
0100
0010
,
0001
0100
0002
1003
,
1100
0000
0001
0000
0000
1000
0010
0100
,
0001
0000
0100
0000
0000
0001
0100
1000
,
0100
0000
0001
0000
0000
1000
0010
0100
,
0002
0000
0103
0010
1000
0000
0001
0000
,
0110
0000
0001
0000
1000
0100
0010
0000
,
0001
0000
0100
0000
0010
0100
0010
0000
,
1000
0000
0001
0000
0010
0001
0100
0000
,
0002
0203
0310
1010
,
1000
0000
0001
0000
0100
0010
1000
0000
,
0001
0000
1000
0000
0100
0010
0001
0000
,
1000
0000
0100
0000
1000
0010
0100
0002
,
0020
0000
0000
0033
,
1001
0000
0010
0100
0010
0000
1000
0000
,
0001
0000
1000
0100
0010
0000
0001
0000
,
1000
0000
0001
0100
0002
0000
0023
0000
,
0031
0100
0010
0200
0000
0020
0330
0000
,
2010
0000
0000
3001
0100
0000
0010
0000
,
2000
0000
0000
3001
0100
0000
0010
0000
,
0020
0000
0000
0130
0001
0000
1000
0000
,
0001
0100
0000
0010
0000
0100
0000
0001
,
1000
0000
0001
0100
0001
0000
1000
0000
,
0010
0100
0001
1000
0100
0000
0010
0000
,
0001
0000
1000
0100
0001
0000
0100
0000
,
1000
0020
0000
2030
0000
3001
0000
0000
,
0001
0000
0100
0010
0100
0000
1000
0100
,
0001
1000
0010
0100
0000
0000
1000
0000
,
0001
0000
0100
0001
1000
0000
0010
0000
,
0100
0001
0100
1000
0100
0001
1000
0000
,
2002
0000
0000
0000
,
0000
0000
3003
0000
;

//---------------dance-single - Copied from----------------
#NOTES:
     dance-single:
     Copied from:
     Hard:
     8:
     0.503,0.646,0.235,0.131,0.153:
0000
0000
0000
0000
,
1001
0000
0001
0100
0001
0100
0010
0000
0000
0100
0010
0100
0010
1000
0010
1000
,
0000
0000
0000
0000
0001
0000
0100
0000
1000
0000
0100
0000
0001
0000
0000
0000
1001
0000
0000
0001
0000
0000
0001
0000
0100
0000
0000
0000
0010
0000
0100
0000
,
0000
0000
0010
0100
0010
1000
0001
0000
1000
0000
0010
0100
1000
0100
0001
0010
,
0000
0000
0001
0000
0100
0001
0000
0001
0000
0100
0020
0000
0000
0000
0000
0000
,
0000
0000
0000
0000
,
0000
0000
0000
0030
,
1000
0000
0001
0100
1000
0100
0010
0100
,
0000
0010
1000
0100
0010
0001
1000
0001
,
0000
0010
0001
0100
1000
0100
0010
1000
,
0000
0001
0010
0100
1000
0001
0010
0100
,
0000
0010
0001
1000
0001
0100
0010
0001
,
0000
0010
0100
0010
1000
0001
0100
0001
,
0000
1000
0100
0000
0010
0000
0001
0000
0100
0000
0010
0000
1000
0000
0100
0010
,
0000
0010
0001
0000
0100
0000
0010
0000
1000
0000
0001
0000
0100
0001
0100
0001
,
2000
0000
0001
0010
3020
0000
0130
0000
,
0010
0000
1000
0001
0100
0000
0001
0000
,
0000
0001
0010
0000
0001
0000
0100
0000
1000
0000
0100
0000
0010
0000
1000
0100
,
0000
0010
0100
0000
1000
0000
0001
0000
0100
0000
0010
0000
0100
0000
0001
0000
,
0002
0000
0100
1000
2003
0000
3010
0000
,
0100
0010
1000
0001
0100
0000
0001
0000
,
0001
0000
0100
0000
0001
1000
0000
1000
0001
0000
0100
0000
0010
0100
0000
0001
,
0010
0000
0100
0000
1000
0000
0001
0000
0010
0000
0001
0000
0100
0010
1000
0001
,
0020
0000
0000
0000
,
0230
0000
0000
0000
,
1300
0000
0001
1000
0000
0001
1000
0000
0010
0000
0010
0000
0200
0000
0000
0000
,
0310
0000
0000
0010
0010
0000
0100
0001
,
1000
0000
0101
0000
0001
1000
0100
1000
,
0010
0000
1100
0000
1000
0010
0100
0001
,
1000
0000
0110
0000
0001
0100
0010
0100
,
1000
0000
0110
0010
0010
0000
0100
0001
,
1000
0000
1100
0000
1000
0100
0010
0001
,
1000
0000
1001
0000
0100
0010
0100
0001
,
0100
0000
1100
0000
1000
0001
0100
1000
,
0100
0000
1001
1000
0001
0000
0001
1000
,
0100
0000
0110
0000
1000
0010
0100
1000
,
0100
0000
1010
0000
0001
0010
0001
0100
,
0001
0000
0011
0000
0010
0100
0100
0010
,
1000
0000
1100
0100
0100
0000
0010
0100
,
1000
0000
0011
0000
0001
0100
0001
0010
,
0010
0000
1100
0000
1000
0001
1000
0100
,
0010
0000
0110
0000
0010
1000
0001
0020
,
0200
0030
0010
0000
0010
0000
0310
0000
,
1001
0000
1000
0100
0001
0000
0100
0000
,
0110
0000
0001
0100
1000
0000
0010
0000
,
1001
0000
0001
1000
0001
0000
1000
0000
,
0100
1000
0010
0100
0001
1000
0100
0010
,
0011
0000
1000
0010
1000
0000
0001
0000
,
0011
0000
0001
0100
1000
0000
0001
0000
,
1001
0000
0010
0100
0001
1000
0100
0000
,
1000
0002
0000
0203
0000
0310
0100
0001
,
1001
0000
0010
0100
0001
0000
1000
0000
,
0010
1000
0100
1000
0002
0000
0103
0000
,
0110
0000
0001
0100
0001
0000
1000
0000
,
0010
1000
0100
0010
0001
0100
0010
0000
,
1010
0000
1000
1000
0100
0000
0010
0000
,
0001
0100
0001
1000
0100
0000
1000
0000
,
0010
0000
0100
0010
0100
0000
0001
0000
,
1000
0100
0001
0100
1000
0010
0100
0000
,
2200
0000
0000
0000
,
0000
0000
0000
0000
,
0000
0000
0000
3300
;
